osu file format v9

[General]
AudioFilename: IU - Good Day.mp3
AudioLeadIn: 0
PreviewTime: 46777
Countdown: 1
SampleSet: Normal
StackLeniency: 0.6
Mode: 0
LetterboxInBreaks: 1

[Editor]
Bookmarks: 17832,32832,47832,79707,94707,109707,124707,154707,162207,177207,207207
DistanceSpacing: 1
BeatDivisor: 4
GridSize: 4

[Metadata]
Title:Good Day
Artist:IU
Creator:ykcarrot
Version:Easy
Source:
Tags:Yi Lee Ji-eun REAL Joeunnal

[Difficulty]
HPDrainRate:2
CircleSize:3
OverallDifficulty:2
ApproachRate:3
SliderMultiplier:0.999999999999999
SliderTickRate:2

[Events]
//Background and Video events
0,0,"IU_BG.jpg"
Video,400,"BGV.avi"
//Break Periods
2,79906,89517
2,154906,161235
//Storyboard Layer 0 (Background)
//Storyboard Layer 1 (Fail)
//Storyboard Layer 2 (Pass)
//Storyboard Layer 3 (Foreground)
//Storyboard Sound Samples
//Background Colour Transformations
3,100,163,162,255

[TimingPoints]
10332,468.75,4,1,1,60,1,0
47597,-100,4,1,1,70,0,0
90722,-100,4,1,1,60,0,0
94355,-100,4,2,1,60,0,0
98691,-100,4,2,1,40,0,0
102207,-100,4,1,1,60,0,0
124472,-100,4,1,1,70,0,0
162441,-100,4,1,1,60,0,0
179199,-100,4,1,1,10,0,0
179433,-100,4,1,1,15,0,0
179550,-100,4,1,1,20,0,0
179667,-100,4,1,1,25,0,0
179785,-100,4,1,1,30,0,0
179902,-100,4,1,1,35,0,0
180019,-100,4,1,1,40,0,0
180136,-100,4,1,1,45,0,0
180253,-100,4,1,1,50,0,0
180371,-100,4,1,1,55,0,0
180488,-100,4,1,1,60,0,0
180605,-100,4,1,1,65,0,0
180722,-100,4,1,1,70,0,0
180957,-100,4,1,1,70,0,1
194257,-100,4,1,1,5,0,1
194374,-100,4,1,1,70,0,1
194492,-100,4,1,1,5,0,1
194609,-100,4,1,1,70,0,1
205800,-100,4,2,1,70,0,0
206972,-100,4,1,1,70,0,0
209082,-100,4,2,1,70,0,1
214648,-100,4,2,1,70,0,0
214707,-100,4,2,1,50,0,1
214765,-100,4,2,1,80,0,1
216523,-100,4,2,1,80,0,0
216582,-100,4,2,1,60,0,1
216640,-100,4,2,1,90,0,1
219863,-100,4,1,1,70,0,0
224082,487.80487804878,4,2,1,60,1,0
224203,-100,4,2,1,5,0,0
224447,-100,4,2,1,60,0,0
224813,-100,4,2,1,50,0,0
225240,-100,4,2,1,5,0,0
225362,-100,4,2,1,50,0,0
225484,-100,4,2,1,5,0,0
225606,-100,4,2,1,50,0,0
226764,-100,4,2,1,40,0,0
232374,-100,4,2,1,30,0,0
232618,-100,4,2,1,20,0,0
232862,-100,4,2,1,10,0,0
233106,-100,4,2,1,5,0,0

[Colours]
Combo1 : 255,128,64
Combo2 : 128,255,128
Combo3 : 255,128,255
Combo4 : 0,128,255

[HitObjects]
256,192,15957,12,4,17832
348,256,18769,6,0,B|392:224|392:160|348:128,2,150
256,292,20644,2,0,B|200:292|172:244,2,99.9999999999999
256,192,22050,5,2
256,92,22519,2,0,B|300:92|324:120,2,74.9999999999999,2|2|2
204,92,23457,2,2,B|160:92|160:92|64:92|28:192|64:292|160:292|160:292|204:292,1,400,2|4
304,272,25800,6,0,B|368:252|368:132|304:112,1,200
244,192,27207,2,0,B|212:236|148:236|116:192,2,150,0|0|0
304,112,29082,1,0
364,192,29550,5,2
364,292,30019,2,0,B|404:292|432:264,2,74.9999999999999,2|2|2
312,292,30957,2,2,B|268:292|268:292|172:292|136:192|172:92|268:92|268:92|312:92,1,400,6|0
412,92,33300,5,0
412,192,33769,2,0,B|412:240|356:268|356:268|356:328|316:356,1,200,0|2
256,276,35175,1,8
196,356,35644,2,0,B|156:328|156:268|156:268|100:240|100:192,1,200,0|2
100,92,37050,1,8
168,20,37519,2,0,B|200:20|224:52|224:52|256:64|288:52|288:52|312:20|344:20,3,200,0|0|0|2
412,92,40800,5,8
348,168,41269,2,0,B|256:236|164:168,1,200,0|2
100,92,42675,1,8
40,172,43144,2,0,B|16:220|40:268,1,99.9999999999999
100,348,44082,2,0,B|336:348|440:172,1,400,0|2
504,40,46660,1,6
256,40,47832,6,0,B|204:40|168:84,1,99.9999999999999,4|8
108,160,48769,1,0
108,260,49238,2,0,B|180:260|200:196|200:196|280:196,1,200,8|8
380,196,50644,5,0
440,116,51113,1,8
380,36,51582,2,0,B|332:12|284:36,1,99.9999999999999,0|8
224,116,52519,1,0
284,196,52988,2,0,B|252:272|180:272|180:272|116:272,1,200,8|8
56,192,54394,6,0,B|56:92|56:92|36:72|36:48,2,150,0|0|10
156,192,56269,2,0,B|156:292|156:292|176:312|176:336,2,150,2|0|10
204,104,58144,6,0,B|156:76|108:104|108:104|60:104,2,150,2|0|8
308,104,60019,2,0,B|356:76|404:104|404:104|456:104,2,150,0|0|8
356,192,61894,6,0,B|356:296,1,99.9999999999999,0|8
256,292,62832,2,0,B|256:140|256:140|256:84|216:44|164:44,1,300,4|8
64,44,64707,2,0,B|64:100|108:128,1,99.9999999999999,0|8
204,164,65644,6,0,B|204:208|140:248|88:228,2,150,0|2|8
308,164,67519,2,0,B|308:208|372:248|424:228,2,150,0|0|10
304,64,69394,2,0,B|256:40|208:64,1,99.9999999999999,2|8
156,152,70332,6,0,B|156:200|204:236|204:236|156:272|156:320,1,200,4|0
256,319,71738,1,8
356,320,72207,2,0,B|356:272|308:236|308:236|356:200|356:152,1,200
256,152,73613,1,8
212,60,74082,6,0,B|168:24|72:8|32:88|32:184|64:252|148:232|196:244|256:336|256:336|316:244|364:232|448:252|480:184|480:88|440:8|344:24|300:60,1,999.999999999999,4|2
300,160,79238,2,0,B|284:184|228:184|212:160,1,99.9999999999999,0|4
256,292,90957,5,2
256,192,91425,1,2
192,116,91894,2,0,B|224:72|288:72|320:116,2,150,2|2|2
256,192,93769,2,0,B|256:300,2,99.9999999999999,0|0|2
56,192,96582,5,2
456,192,98457,1,2
356,192,98925,5,2
264,156,99394,2,0,B|244:192|264:228,2,74.9999999999999,2|2|2
288,112,100332,2,0,B|384:72|476:128|476:256|384:312|288:272,1,400,2|4
344,192,102675,6,0,B|244:192|244:192|192:192|156:144,1,200
156,48,104082,2,0,B|100:48|60:88|60:144,2,150,0|0|0
256,48,105957,1,0
256,148,106425,5,2
256,248,106894,2,0,B|256:332,2,74.9999999999999,2|2|2
296,216,107832,2,2,B|356:176|352:84|312:40|200:40|160:84|156:176|216:216,1,400,6|0
256,308,110175,5,0
356,308,110644,2,0,B|436:288|436:212|436:212|436:148,1,200,0|2
436,48,112050,1,8
336,48,112519,2,0,B|300:48|256:104|256:104|212:48|176:48,1,200,0|2
76,48,113925,1,8
76,148,114394,2,0,B|76:212|76:212|76:288|156:308,3,200,0|0|0|2
256,308,117675,5,8
272,208,118144,2,0,B|308:148|404:148|440:208,1,200,0|2
456,308,119550,1,8
356,308,120019,2,0,B|356:192,1,99.9999999999999
356,108,120957,2,0,B|277:-6|54:57|48:196,1,400,0|2
48,344,123535,1,6
300,344,124707,6,0,B|356:344|380:296,1,99.9999999999999,4|8
432,208,125644,1,0
332,208,126113,2,0,B|276:208|252:256|252:256|148:256,1,200,8|8
52,256,127519,5,0
4,168,127988,1,8
52,80,128457,2,0,B|100:56|148:80,1,99.9999999999999,0|8
196,168,129394,1,0
244,256,129863,2,0,B|336:324|428:256,1,200,8|8
476,168,131269,6,0,B|476:124|440:100|440:100|440:28,2,150,0|0|10
376,180,133144,2,0,B|376:224|412:248|412:248|412:320,2,150,2|0|10
308,108,135019,6,0,B|348:76|348:76|396:76|396:76|436:48,2,150,2|0|8
204,108,136894,2,0,B|164:76|164:76|116:76|116:76|76:48,2,150,0|0|8
204,208,138769,5,0
308,208,139238,1,8
372,132,139707,2,0,B|336:64|256:44|256:44|176:64|140:132,1,300,4|8
208,204,141582,2,0,B|256:228|304:204,1,99.9999999999999,0|8
304,104,142519,6,0,B|376:104|376:160|440:160,2,150,0|2|8
208,104,144394,2,0,B|136:104|136:160|72:160,2,150,0|0|10
256,192,146269,2,0,B|256:296,1,99.9999999999999,2|8
184,360,147207,6,0,B|136:332|136:280|136:280|136:176|136:176|184:156|204:108,1,300,4|8
308,108,149082,2,0,B|328:156|376:176|376:176|376:280|376:280|376:332|328:360,1,300,0|8
256,288,150957,6,0,B|192:352|100:332|52:272|52:176|108:120|180:120,1,400,4|2
180,220,153300,1,0
272,180,153769,2,0,B|320:156|368:180,2,99.9999999999999,0|0|4
256,192,162675,5,8
176,252,163144,2,0,B|76:252,2,99.9999999999999,0|8|0
256,312,164550,1,8
336,252,165019,2,0,B|436:252,2,99.9999999999999,0|8|0
256,192,166425,5,8
176,132,166894,2,0,B|76:132,2,99.9999999999999,0|8|0
256,72,168300,2,0,B|296:36|352:36|392:72,1,150,8|0
472,132,169472,1,0
440,228,169941,6,0,B|440:280|384:308,2,99.9999999999999,2|2|2
348,192,171347,1,2
256,156,171816,2,0,B|256:48,2,99.9999999999999,2|2|2
164,192,173222,1,2
72,228,173691,2,0,B|72:280|128:308,2,99.9999999999999,2|2|2
40,132,175097,1,2
80,40,175566,6,0,B|148:40,1,50,0|4
432,40,177207,1,4
256,192,179316,12,4,180957
256,192,181894,5,0
172,248,182363,2,0,B|208:308|304:308|340:248,1,200,8|8
348,148,183769,6,0,B|408:148|428:200,2,99.9999999999999,0|8|0
256,192,185175,1,10
164,148,185644,2,0,B|104:148|84:200,2,99.9999999999999,2|8|0
256,192,187050,1,8
304,280,187519,6,0,B|256:304|208:280,2,99.9999999999999,0|8|0
356,196,188925,1,8
256,192,189394,2,0,B|256:24,2,150,2|2|8
188,264,191269,6,0,B|220:300|292:300|324:264,2,150,0|0|4
188,264,194082,2,0,B|132:320,2,74.9999999999999,2|2|2
256,192,195253,2,0,B|296:152,1,50,0|0
356,80,195957,6,0,B|412:80|440:128,2,99.9999999999999,4|8|0
256,80,197363,2,0,B|192:80|192:80|116:80|80:144,1,200,8|8
56,240,198769,2,0,B|56:348,1,99.9999999999999,0|8
156,340,199707,6,0,B|160:220|352:220|356:340,1,300,4|8
256,340,201582,2,0,B|256:40,1,300,4|8
156,40,203457,2,0,B|156:140|156:140|156:216|256:284|356:216|356:140|356:140|356:40,1,499.999999999999,4|2
256,324,207207,5,2
256,224,207675,1,2
208,136,208144,2,0,B|256:112|304:136,1,99.9999999999999,4|4
256,192,209082,12,4,214707
256,192,214765,12,4,216582
256,192,216640,12,0,219863
256,304,221503,6,2,B|236:256|276:256|256:208,1,99.9999999999999
256,108,222441,2,0,B|256:40,1,50,2|2
208,344,224082,6,0,B|256:368|304:344,1,99.9999999999999,2|0
256,256,225057,2,0,B|256:176,2,74.9999999999999,2|2|2
156,28,227008,5,2
356,28,227984,1,2
256,192,228960,12,0,233838
