osu file format v12

[General]
AudioFilename: Every End of the Day.mp3
AudioLeadIn: 0
PreviewTime: 49160
Countdown: 0
SampleSet: Soft
StackLeniency: 0.7
Mode: 0
LetterboxInBreaks: 0

[Editor]
DistanceSpacing: 1
BeatDivisor: 4
GridSize: 4

[Metadata]
Title:Every End of the Day
TitleUnicode:하루 끝
Artist:IU
ArtistUnicode:아이유
Creator:Norman
Version:Easy
Source:
Tags:Lee Ji-eun
BeatmapID:223610
BeatmapSetID:80319

[Difficulty]
HPDrainRate:2
CircleSize:3
OverallDifficulty:2
ApproachRate:3
SliderMultiplier:1.2
SliderTickRate:1

[Events]
//Background and Video events
0,0,"bg3.jpg",0,0
Video,0,"IUmu.flv.avi"
//Break Periods
2,90073,92837
2,189155,193020
//Storyboard Layer 0 (Background)
//Storyboard Layer 1 (Fail)
//Storyboard Layer 2 (Pass)
//Storyboard Layer 3 (Foreground)
//Storyboard Sound Samples
//Background Colour Transformations
3,100,163,162,255

[TimingPoints]
1800,550.45871559633,4,2,0,80,1,0
21617,-100,4,2,0,60,0,0
21754,-100,4,2,0,80,0,0
30424,-100,4,2,0,60,0,0
31525,-100,4,2,0,80,0,0
39231,-100,4,2,0,60,0,0
39368,-100,4,2,0,80,0,0
50240,-100,4,1,0,70,0,1
66754,-100,4,1,0,70,0,0
67855,-100,4,1,0,70,0,1
76525,-100,4,1,0,70,0,0
76663,-100,4,1,0,70,0,1
84369,-100,4,2,0,80,0,1
85469,-100,4,1,0,70,0,0
86020,-100,4,1,0,60,0,0
86570,-100,4,1,0,50,0,0
87121,-100,4,1,0,40,0,0
87671,-100,4,1,0,30,0,0
88222,-100,4,1,0,20,0,0
88772,-100,4,1,0,10,0,0
89322,-100,4,1,0,5,0,0
89873,-100,4,1,0,70,0,0
94277,-100,4,2,0,80,0,0
103085,-100,4,2,0,60,0,0
103222,-100,4,2,0,80,0,0
111892,-100,4,2,0,60,0,0
112993,-100,4,2,0,80,0,0
130607,-100,4,2,0,80,0,0
131708,-100,4,1,0,70,0,1
148222,-100,4,1,0,70,0,0
149322,-100,4,1,0,70,0,1
157992,-100,4,1,0,70,0,0
158130,-100,4,1,0,70,0,1
166937,-100,4,2,0,60,0,0
170241,-100,4,2,0,80,0,0
186754,-100,4,1,0,70,0,0
188955,-100,4,1,0,85,0,1
189093,-100,4,1,0,70,0,0
197213,-100,4,2,0,100,0,0
197763,-100,4,1,0,70,0,1
205469,-100,4,1,0,70,0,0
206570,-100,4,1,0,70,0,1
215377,-100,4,1,0,70,0,0
215928,-100,4,1,0,70,0,1
221845,-100,4,1,0,70,0,0
221983,-100,4,1,0,70,0,1
222121,-100,4,2,0,100,0,0
222533,-100,4,2,0,50,0,0
222672,-100,4,2,0,5,0,0

[Colours]
Combo1 : 255,255,255
Combo2 : 255,0,0
Combo3 : 128,255,255

[HitObjects]
256,192,10607,12,4,12809,0:0:0:0:
256,124,13910,5,2,0:0:0:0:
436,280,15011,2,0,B|436:192|436:192|484:124|436:48|436:48,1,240,0|2,0:0|0:0,0:0:0:0:
340,120,16662,1,0,0:0:0:0:
252,36,17212,6,0,P|136:60|64:152,1,240,2|2,0:0|0:0,0:0:0:0:
168,368,19414,2,0,P|284:344|356:252,1,240,2|2,0:0|0:0,0:0:0:0:
420,152,21066,1,0,0:0:0:0:
316,88,21616,6,0,P|256:72|220:28,1,120,6|0,0:0|0:0,0:0:0:0:
104,64,22717,2,0,P|60:100|44:160,1,120,2|0,0:0|0:0,0:0:0:0:
164,164,23818,2,0,L|360:301,2,240,2|2|2,0:0|0:0|0:0,0:0:0:0:
100,60,26570,5,0,0:0:0:0:
220,68,27121,2,0,L|416:205,1,240,2|2,0:0|0:0,0:0:0:0:
476,312,28772,1,0,0:0:0:0:
364,352,29322,2,0,P|256:308|148:352,1,240,2|6,0:0|0:0,0:0:0:0:
364,352,31524,5,2,0:0:0:0:
448,124,32625,1,2,0:0:0:0:
224,36,33726,1,2,0:0:0:0:
132,256,34827,1,2,0:0:0:0:
76,360,35377,6,0,P|132:376|192:360,1,120,0|2,0:0|0:0,0:0:0:0:
132,256,36478,1,0,0:0:0:0:
192,152,37029,2,0,P|280:76|400:76,1,240,2|2,0:0|0:0,0:0:0:0:
508,128,38680,1,0,0:0:0:0:
420,208,39231,6,0,P|372:244|348:300,1,120,6|0,0:0|0:0,0:0:0:0:
256,376,40332,1,2,0:0:0:0:
92,208,41433,2,0,P|140:244|164:300,1,120,2|0,0:0|0:0,0:0:0:0:
256,376,42533,1,2,0:0:0:0:
256,136,43634,6,0,L|256:12,2,120,2|0|2,0:0|0:0|0:0,0:0:0:0:
256,256,45286,1,0,0:0:0:0:
256,192,45836,12,4,48038,0:0:0:0:
192,72,49139,6,0,P|140:40|80:36,1,120,2|0,0:0|0:0,0:0:0:0:
112,152,50240,6,0,B|112:304|112:304|176:368,1,240,4|2,0:0|0:0,0:0:0:0:
256,280,51891,1,8,0:0:0:0:
337,366,52442,2,0,B|400:304|400:304|400:152,1,240,2|2,0:0|0:0,0:0:0:0:
504,92,54093,1,8,0:0:0:0:
400,36,54644,6,0,P|340:44|304:88,1,120,2|8,0:0|0:0,0:0:0:0:
212,168,55744,2,0,P|106:216|0:168,1,240,2|2,0:0|0:0,0:0:0:0:
106,112,57396,1,8,0:0:0:0:
212,56,57946,6,0,P|268:40|328:56,2,120,0|8|4,0:0|0:0|0:0,0:0:0:0:
268,288,60148,2,0,P|209:303|153:287,2,120,0|8|4,0:0|0:0|0:0,0:0:0:0:
412,96,62350,2,0,P|424:156|462:198,1,120,2|8,0:0|0:0,0:0:0:0:
352,244,63451,6,0,P|306:137|204:69,2,240,2|0|2,0:0|0:0|0:0,0:0:0:0:
472,236,66203,1,8,0:0:0:0:
424,124,66754,2,0,P|372:92|340:44,1,120,2|8,0:0|0:0,0:0:0:0:
220,40,67855,6,0,B|136:40|136:40|40:164,1,240,4|2,0:0|0:0,0:0:0:0:
8,280,69506,1,8,0:0:0:0:
108,216,70056,2,0,L|181:120,1,120,2|8,0:0|0:0,0:0:0:0:
228,228,71157,2,0,L|155:324,2,120,2|8|2,0:0|0:0|0:0,0:0:0:0:
300,132,72809,6,2,P|416:124|484:216,1,240,10|8,0:0|0:0,0:0:0:0:
364,232,74460,1,0,0:0:0:0:
300,332,75011,1,8,0:0:0:0:
184,296,75561,2,0,B|108:308|108:308|72:336,2,120,2|8|4,0:0|0:0|0:0,0:0:0:0:
296,256,77212,5,8,0:0:0:0:
296,136,77763,2,0,L|296:16,1,120,2|8,0:0|0:0,0:0:0:0:
184,56,78864,2,0,P|132:88|72:92,1,120,2|8,0:0|0:0,0:0:0:0:
20,200,79965,2,0,P|104:280|224:280,1,240,2|2,0:0|0:0,0:0:0:0:
400,120,82166,1,2,0:0:0:0:
168,64,83267,5,2,0:0:0:0:
96,160,83818,1,4,0:0:0:0:
168,256,84368,2,0,P|220:288|252:336,1,120,2|0,0:0|0:0,0:0:0:0:
256,192,85469,12,4,89873,0:0:0:0:
64,140,94277,6,0,P|168:80|288:80,1,240,6|2,0:0|0:0,0:0:0:0:
396,36,95928,1,0,0:0:0:0:
468,132,96478,2,0,P|456:188|420:239,1,120,2|0,0:0|0:0,0:0:0:0:
324,312,97579,2,0,P|272:347|216:359,1,120,2|0,0:0|0:0,0:0:0:0:
104,320,98680,5,2,0:0:0:0:
56,84,99781,1,2,0:0:0:0:
296,64,100882,1,2,0:0:0:0:
384,144,101433,1,0,0:0:0:0:
320,244,101983,2,0,P|280:284|264:348,1,120,2|0,0:0|0:0,0:0:0:0:
144,364,103084,6,0,P|48:300|20:184,1,240,6|2,0:0|0:0,0:0:0:0:
204,32,105286,2,0,P|300:96|328:212,1,240,2|2,0:0|0:0,0:0:0:0:
264,312,106937,1,0,0:0:0:0:
384,312,107488,6,0,P|440:336|500:332,2,120,2|0|2,0:0|0:0|0:0,0:0:0:0:
460,216,109139,1,0,0:0:0:0:
408,108,109689,2,0,B|352:44|352:44|196:44,1,240,2|2,0:0|0:0,0:0:0:0:
196,164,111341,2,0,L|316:164,1,120,0|6,0:0|0:0,0:0:0:0:
76,148,112992,6,0,P|72:260|180:284,1,240,2|2,0:0|0:0,0:0:0:0:
196,164,114644,1,0,0:0:0:0:
300,104,115194,2,0,P|356:88|416:104,1,120,2|0,0:0|0:0,0:0:0:0:
356,208,116295,6,0,B|321:257|321:257|304:364|192:352,1,240,2|2,0:0|0:0,0:0:0:0:
208,232,117946,1,0,0:0:0:0:
276,132,118497,1,2,0:0:0:0:
156,116,119047,2,0,P|100:92|60:44,2,120,0|2|0,0:0|0:0|0:0,0:0:0:0:
256,48,120699,6,0,B|336:48|384:104|384:104|412:60|468:72,1,240,4|2,0:0|0:0,0:0:0:0:
468,192,122350,1,0,0:0:0:0:
466,312,122900,2,0,B|412:324|384:280|384:280|336:336|256:336,1,240,2|2,0:0|0:0,0:0:0:0:
176,108,125102,6,0,P|120:124|80:172,1,120,2|0,0:0|0:0,0:0:0:0:
184,228,126203,2,0,P|240:212|280:164,1,120,2|0,0:0|0:0,0:0:0:0:
256,192,127304,12,4,129506,0:0:0:0:
200,164,130607,6,0,P|260:152|316:164,1,120,2|0,0:0|0:0,0:0:0:0:
372,56,131708,6,0,P|256:28|140:56,1,240,4|2,0:0|0:0,0:0:0:0:
80,160,133359,1,8,0:0:0:0:
140,264,133910,2,0,P|116:316|64:348,1,120,2|8,0:0|0:0,0:0:0:0:
12,240,135011,2,0,L|12:120,1,120,2|8,0:0|0:0,0:0:0:0:
132,136,136111,6,0,P|248:164|260:272,1,240,2|2,0:0|0:0,0:0:0:0:
380,260,137763,1,8,0:0:0:0:
476,184,138313,2,0,P|472:124|432:84,1,120,2|8,0:0|0:0,0:0:0:0:
344,168,139414,2,0,B|344:228|344:228|404:256|404:332|344:376,1,240,2|4,0:0|0:0,0:0:0:0:
256,296,141066,5,8,0:0:0:0:
166,375,141616,2,0,B|108:332|108:256|168:228|168:228|168:168,1,240,2|4,0:0|0:0,0:0:0:0:
168,48,143267,1,8,0:0:0:0:
276,104,143818,2,0,P|336:96|384:64,1,120,2|8,0:0|0:0,0:0:0:0:
504,64,144919,6,0,P|516:180|460:288,1,240,2|2,0:0|0:0,0:0:0:0:
360,352,146570,1,8,0:0:0:0:
260,288,147121,2,0,P|204:272|144:288,1,120,2|8,0:0|0:0,0:0:0:0:
40,344,148222,2,0,P|24:288|40:229,1,120,2|8,0:0|0:0,0:0:0:0:
40,108,149322,6,0,B|136:32|136:32|256:32,1,240,4|2,0:0|0:0,0:0:0:0:
348,104,150974,1,8,0:0:0:0:
256,180,151524,2,0,L|136:180,1,120,2|8,0:0|0:0,0:0:0:0:
16,180,152625,2,0,P|0:236|16:296,1,120,2|8,0:0|0:0,0:0:0:0:
112,372,153726,6,0,B|208:336|256:268|256:268|304:336|400:372,1,360,2|8,0:0|0:0,0:0:0:0:
512,328,155928,1,2,0:0:0:0:
452,224,156478,1,4,0:0:0:0:
352,156,157029,2,0,B|352:88|352:88|360:68|360:68|360:36,2,120,2|8|4,0:0|0:0|0:0,0:0:0:0:
256,228,158680,5,8,0:0:0:0:
160,156,159231,2,0,B|160:88|160:88|152:68|152:68|152:36,2,120,2|8|2,0:0|0:0|0:0,0:0:0:0:
256,228,160882,1,8,0:0:0:0:
200,332,161433,2,0,P|256:348|316:332,1,120,2|8,0:0|0:0,0:0:0:0:
256,228,162533,6,0,L|256:108,2,120,2|8|2,0:0|0:0|0:0,0:0:0:0:
152,168,164185,2,0,P|96:192|60:240,1,120,8|2,0:0|0:0,0:0:0:0:
172,280,165286,1,4,0:0:0:0:
284,324,165836,2,0,P|340:340|400:324,1,120,2|8,0:0|0:0,0:0:0:0:
256,192,166937,12,4,169139,0:0:0:0:
312,136,170240,6,0,P|256:152|196:136,1,120,2|8,0:0|0:0,0:0:0:0:
256,32,171341,2,0,L|256:272,1,240,2|0,0:0|0:0,0:0:0:0:
156,208,172992,1,8,0:0:0:0:
148,324,173543,6,0,P|256:368|364:324,1,240,4|0,0:0|0:0,0:0:0:0:
256,272,175194,1,8,0:0:0:0:
256,152,175744,2,0,L|256:32,1,120,2|8,0:0|0:0,0:0:0:0:
136,40,176845,2,0,P|76:48|28:80,1,120,2|8,0:0|0:0,0:0:0:0:
116,160,177946,6,0,P|180:260|288:312,2,240,4|2|0,0:0|0:0|0:0,0:0:0:0:
228,120,180699,2,8,P|284:140|344:132,1,120,8|2,0:0|0:0,0:0:0:0:
464,120,181800,1,8,0:0:0:0:
256,192,182350,12,2,184552,0:0:0:0:
312,100,186754,6,2,P|256:80|200:100,1,120,2|0,0:0|0:0,0:0:0:0:
256,204,187855,2,0,L|256:324,2,120,2|8|4,0:0|0:0|0:0,0:0:0:0:
100,132,194460,6,0,L|28:216,2,90,2|2|2,0:0|0:0|0:0,0:0:0:0:
144,92,195561,2,2,P|256:56|368:92,1,240
488,72,197212,1,8,0:0:0:0:
472,192,197763,6,0,P|452:248|412:292,1,120,6|8,0:0|0:0,0:0:0:0:
316,364,198864,1,2,0:0:0:0:
196,364,199414,1,8,0:0:0:0:
100,292,199965,2,0,P|60:248|40:192,1,120,2|8,0:0|0:0,0:0:0:0:
19,73,201066,2,0,B|111:73|111:73|167:57|167:57|256:57,1,240,2|2,0:0|0:0,0:0:0:0:
256,176,202717,5,8,0:0:0:0:
256,57,203267,2,0,B|345:57|345:57|401:73|401:73|493:73,1,240,2|2,0:0|0:0,0:0:0:0:
504,192,204919,1,8,0:0:0:0:
384,176,205469,2,0,P|336:212|316:268,1,120,2|8,0:0|0:0,0:0:0:0:
195,266,206570,6,0,P|176:212|128:176,2,120,6|8|2,0:0|0:0|0:0,0:0:0:0:
256,372,208222,1,8,0:0:0:0:
256,252,208772,2,0,L|256:12,1,240,6|2,0:0|0:0,0:0:0:0:
172,96,210423,1,8,0:0:0:0:
172,96,210974,6,2,B|172:195|172:195|172:278|229:303|280:303|338:278|338:195|338:195|338:96,1,480,6|2,0:0|0:0,0:0:0:0:
256,12,213726,1,8,0:0:0:0:
172,96,214277,1,2,0:0:0:0:
52,96,214827,2,0,P|32:152|52:208,1,120,8|2,0:0|0:0,0:0:0:0:
108,312,215928,5,4,0:0:0:0:
228,312,216478,2,0,P|340:272|449:312,1,240,2|2,0:0|0:0,0:0:0:0:
508,208,218130,1,8,0:0:0:0:
448,104,218680,2,0,P|404:64|344:48,1,120,2|8,0:0|0:0,0:0:0:0:
256,128,219781,6,0,L|256:220,2,90,2|2|2,0:0|0:0|0:0,0:0:0:0:
216,84,220882,2,0,P|158:99|114:139,1,120,2|8,0:0|0:0,0:0:0:0:
115,259,221983,2,0,P|159:299|216:314,1,120,6|4,0:0|0:0,0:0:0:0:
256,192,222809,12,0,229139,0:0:0:0:
