osu file format v14

[General]
AudioFilename: www.mp3
AudioLeadIn: 2000
PreviewTime: 49548
Countdown: 0
SampleSet: Soft
StackLeniency: 0.6
Mode: 0
LetterboxInBreaks: 0
WidescreenStoryboard: 0

[Editor]
Bookmarks: 12774,37548,49741,71612,77806,83999,96387,108580,130451,142838,161225,173806,179999,183483,210967
DistanceSpacing: 1
BeatDivisor: 4
GridSize: 4
TimelineZoom: 1

[Metadata]
Title:Setsuna Plus
TitleUnicode:刹那プラス
Artist:ITO KASHITARO
ArtistUnicode:伊東歌詞太郎
Creator:appleeaterx
Version:Normal
Source:
Tags:momentary plus weezer fuwamoko-p mikitop mikito-p みきとP my little white cat itou kashitarou
BeatmapID:528556
BeatmapSetID:226731

[Difficulty]
HPDrainRate:4
CircleSize:3
OverallDifficulty:4
ApproachRate:4.5
SliderMultiplier:1
SliderTickRate:1

[Events]
//Background and Video events
0,0,"plus.jpg",0,0
//Break Periods
2,71818,76165
2,136851,140810
2,174012,178745
//Storyboard Layer 0 (Background)
//Storyboard Layer 1 (Fail)
//Storyboard Layer 2 (Pass)
//Storyboard Layer 3 (Foreground)
//Storyboard Sound Samples

[TimingPoints]
393,387.096774193548,4,2,1,60,1,0
12780,-100,4,2,2,60,0,0
37554,-100,4,2,2,50,0,0
46844,-100,4,2,1,45,0,0
49747,-100,4,2,2,70,0,1
49844,-100,4,2,1,70,0,1
61554,-100,4,2,2,70,0,0
62134,-100,4,2,1,70,0,1
71618,-100,4,2,2,60,0,0
96392,-100,4,2,2,50,0,0
105683,-100,4,2,2,45,0,0
108586,-100,4,2,1,70,0,1
120392,-100,4,2,2,70,0,0
120973,-100,4,2,1,70,0,1
130457,-100,4,2,2,60,0,0
133554,-100,4,2,2,70,0,0
136554,-100,4,2,1,50,0,0
160651,-100,4,2,1,60,0,0
183489,-100,4,2,1,70,0,1
194715,-100,4,2,1,70,0,0
195296,-100,4,2,1,70,0,1
204392,-100,4,2,1,70,0,0
204586,-100,4,2,1,70,0,1
208263,-100,4,2,1,45,0,1
208651,-100,4,2,1,50,0,1
209038,-100,4,2,1,55,0,1
209425,-100,4,2,1,60,0,1
209812,-100,4,2,1,65,0,1
210199,-100,4,2,1,70,0,1
210973,-100,4,2,1,60,0,0

[Colours]
Combo1 : 255,255,157
Combo2 : 252,116,181
Combo3 : 128,255,128

[HitObjects]
268,44,393,6,0,P|209:38|166:48,1,100,0|2,0:0|0:0,0:0:0:0:
73,70,1167,2,0,L|76:178,1,100,0|2,0:0|0:0,0:0:0:0:
150,237,1941,2,0,P|204:231|252:243,1,100,2|0,0:0|0:0,0:0:0:0:
272,286,2522,2,0,P|326:291|372:284,1,100,2|0,0:0|0:0,0:0:0:0:
415,262,3102,1,2,0:0:0:0:
384,164,3489,6,0,P|388:124|384:60,1,100,2|0,0:0|0:0,0:0:0:0:
288,40,4263,2,0,P|224:36|180:44,1,100,2|0,0:0|0:0,0:0:0:0:
103,95,5038,1,0,0:0:0:0:
92,196,5425,2,0,P|152:196|188:236,1,100,2|0,0:0|0:0,0:0:0:0:
204,264,6005,2,0,P|252:280|320:264,1,100,2|0,0:0|0:0,0:0:0:0:
348,260,6586,6,0,P|364:192|368:152,1,100,2|0,0:0|0:0,0:0:0:0:
340,68,7360,1,0,0:0:0:0:
244,44,7747,1,2,0:0:0:0:
144,60,8134,2,0,P|136:104|128:160,1,100,0|0,0:0|0:0,0:0:0:0:
220,201,8909,2,0,P|256:240|272:288,1,100,2|0,0:0|0:0,0:0:0:0:
171,287,9683,6,0,P|125:306|78:293,1,100,0|2,0:0|0:0,0:0:0:0:
128,208,10457,2,0,P|173:188|220:201,1,100,0|0,0:0|0:0,0:0:0:0:
320,216,11231,2,0,P|312:180|292:120,1,100,2|0,0:0|0:0,0:0:0:0:
272,76,11812,2,0,P|220:104|168:104,1,100,2|0,0:0|0:0,0:0:0:0:
132,88,12393,1,0,0:0:0:0:
68,168,12780,6,0,P|72:224|72:272,1,100,6|8,0:0|0:0,0:0:0:0:
148,332,13554,2,0,P|208:344|248:332,1,100,0|8,0:0|0:0,0:0:0:0:
336,300,14328,2,0,L|380:344,2,50,0|0|8,0:0|0:0|0:0,0:0:0:0:
352,200,15102,2,0,P|344:168|296:116,1,100,2|8,0:0|0:0,0:0:0:0:
208,72,15876,6,0,L|100:60,2,100,2|8|0,0:0|0:0|0:0,0:0:0:0:
264,156,17038,1,8,0:0:0:0:
216,244,17425,2,0,P|204:276|196:308,2,50,0|0|8,0:0|0:0|0:0,0:0:0:0:
264,156,18199,1,2,0:0:0:0:
364,156,18586,1,8,0:0:0:0:
416,240,18973,6,0,P|460:152|408:68,1,200,6|0,0:0|0:0,0:0:0:0:
316,44,20134,1,8,0:0:0:0:
216,60,20522,2,0,P|152:76|116:104,1,100,0|8,0:0|0:0,0:0:0:0:
200,160,21296,2,0,P|156:209|143:253,1,100,2|8,0:0|0:0,0:0:0:0:
212,316,22070,5,2,0:0:0:0:
308,332,22457,1,8,0:0:0:0:
400,284,22844,2,0,P|412:236|416:184,1,100,2|8,0:0|0:0,0:0:0:0:
388,92,23618,2,0,L|428:60,2,50,0|0|8,0:0|0:0|0:0,0:0:0:0:
308,156,24392,1,2,0:0:0:0:
212,124,24780,1,4,0:0:0:0:
176,32,25167,6,0,P|112:44|72:160,1,200,6|0,0:0|0:0,0:0:0:0:
128,248,26328,1,8,0:0:0:0:
216,300,26715,2,0,P|264:300|316:292,1,100,0|8,0:0|0:0,0:0:0:0:
412,264,27489,2,0,P|416:208|404:160,1,100,2|8,0:0|0:0,0:0:0:0:
336,96,28263,6,0,P|292:84|236:72,2,100,2|8|0,0:0|0:0|0:0,0:0:0:0:
406,165,29425,1,8,0:0:0:0:
336,236,29812,2,0,P|276:252|228:244,1,100,2|8,0:0|0:0,0:0:0:0:
140,228,30586,1,0,0:0:0:0:
152,128,30973,2,8,L|168:76,1,50
208,56,31360,6,0,P|300:44|412:56,1,200,6|0,0:0|0:0,0:0:0:0:
476,124,32522,1,8,0:0:0:0:
444,220,32909,2,0,L|460:268,2,50,2|0|8,0:0|0:0|0:0,0:0:0:0:
364,156,33683,2,0,P|328:180|292:224,1,100,0|8,0:0|0:0,0:0:0:0:
244,311,34457,6,0,L|133:318,1,100,2|8,0:0|0:0,0:0:0:0:
45,334,35231,1,0,0:0:0:0:
27,235,35618,1,8,0:0:0:0:
123,208,36005,2,0,P|171:216|235:208,1,100,2|0,0:0|0:0,0:0:0:0:
255,174,36586,1,8,0:0:0:0:
296,145,36780,2,0,P|344:137|408:145,1,100,2|4,0:0|0:0,0:0:0:0:
442,229,37554,6,0,L|439:293,1,50,6|0,0:0|0:0,0:0:0:0:
414,322,37941,1,8,0:0:0:0:
320,352,38328,1,0,0:0:0:0:
228,316,38715,1,8,0:0:0:0:
184,228,39102,2,0,P|172:164|180:116,1,100,2|8,0:0|0:0,0:0:0:0:
236,48,39876,2,0,P|280:60|340:56,1,100,0|8,0:0|0:0,0:0:0:0:
428,92,40651,6,0,P|472:196|416:280,1,200,4|0,0:0|0:0,0:0:0:0:
340,300,41812,2,0,P|288:296|244:316,1,100,8|0,0:0|0:0,0:0:0:0:
148,344,42586,1,8,0:0:0:0:
76,272,42973,2,0,L|32:304,2,50,0|0|8,0:0|0:0|0:0,0:0:0:0:
128,186,43747,6,0,L|127:124,1,50,6|0,0:0|0:0,0:0:0:0:
159,97,44134,1,8,0:0:0:0:
258,110,44522,1,0,0:0:0:0:
354,85,44909,1,8,0:0:0:0:
450,109,45296,6,0,L|448:164,1,50,6|0,0:0|0:0,0:0:0:0:
432,206,45683,1,8,0:0:0:0:
365,280,46070,2,0,P|315:277|264:295,1,100
171,319,46844,6,0,P|96:287|81:176,1,200,6|0,0:0|0:0,0:0:0:0:
149,107,48005,1,0,0:0:0:0:
232,168,48392,1,0,0:0:0:0:
280,184,48586,2,0,P|328:184|388:172,1,100,8|0,0:0|0:0,0:0:0:0:
400,128,49167,2,0,P|392:80|372:28,1,100,8|8,0:0|0:0,0:0:0:0:
324,24,49747,6,0,P|252:52|176:28,1,150,6|8,0:0|0:0,0:0:0:0:
84,24,50715,2,0,P|92:100|92:140,1,100,0|8,0:0|0:0,0:0:0:0:
56,216,51489,2,0,P|16:288|8:324,2,100,2|8|0,0:0|0:0|0:0,0:0:0:0:
152,188,52651,1,8,0:0:0:0:
196,212,52844,6,0,P|264:232|336:200,1,150,6|8,0:0|0:0,0:0:0:0:
396,124,53812,2,0,L|408:76,2,50,0|0|8,0:0|0:0|0:0,0:0:0:0:
444,212,54586,2,0,P|444:256|440:324,1,100,2|8,0:0|0:0,0:0:0:0:
340,320,55360,2,0,P|284:324|224:320,1,100,0|8,0:0|0:0,0:0:0:0:
196,296,55941,6,0,P|184:208|224:156,1,150,6|8,0:0|0:0,0:0:0:0:
280,240,56909,1,8,0:0:0:0:
372,200,57296,1,8,0:0:0:0:
356,152,57489,2,0,P|354:87|284:36,1,150,6|8,0:0|0:0,0:0:0:0:
195,76,58457,1,8,0:0:0:0:
108,132,58844,1,8,0:0:0:0:
128,180,59038,6,0,B|176:208|224:184|224:184|244:240,1,150,6|8,0:0|0:0,0:0:0:0:
280,320,60005,2,0,P|344:328|392:320,1,100,2|8,0:0|0:0,0:0:0:0:
420,296,60586,2,0,P|428:224|424:180,1,100,6|0,0:0|0:0,0:0:0:0:
404,152,61167,2,0,P|352:152|296:144,1,100,8|8,0:0|0:0,0:0:0:0:
216,100,61941,1,8,0:0:0:0:
172,124,62134,6,0,P|88:116|12:136,1,150,6|8,0:0|0:0,0:0:0:0:
0,228,63102,1,0,0:0:0:0:
80,288,63489,1,8,0:0:0:0:
148,216,63876,2,0,P|192:208|252:212,1,100,0|8,0:0|0:0,0:0:0:0:
284,304,64651,1,2,0:0:0:0:
380,324,65038,1,8,0:0:0:0:
420,296,65231,6,0,P|448:240|456:152,1,150,6|8,0:0|0:0,0:0:0:0:
384,84,66199,2,0,L|400:32,2,50,0|0|8,0:0|0:0|0:0,0:0:0:0:
292,124,66973,2,0,P|224:128|176:128,1,100,2|8,0:0|0:0,0:0:0:0:
96,108,67747,1,0,0:0:0:0:
60,200,68134,1,8,0:0:0:0:
92,240,68328,6,0,P|140:284|236:288,1,150,6|8,0:0|0:0,0:0:0:0:
320,288,69296,2,0,P|336:240|364:184,1,100,8|0,0:0|0:0,0:0:0:0:
396,164,69876,2,0,P|360:140|320:96,1,100,2|0,0:0|0:0,0:0:0:0:
308,52,70457,2,0,P|260:60|204:56,1,100,8|0,0:0|0:0,0:0:0:0:
112,84,71231,1,0,0:0:0:0:
52,164,71618,5,4,0:0:0:0:
124,156,77425,5,8,0:0:0:0:
208,104,77812,6,0,P|276:120|324:104,1,100,12|8,0:0|0:0,0:0:0:0:
392,64,78586,1,0,0:0:0:0:
444,152,78973,1,10,0:0:0:0:
412,248,79360,2,0,P|336:256|312:284,1,100,2|8,0:0|0:0,0:0:0:0:
232,316,80134,2,0,L|248:372,2,50,2|0|10,0:0|0:0|0:0,0:0:0:0:
158,248,80909,6,0,P|101:248|56:242,1,100,2|8,0:0|0:0,0:0:0:0:
30,199,81489,2,0,P|29:140|35:95,1,100,2|0,0:0|0:0,0:0:0:0:
74,69,82070,1,8,0:0:0:0:
163,112,82457,1,0,0:0:0:0:
250,64,82844,1,8,0:0:0:0:
337,112,83231,2,0,P|385:85|433:88,1,100,2|8,0:0|0:0,0:0:0:0:
466,119,83812,1,8,0:0:0:0:
464,168,84005,6,0,P|464:228|456:288,1,100,6|8,0:0|0:0,0:0:0:0:
380,328,84780,1,0,0:0:0:0:
280,332,85167,1,8,0:0:0:0:
196,276,85554,2,0,P|172:312|168:328,2,50,2|0|8,0:0|0:0|0:0,0:0:0:0:
248,192,86328,1,0,0:0:0:0:
344,216,86715,1,8,0:0:0:0:
400,136,87102,6,0,P|372:104|300:80,1,100,2|8,0:0|0:0,0:0:0:0:
220,72,87876,2,0,P|160:76|108:72,1,100,2|8,0:0|0:0,0:0:0:0:
20,64,88651,2,0,L|-8:12,2,50,2|0|8,0:0|0:0|0:0,0:0:0:0:
44,160,89425,2,0,P|40:212|44:260,1,100,0|4,0:0|0:0,0:0:0:0:
136,296,90199,6,0,P|232:340|320:292,1,200,6|0,0:0|0:0,0:0:0:0:
388,240,91360,1,8,0:0:0:0:
372,140,91747,2,0,P|340:108|292:80,1,100,0|8,0:0|0:0,0:0:0:0:
200,40,92522,2,0,P|148:52|96:52,1,100,2|8,0:0|0:0,0:0:0:0:
36,128,93296,6,0,L|-16:136,2,50,2|0|8,0:0|0:0|0:0,0:0:0:0:
108,196,94070,2,0,L|160:204,2,50,0|0|8,0:0|0:0|0:0,0:0:0:0:
80,292,94844,2,0,B|112:300|148:288|148:288|180:332,1,100,6|0,0:0|0:0,0:0:0:0:
208,340,95425,1,8,0:0:0:0:
248,368,95618,2,0,B|280:360|316:372|316:372|348:328,1,100,2|12,0:0|0:0,0:0:0:0:
403,274,96392,6,0,L|403:214,1,50,6|0,0:0|0:0,0:0:0:0:
419,176,96780,1,8,0:0:0:0:
348,104,97167,1,0,0:0:0:0:
248,92,97554,1,8,0:0:0:0:
156,136,97941,2,0,P|92:144|44:132,1,100,2|8,0:0|0:0,0:0:0:0:
92,44,98715,2,0,P|156:36|204:48,1,100,0|8,0:0|0:0,0:0:0:0:
292,52,99489,6,0,B|348:72|392:64|392:64|404:108|448:152,1,200,6|2,0:0|0:0,0:0:0:0:
440,248,100651,1,8,0:0:0:0:
368,316,101038,2,0,P|316:320|264:312,1,100,0|8,0:0|0:0,0:0:0:0:
168,296,101812,2,0,L|152:367,2,50,0|0|8,0:0|0:0|0:0,0:0:0:0:
105,218,102586,6,0,L|100:146,1,50,6|0,0:0|0:0,0:0:0:0:
119,121,102973,1,8,0:0:0:0:
189,50,103360,2,0,P|247:63|280:85,1,100,0|8,0:0|0:0,0:0:0:0:
321,176,104134,6,0,L|384:172,1,50,6|0,0:0|0:0,0:0:0:0:
414,198,104522,1,8,0:0:0:0:
440,101,104909,1,0,0:0:0:0:
364,32,105296,1,8,0:0:0:0:
264,60,105683,6,0,P|208:96|76:76,1,200,6|8,0:0|0:0,0:0:0:0:
12,152,106844,1,0,0:0:0:0:
16,252,107231,1,2,0:0:0:0:
104,296,107618,2,0,P|164:292|208:296,1,100,12|8,0:0|0:0,0:0:0:0:
300,336,108393,1,8,0:0:0:0:
348,320,108586,6,0,B|360:260|360:236|360:236|392:212|416:172,1,150,6|8,0:0|0:0,0:0:0:0:
484,128,109554,2,0,P|424:96|384:84,1,100,2|8,0:0|0:0,0:0:0:0:
312,148,110328,2,0,P|260:152|204:144,1,100,2|8,0:0|0:0,0:0:0:0:
120,104,111102,1,0,0:0:0:0:
60,184,111489,1,8,0:0:0:0:
96,220,111683,6,0,P|168:260|196:336,1,150,6|8,0:0|0:0,0:0:0:0:
284,368,112651,1,2,0:0:0:0:
364,308,113038,1,8,0:0:0:0:
336,208,113425,2,0,P|384:159|409:111,2,100,2|8|0,0:0|0:0|0:0,0:0:0:0:
236,188,114586,1,8,0:0:0:0:
192,168,114780,6,0,P|188:104|244:32,1,150,6|8,0:0|0:0,0:0:0:0:
340,28,115747,1,8,0:0:0:0:
412,100,116134,1,12,0:0:0:0:
432,148,116328,2,0,P|433:221|387:279,1,150,2|8,0:0|0:0,0:0:0:0:
296,320,117296,1,8,0:0:0:0:
208,272,117683,1,8,0:0:0:0:
160,284,117876,6,0,P|72:264|64:208,1,150,6|8,0:0|0:0,0:0:0:0:
96,120,118844,2,0,P|156:132|208:124,1,100,0|8,0:0|0:0,0:0:0:0:
220,84,119425,2,0,L|272:76|328:72,1,100,6|0,0:0|0:0,0:0:0:0:
364,52,120005,2,0,P|364:104|372:160,1,100,8|8,0:0|0:0,0:0:0:0:
380,252,120780,1,8,0:0:0:0:
332,240,120973,6,0,P|244:252|192:304,1,150,6|8,0:0|0:0,0:0:0:0:
108,336,121941,2,0,P|52:308|32:256,1,100,2|8,0:0|0:0,0:0:0:0:
68,184,122715,2,0,P|52:132|64:72,2,100,2|8|0,0:0|0:0|0:0,0:0:0:0:
164,220,123876,1,8,0:0:0:0:
212,236,124070,6,0,P|272:256|360:212,1,150,6|8,0:0|0:0,0:0:0:0:
384,132,125038,2,0,P|360:104|304:64,1,100,2|8,0:0|0:0,0:0:0:0:
212,40,125812,2,0,P|164:60|108:68,1,100,2|8,0:0|0:0,0:0:0:0:
60,148,126586,1,0,0:0:0:0:
88,244,126973,1,8,0:0:0:0:
124,280,127167,6,0,P|200:312|276:288,1,150,6|8,0:0|0:0,0:0:0:0:
360,272,128134,2,0,P|400:228|424:188,1,100,0|8,0:0|0:0,0:0:0:0:
416,144,128715,2,0,P|379:109|337:82,1,100,2|0,0:0|0:0,0:0:0:0:
292,100,129296,2,0,P|252:144|228:184,1,100,8|0,0:0|0:0,0:0:0:0:
192,272,130070,1,0,0:0:0:0:
92,264,130457,5,4,0:0:0:0:
256,192,130651,12,2,136651,0:0:0:0:
160,320,142070,6,0,P|212:324|264:320,1,100,0|0,0:0|0:0,0:0:0:0:
360,308,142844,6,0,P|376:264|348:112,1,200,6|10,0:0|0:0,0:0:0:0:
268,64,144005,1,0,0:0:0:0:
212,144,144393,2,0,P|152:152|92:152,1,100,0|0,0:0|0:0,0:0:0:0:
24,108,145167,2,0,P|20:156|28:212,1,100,8|0,0:0|0:0,0:0:0:0:
100,276,145941,6,0,B|160:280|196:312|196:312|240:300|304:324,1,200,2|10,0:0|0:0,0:0:0:0:
388,324,147102,1,0,0:0:0:0:
408,228,147489,2,0,P|416:136|332:72,1,200,10|10,0:0|0:0,0:0:0:0:
244,104,148651,1,0,0:0:0:0:
160,52,149038,6,0,P|160:140|136:204,1,150,6|0,0:0|0:0,0:0:0:0:
96,224,149812,2,0,P|152:252|192:296,1,100,8|2,0:0|0:0,0:0:0:0:
256,340,150586,1,8,0:0:0:0:
352,320,150973,1,2,0:0:0:0:
412,240,151360,2,0,P|424:184|424:128,1,100,8|0,0:0|0:0,0:0:0:0:
340,92,152134,6,0,B|308:80|296:52|296:52|252:60|200:88,1,150,2|0,0:0|0:0,0:0:0:0:
164,80,152909,2,0,P|172:132|168:200,1,100,8|0,0:0|0:0,0:0:0:0:
144,276,153683,2,0,P|108:284|88:296,2,50,0|8|0,0:0|0:0|0:0,0:0:0:0:
232,324,154457,2,0,P|284:328|336:320,1,100,8|0,0:0|0:0,0:0:0:0:
412,264,155231,6,0,P|392:200|408:112,1,150,6|0,0:0|0:0,0:0:0:0:
424,72,156005,2,0,P|360:80|308:72,1,100,8|0,0:0|0:0,0:0:0:0:
224,68,156780,2,0,P|224:28|228:12,2,50,0|8|0,0:0|0:0|0:0,0:0:0:0:
156,140,157554,2,0,P|164:192|160:244,1,100,10|0,0:0|0:0,0:0:0:0:
132,336,158328,6,0,B|208:352|248:292|248:292|312:320,1,200,6|8,0:0|0:0,0:0:0:0:
408,308,159489,1,0,0:0:0:0:
468,228,159876,1,0,0:0:0:0:
448,128,160263,1,0,0:0:0:0:
368,68,160651,2,0,B|319:62|305:74|245:65,1,100,12|0,0:0|0:0,0:0:0:0:
218,60,161231,1,0,0:0:0:0:
171,79,161425,6,0,P|179:140|177:190,1,100,4|0,0:0|0:0,0:0:0:0:
83,209,162199,2,0,P|75:270|77:320,1,100
167,348,162973,2,0,P|231:364|279:352,1,100,2|0,0:0|0:0,0:0:0:0:
328,282,163747,1,8,0:0:0:0:
423,312,164134,1,0,0:0:0:0:
481,230,164522,6,0,P|485:174|477:114,1,100,6|0,0:0|0:0,0:0:0:0:
407,64,165296,2,0,P|423:32|443:8,2,50,8|0|0,0:0|0:0|0:0,0:0:0:0:
332,132,166070,2,0,B|282:142|232:132,1,100,2|0,0:0|0:0,0:0:0:0:
140,100,166844,1,10,0:0:0:0:
152,200,167231,1,0,0:0:0:0:
76,264,167618,6,0,P|140:296|188:304,1,100,2|2,0:0|0:0,0:0:0:0:
264,327,168393,1,10,0:0:0:0:
363,322,168780,1,0,0:0:0:0:
447,269,169167,2,0,P|431:213|403:169,1,100,0|2,0:0|0:0,0:0:0:0:
311,157,169941,1,10,0:0:0:0:
258,71,170328,1,0,0:0:0:0:
357,62,170715,6,0,P|405:74|461:110,1,100,4|0,0:0|0:0,0:0:0:0:
476,194,171489,2,0,P|452:234|444:290,1,100,8|0,0:0|0:0,0:0:0:0:
420,330,172070,2,0,P|384:298|320:266,1,100,2|8,0:0|0:0,0:0:0:0:
300,240,172651,2,0,P|244:248|184:240,1,100,8|8,0:0|0:0,0:0:0:0:
120,184,173425,1,8,2:0:0:0:
164,92,173812,5,4,0:0:0:0:
208,284,180005,6,0,P|256:292|308:284,1,100,4|0,0:0|0:0,0:0:0:0:
396,240,180780,2,0,P|404:192|396:140,1,100,0|0,0:0|0:0,0:0:0:0:
304,100,181554,2,0,P|256:92|204:100,1,100,12|8,0:0|0:0,0:0:0:0:
116,144,182328,2,0,P|108:192|116:244,1,100,8|8,0:0|0:0,0:0:0:0:
160,264,182909,2,0,P|224:260|264:276,1,100,0|0,0:0|0:0,0:0:0:0:
292,308,183489,6,0,P|364:316|396:300,1,100,12|2,0:0|0:0,0:0:0:0:
436,220,184263,1,8,0:0:0:0:
376,140,184651,2,0,P|408:97|454:53,2,100,2|8|0,0:0|0:0|0:0,0:0:0:0:
296,200,185812,1,8,0:0:0:0:
264,164,186005,6,0,P|184:168|116:152,1,150,2|8,0:0|0:0,0:0:0:0:
108,52,186973,2,0,P|136:24|156:8,2,50,0|0|8,0:0|0:0|0:0,0:0:0:0:
16,96,187747,2,0,P|12:152|16:200,1,100,2|8,0:0|0:0,0:0:0:0:
80,280,188522,2,0,P|140:287|190:315,1,100,2|8,0:0|0:0,0:0:0:0:
220,328,189102,6,0,B|228:276|236:248|236:248|272:244|308:232,1,150,6|8,0:0|0:0,0:0:0:0:
400,216,190070,1,0,0:0:0:0:
356,124,190457,1,8,0:0:0:0:
312,96,190651,2,0,B|260:88|232:80|232:80|228:44|216:8,1,150,2|8,0:0|0:0,0:0:0:0:
120,24,191618,1,0,0:0:0:0:
40,76,192005,1,8,0:0:0:0:
4,112,192199,6,0,P|-8:180|4:264,1,150,6|8,0:0|0:0,0:0:0:0:
80,328,193167,2,0,P|144:336|184:336,1,100,0|8,0:0|0:0,0:0:0:0:
228,324,193747,2,0,P|248:256|248:212,1,100,2|0,0:0|0:0,0:0:0:0:
240,176,194328,2,0,P|308:168|356:144,1,100,12|8,0:0|0:0,0:0:0:0:
348,56,195102,1,8,0:0:0:0:
300,40,195296,6,0,P|224:60|136:48,1,150,6|8,0:0|0:0,0:0:0:0:
72,108,196263,1,2,0:0:0:0:
136,184,196651,1,8,0:0:0:0:
96,276,197038,2,0,P|36:280|-12:292,2,100,2|8|0,0:0|0:0|0:0,0:0:0:0:
188,312,198199,1,8,0:0:0:0:
236,324,198393,6,0,P|304:328|388:292,1,150,6|8,0:0|0:0,0:0:0:0:
384,200,199360,2,0,P|416:160|432:144,2,50,0|0|8,0:0|0:0|0:0,0:0:0:0:
288,176,200134,2,0,P|288:140|260:68,1,100,2|8,0:0|0:0,0:0:0:0:
196,148,200909,2,0,P|140:152|88:148,1,100,0|8,0:0|0:0,0:0:0:0:
64,112,201489,6,0,P|56:184|64:280,1,150,6|8,0:0|0:0,0:0:0:0:
152,300,202457,2,0,P|216:308|260:300,1,100,0|8,0:0|0:0,0:0:0:0:
272,256,203038,2,0,P|344:248|384:256,1,100,2|0,0:0|0:0,0:0:0:0:
416,276,203618,2,0,P|432:224|436:164,1,100,8|2,0:0|0:0,0:0:0:0:
368,100,204393,1,8,0:0:0:0:
324,76,204586,6,0,B|296:64|284:48|284:48|232:48|184:88,1,150,6|8,0:0|0:0,0:0:0:0:
124,156,205554,2,0,P|132:216|128:276,1,100,0|8,0:0|0:0,0:0:0:0:
112,300,206134,2,0,P|168:320|224:316,1,100,2|0,0:0|0:0,0:0:0:0:
256,324,206715,2,0,P|276:272|308:216,1,100,8|2,0:0|0:0,0:0:0:0:
392,256,207489,1,8,0:0:0:0:
460,184,207876,5,4,0:0:0:0:
256,192,208070,12,4,210973,0:0:0:0:
