osu file format v14

[General]
AudioFilename: Colorful Box.mp3
AudioLeadIn: 1000
PreviewTime: 54521
Countdown: 0
SampleSet: Soft
StackLeniency: 0.7
Mode: 0
LetterboxInBreaks: 0
WidescreenStoryboard: 0

[Editor]
DistanceSpacing: 1.1
BeatDivisor: 4
GridSize: 4
TimelineZoom: 1.2

[Metadata]
Title:COLORFUL BOX
TitleUnicode:COLORFUL BOX
Artist:ISHIDA YOKO
ArtistUnicode:石田燿子
Creator:zj0924
Version:Normal
Source:SHIROBAKO
Tags:WHITE BOX Opening P.A. Works TV Size musashino animation musani exodus wakeshima kanon 分島花音
BeatmapID:637817
BeatmapSetID:281071

[Difficulty]
HPDrainRate:4
CircleSize:3.5
OverallDifficulty:4
ApproachRate:5
SliderMultiplier:1.1
SliderTickRate:1

[Events]
//Background and Video events
0,0,"BG3.jpg",0,0
Video,-434,"optc.flv"
//Break Periods
//Storyboard Layer 0 (Background)
//Storyboard Layer 1 (Fail)
//Storyboard Layer 2 (Pass)
//Storyboard Layer 3 (Foreground)
//Storyboard Sound Samples

[TimingPoints]
857,372.670807453416,4,2,1,75,1,0
15763,-100,4,2,1,50,0,0
31975,-100,4,2,2,50,0,0
33466,-100,4,2,1,50,0,0
36634,-100,4,2,2,75,0,0
38311,-100,4,2,1,75,0,0
38869,-100,4,2,2,75,0,0
48558,-100,4,2,1,75,0,0
52844,-100,4,2,1,50,0,0
54521,-100,4,2,1,75,0,1
78372,-100,4,2,2,75,0,0
84335,-100,4,2,1,75,0,0
88807,-100,4,2,1,5,0,0

[Colours]
Combo1 : 255,0,0
Combo2 : 255,128,0
Combo3 : 0,128,192
Combo4 : 255,0,255
Combo5 : 255,255,0

[HitObjects]
172,324,857,6,0,P|290:329|356:236,1,220,6|0,0:0|0:0,0:0:0:0:
375,138,1975,1,2,0:0:0:0:
260,104,2348,2,0,P|333:27|439:37,1,220,6|0,0:0|0:0,0:0:0:0:
480,152,3466,2,0,L|480:212,1,55,8|2,0:0|0:0,0:0:0:0:
448,260,3839,6,0,P|396:284|328:296,1,110,6|0,0:0|0:0,0:0:0:0:
224,304,4584,2,0,L|160:276,1,55
120,256,4956,1,2,0:0:0:0:
48,156,5329,2,0,P|168:144|236:224,1,220,6|8,0:0|0:0,0:0:0:0:
192,324,6447,1,2,0:0:0:0:
192,324,6820,6,0,P|130:308|88:264,1,110,6|0,0:0|0:0,0:0:0:0:
56,232,7379,1,2,0:0:0:0:
48,172,7565,2,0,P|61:110|104:72,1,110,6|0,0:0|0:0,0:0:0:0:
208,48,8311,6,0,P|276:72|303:121,1,110,8|0,0:0|0:0,0:0:0:0:
340,212,9055,2,0,L|384:156,2,55,8|2|8,0:0|0:0|0:0,0:0:0:0:
296,256,9615,6,0,P|241:257|199:290,1,110,6|2,0:0|0:0,0:0:0:0:
164,340,10174,1,8,0:0:0:0:
56,288,10547,2,0,P|48:233|63:180,1,110,2|8,0:0|0:0,0:0:0:0:
92,128,11106,2,0,P|157:109|216:126,1,110,6|2,0:0|0:0,0:0:0:0:
228,168,11665,1,8,0:0:0:0:
312,256,12037,2,0,P|347:296|398:313,1,110,2|8,0:0|0:0,0:0:0:0:
448,276,12596,6,0,P|443:218|398:168,1,110,6|2,2:0|0:0,0:0:0:0:
368,136,13155,1,8,0:0:0:0:
268,68,13528,2,0,P|227:120|220:184,1,110,2|8,0:0|0:0,2:0:0:0:
248,216,14086,2,4,P|226:265|185:302,1,110,6|2,0:0|0:0,0:0:0:0:
124,292,14646,1,8,0:0:0:0:
132,172,15019,2,0,P|144:136|136:100,2,55,8|2|2,0:0|0:0|0:0,0:0:0:0:
36,244,15763,6,0,P|28:316|52:360,1,110,6|8,0:0|0:0,0:0:0:0:
148,288,16509,2,0,P|164:316|192:344,2,55,2|2|8,0:0|0:0|0:0,0:0:0:0:
204,180,17254,2,0,P|254:231|262:281,1,110,2|8,0:0|0:0,0:0:0:0:
384,284,18000,2,0,P|384:320|368:344,2,55,2|2|8,0:0|0:0|0:0,0:0:0:0:
408,164,18745,6,0,P|368:116|300:104,1,110,2|8,0:0|0:0,0:0:0:0:
220,40,19490,2,0,P|157:46|109:95,1,110,2|8,0:0|0:0,0:0:0:0:
112,136,20050,2,0,P|149:173|220:192,1,110,2|2,0:0|0:0,0:0:0:0:
260,168,20609,1,8,0:0:0:0:
315,144,20795,2,0,P|367:152|419:184,1,110,2|2,0:0|0:0,0:0:0:0:
464,220,21354,1,8,0:0:0:0:
440,340,21727,6,0,P|365:353|316:340,1,110,2|8,0:0|0:0,0:0:0:0:
276,324,22285,1,2,0:0:0:0:
244,272,22472,2,0,P|244:236|236:204,2,55,2|2|8,0:0|0:0|0:0,0:0:0:0:
196,309,23031,2,0,P|121:323|79:298,1,110,2|2,0:0|0:0,0:0:0:0:
70,253,23590,1,8,0:0:0:0:
68,192,23776,2,0,P|139:166|184:183,1,110,2|2,0:0|0:0,0:0:0:0:
229,181,24335,1,8,0:0:0:0:
349,179,24707,6,0,P|417:183|457:159,1,110,2|8,0:0|0:0,0:0:0:0:
460,104,25266,1,2,0:0:0:0:
436,48,25453,2,0,P|376:40|328:64,1,110,2|8,0:0|0:0,0:0:0:0:
276,84,26012,5,4,0:0:0:0:
156,88,26385,1,4,0:0:0:0:
132,208,26758,1,4,0:0:0:0:
180,320,27130,2,0,L|248:320,1,55,2|8,0:0|0:0,0:0:0:0:
356,328,27689,6,0,P|393:270|404:228,1,110,6|8,0:0|0:0,0:0:0:0:
412,170,28248,1,2,0:0:0:0:
428,112,28435,2,0,P|430:88|460:52,2,55,2|2|8,0:0|0:0|0:0,0:0:0:0:
368,124,28994,2,0,P|288:100|264:68,1,110,2|2,0:0|0:0,0:0:0:0:
220,52,29553,1,8,0:0:0:0:
160,44,29738,2,0,P|106:37|56:61,2,110,2|2|2,0:0|0:0|0:0,0:0:0:0:
182,100,30671,6,0,P|182:140|126:208,1,110,2|8,0:0|0:0,0:0:0:0:
84,204,31230,1,2,0:0:0:0:
28,228,31416,2,0,P|41:265|117:310,1,110,2|8,0:0|0:0,0:0:0:0:
152,328,31975,6,0,L|260:352,1,110,2|2,0:0|0:0,0:0:0:0:
360,284,32720,2,0,L|252:260,1,110,2|2,0:0|0:0,0:0:0:0:
132,236,33466,1,0,0:0:0:0:
132,236,33652,6,0,P|154:186|199:147,1,110,6|8,0:0|0:0,0:0:0:0:
256,148,34211,2,0,P|320:160|384:152,1,110,2|2,0:0|0:0,0:0:0:0:
408,112,34770,1,8,0:0:0:0:
408,52,34957,2,0,P|344:44|280:48,1,110,2|2,0:0|0:0,0:0:0:0:
236,48,35516,1,8,0:0:0:0:
177,44,35702,2,0,B|97:56|101:136,1,110,2|2,0:0|0:0,0:0:0:0:
92,172,36261,2,0,P|88:212|92:248,1,55,8|2,0:0|0:0,0:0:0:0:
112,284,36634,5,2,0:0:0:0:
232,308,37006,1,2,0:0:0:0:
296,204,37379,1,2,0:0:0:0:
392,280,37752,2,0,L|412:216,1,55,0|4,0:0|0:0,0:0:0:0:
412,108,38311,2,0,P|428:88|432:48,2,55,2|8|2,0:0|0:0|0:0,0:0:0:0:
353,123,38870,2,0,L|297:87,1,55,2|0,0:0|0:0,0:0:0:0:
248,84,39242,2,0,L|184:84,1,55,2|0,0:0|0:0,0:0:0:0:
132,84,39615,6,0,P|96:112|84:192,1,110,6|8,0:0|0:0,0:0:0:0:
120,288,40360,2,0,L|168:328,1,55,2|0,0:0|0:0,0:0:0:0:
220,340,40733,2,0,L|276:340,1,55
332,320,41105,2,0,P|376:276|376:220,1,110,2|8,0:0|0:0,0:0:0:0:
348,116,41850,2,0,L|304:56,1,55,2|0,0:0|0:0,0:0:0:0:
256,72,42224,2,0,L|216:128,1,55
188,168,42596,6,0,P|136:200|80:200,1,110,2|8,0:0|0:0,0:0:0:0:
36,92,43342,2,0,P|88:60|144:60,1,110,2|0,0:0|0:0,0:0:0:0:
196,72,43901,1,0,0:0:0:0:
256,72,44086,2,0,P|310:100|339:148,1,110,2|8,0:0|0:0,0:0:0:0:
252,227,44832,2,0,P|197:230|148:206,1,110,2|0,0:0|0:0,0:0:0:0:
96,100,45578,6,0,P|36:148|28:200,1,110,4|8,0:0|0:0,0:0:0:0:
44,296,46322,2,0,L|0:340,2,55,0|0|2,0:0|0:0|0:0,0:0:0:0:
160,332,47068,2,0,P|220:352|276:324,1,110,0|8,0:0|0:0,0:0:0:0:
211,226,47814,2,0,P|183:202|167:182,1,55,2|0,0:0|0:0,0:0:0:0:
164,128,48186,2,0,L|184:68,1,55,0|0,0:0|0:0,0:0:0:0:
240,56,48559,6,0,P|300:68|356:116,1,110,8|8,0:0|0:0,0:0:0:0:
360,216,49304,2,0,P|296:208|256:168,1,110,8|8,0:0|0:0,0:0:0:0:
240,56,50049,2,0,P|185:60|139:89,1,110,8|8,0:0|0:0,0:0:0:0:
160,212,50794,2,0,P|214:207|260:178,1,110,8|8,0:0|0:0,0:0:0:0:
256,192,51540,12,4,52845,0:0:0:0:
56,112,54522,5,6,0:0:0:0:
52,232,54894,1,8,0:0:0:0:
124,328,55267,2,0,P|174:298|195:235,1,110,2|8,0:0|0:0,0:0:0:0:
232,140,56012,1,2,0:0:0:0:
344,188,56384,2,0,P|390:161|444:168,2,110,8|2|8,0:0|0:0|0:0,0:0:0:0:
368,308,57503,6,0,P|308:324|244:308,1,110,6|8,0:0|0:0,0:0:0:0:
140,316,58248,2,0,L|184:360,2,55,2|2|8,0:0|0:0|0:0,0:0:0:0:
36,253,58993,2,0,P|18:304|23:358,2,110,2|8|2,0:0|0:0|0:0,0:0:0:0:
80,140,60111,2,0,L|136:96,1,55,8|2,0:0|0:0,0:0:0:0:
184,108,60485,6,0,P|171:160|185:213,1,110,6|8,0:0|0:0,0:0:0:0:
305,212,61229,2,0,P|316:159|300:107,1,110,2|8,0:0|0:0,0:0:0:0:
358,86,61789,2,0,P|402:126|422:174,1,110,6|2,0:0|0:0,0:0:0:0:
432,232,62348,1,8,0:0:0:0:
408,288,62534,2,0,P|344:316|292:316,1,110,6|2,0:0|0:0,0:0:0:0:
244,324,63093,2,0,L|172:328,1,55,8|2,0:0|0:0,0:0:0:0:
130,341,63466,6,0,P|66:293|38:253,1,110,2|8,0:0|0:0,0:0:0:0:
4,228,64025,2,0,P|56:213|103:184,1,110,2|2,0:0|0:0,0:0:0:0:
136,132,64584,1,8,0:0:0:0:
168,80,64770,2,0,P|252:112|252:196,1,165,6|8,0:0|0:0,0:0:0:0:
200,284,65701,2,0,L|264:328,2,55,2|2|8,0:0|0:0|0:0,0:0:0:0:
92,232,66447,6,0,P|110:180|136:131,1,110,6|8,0:0|0:0,0:0:0:0:
220,44,67193,2,0,P|284:38|348:45,1,110,2|8,0:0|0:0,0:0:0:0:
412,132,67937,2,0,P|438:180|456:232,2,110,2|8|2,0:0|0:0|0:0,0:0:0:0:
364,244,69055,1,8,0:0:0:0:
324,288,69242,1,2,0:0:0:0:
272,320,69429,6,0,P|207:321|156:308,1,110,6|8,0:0|0:0,0:0:0:0:
116,272,69988,1,2,0:0:0:0:
140,216,70173,2,0,L|200:204,1,55,2|2,0:0|0:0,0:0:0:0:
252,188,70546,2,0,L|288:140,1,55,8|2,0:0|0:0,0:0:0:0:
328,100,70919,2,0,P|368:137|419:154,2,110,2|8|2,0:0|0:0|0:0,0:0:0:0:
224,36,72037,1,8,0:0:0:0:
164,44,72224,1,2,0:0:0:0:
112,72,72410,6,0,P|84:120|72:188,1,110,6|8,0:0|0:0,0:0:0:0:
96,292,73155,2,0,P|152:324|204:328,1,110,2|8,0:0|0:0,0:0:0:0:
220,272,73714,2,0,P|284:264|344:296,1,110,4|2,0:0|0:0,0:0:0:0:
368,324,74273,1,8,0:0:0:0:
424,344,74460,2,0,P|468:292|476:232,1,110,4|2,0:0|0:0,0:0:0:0:
480,192,75019,2,0,L|452:116,1,55,8|2,0:0|0:0,0:0:0:0:
416,100,75391,6,0,P|352:105|316:144,1,110,6|8,0:0|0:0,0:0:0:0:
200,132,76137,2,0,P|187:194|209:250,1,110,2|8,0:0|0:0,0:0:0:0:
292,316,76882,2,0,P|354:308|403:276,1,110,2|8,0:0|0:0,0:0:0:0:
436,172,77627,2,0,L|452:112,2,55,2|2|8,0:0|0:0|0:0,0:0:0:0:
320,212,78373,6,0,P|269:209|204:176,1,110,4|8,0:0|0:0,0:0:0:0:
180,136,78931,1,0,0:0:0:0:
144,88,79118,2,0,P|76:112|40:156,1,110,0|8,0:0|0:0,0:0:0:0:
36,196,79676,1,0,0:0:0:0:
60,252,79863,2,0,P|108:292|176:304,1,110,2|8,0:0|0:0,0:0:0:0:
240,220,80609,2,0,L|272:164,2,55,0|0|8,0:0|0:0|0:0,0:0:0:0:
300,324,81354,6,0,P|372:327|416:300,1,110,2|8,0:0|0:0,0:0:0:0:
436,260,81913,2,0,P|452:200|444:136,1,110,2|2,0:0|0:0,0:0:0:0:
400,116,82472,1,8,0:0:0:0:
348,148,82658,2,0,P|272:160|224:148,1,110,4|2,0:0|0:0,0:0:0:0:
192,116,83217,2,0,P|137:109|84:121,1,110,2|2,0:0|0:0,0:0:0:0:
228,320,84335,6,0,P|299:322|363:318,1,110,4|8,0:0|0:0,0:0:0:0:
395,298,84894,1,0,0:0:0:0:
439,254,85081,2,0,P|460:192|455:134,1,110,2|8,0:0|0:0,0:0:0:0:
427,94,85640,1,0,0:0:0:0:
367,110,85826,6,0,P|300:116|235:110,1,110,6|0,0:0|0:0,0:0:0:0:
199,94,86385,1,0,0:0:0:0:
139,86,86571,2,0,P|123:146|119:198,1,110,2|8,0:0|0:0,0:0:0:0:
117,254,87130,1,4,0:0:0:0:
256,192,87317,12,0,88807,0:0:0:0:
