osu file format v14

[General]
AudioFilename: Colorful Box.mp3
AudioLeadIn: 1000
PreviewTime: 54521
Countdown: 0
SampleSet: Soft
StackLeniency: 0.7
Mode: 0
LetterboxInBreaks: 0
WidescreenStoryboard: 0

[Editor]
DistanceSpacing: 1.2
BeatDivisor: 4
GridSize: 4
TimelineZoom: 1.8

[Metadata]
Title:COLORFUL BOX
TitleUnicode:COLORFUL BOX
Artist:ISHIDA YOKO
ArtistUnicode:石田燿子
Creator:zj0924
Version:Insane
Source:SHIROBAKO
Tags:WHITE BOX Opening P.A. Works TV Size musashino animation musani exodus wakeshima kanon 分島花音
BeatmapID:635861
BeatmapSetID:281071

[Difficulty]
HPDrainRate:7
CircleSize:4
OverallDifficulty:7.5
ApproachRate:8.8
SliderMultiplier:1.6
SliderTickRate:2

[Events]
//Background and Video events
0,0,"BG.jpg",0,0
Video,-434,"optc.flv"
//Break Periods
//Storyboard Layer 0 (Background)
//Storyboard Layer 1 (Fail)
//Storyboard Layer 2 (Pass)
//Storyboard Layer 3 (Foreground)
//Storyboard Sound Samples

[TimingPoints]
857,372.670807453416,4,2,1,75,1,0
9614,-100,4,2,1,75,0,0
15763,-100,4,2,1,50,0,0
26012,-100,4,2,1,40,0,0
27130,-100,4,2,1,50,0,0
27689,-100,4,2,1,50,0,0
31975,-100,4,2,2,50,0,0
33652,-100,4,2,1,50,0,0
36633,-100,4,2,2,50,0,0
37937,-100,4,2,1,75,0,0
38869,-125,4,2,2,75,0,0
48558,-83.3333333333333,4,2,1,80,0,0
52844,-83.3333333333333,4,2,1,50,0,0
53403,-83.3333333333333,4,2,2,100,0,0
54521,-83.3333333333333,4,2,1,75,0,1
70919,-83.3333333333333,4,2,2,100,0,1
72037,-83.3333333333333,4,2,1,75,0,1
78372,-100,4,2,1,75,0,0
78931,-100,4,2,2,75,0,0
81353,-125,4,2,2,75,0,0
82658,-100,4,2,2,75,0,0
83589,-100,4,2,1,75,0,0
88807,-100,4,2,1,5,0,0

[Colours]
Combo1 : 255,0,0
Combo2 : 255,128,0
Combo3 : 0,128,192
Combo4 : 255,0,255
Combo5 : 255,255,0

[HitObjects]
55,159,857,6,0,P|127:191|181:251,1,160,6|0,0:0|0:0,0:0:0:0:
296,188,1603,1,0,0:0:0:0:
287,315,1975,1,2,0:0:0:0:
122,108,2348,6,0,P|167:172|181:265,1,160,4|0,0:0|0:0,0:0:0:0:
292,109,3093,1,0,0:0:0:0:
292,109,3466,2,0,P|301:161|294:201,1,80,8|2,0:0|0:0,0:0:0:0:
200,98,3839,6,0,P|208:176|175:264,1,160,6|0,0:0|0:0,0:0:0:0:
383,113,4584,2,0,P|379:152|387:191,1,80
459,230,4957,2,0,P|466:191|460:152,1,80,2|0,0:0|0:0,0:0:0:0:
340,251,5329,6,0,B|268:227|256:271|180:251,1,160,12|0,0:0|0:0,0:0:0:0:
113,106,6075,1,8,0:0:0:0:
44,224,6447,1,10,0:0:0:0:
102,21,6820,6,0,P|174:48|192:123,1,160,6|0,0:0|0:0,0:0:0:0:
113,106,7379,1,2,0:0:0:0:
269,91,7565,2,0,P|259:168|192:206,1,160,6|0,0:0|0:0,0:0:0:0:
192,206,8124,1,2,0:0:0:0:
262,280,8311,6,0,P|296:297|335:298,1,80,8|0,0:0|0:0,0:0:0:0:
295,181,8683,1,0,0:0:0:0:
262,280,8870,1,0,0:0:0:0:
192,206,9056,2,0,P|167:175|159:136,1,80,8|2,0:0|0:0,0:0:0:0:
180,36,9429,1,8,0:0:0:0:
295,21,9614,6,0,L|295:181,1,160,6|2,0:0|0:0,0:0:0:0:
374,63,10174,2,0,L|374:173,1,80,8|0,0:0|0:0,0:0:0:0:
372,256,10547,1,8,0:0:0:0:
456,184,10733,1,2,0:0:0:0:
456,184,10919,1,2,0:0:0:0:
424,340,11106,6,0,B|352:316|340:360|266:340,1,160,6|2,0:0|0:0,0:0:0:0:
152,216,11665,1,8,0:0:0:0:
152,216,12037,2,0,B|225:235|237:191|309:215,1,160,2|8,0:0|0:0,0:0:0:0:
440,100,12596,6,0,P|460:176|444:256,1,160,6|2,0:0|0:0,0:0:0:0:
308,132,13155,1,8,0:0:0:0:
308,132,13528,2,0,P|315:210|276:288,1,160,2|8,0:0|0:0,0:0:0:0:
192,132,14087,6,0,P|113:119|48:164,1,160,6|2,0:0|0:0,0:0:0:0:
140,232,14646,1,8,0:0:0:0:
248,224,14832,2,0,L|288:204,2,40,2|2|8,0:0|0:0|0:0,0:0:0:0:
192,132,15205,1,2,0:0:0:0:
140,232,15391,1,2,0:0:0:0:
212,324,15578,1,2,0:0:0:0:
328,308,15764,6,0,P|345:230|316:157,1,160,6|8,0:0|0:0,0:0:0:0:
216,192,16323,1,0,0:0:0:0:
228,76,16509,1,2,0:0:0:0:
144,120,16696,1,2,0:0:0:0:
112,20,16882,1,8,0:0:0:0:
60,152,17068,6,0,P|49:189|58:228,1,80,2|0,0:0|0:0,0:0:0:0:
194,268,17441,2,0,P|202:230|191:192,1,80,2|8,0:0|0:0,0:0:0:0:
27,156,17814,2,0,P|16:193|25:232,1,80,0|2,0:0|0:0,0:0:0:0:
226,268,18186,2,0,P|234:230|223:192,1,80,2|8,0:0|0:0,0:0:0:0:
156,76,18559,1,0,0:0:0:0:
260,28,18745,6,0,P|316:83|317:164,1,160,2|8,0:0|0:0,0:0:0:0:
192,136,19304,1,0,0:0:0:0:
160,256,19490,1,2,0:0:0:0:
192,136,19676,1,2,0:0:0:0:
92,168,19863,1,8,0:0:0:0:
148,61,20050,6,0,P|189:49|232:61,1,80,2|0,0:0|0:0,0:0:0:0:
386,213,20422,2,0,P|347:221|309:211,1,80,2|8,0:0|0:0,0:0:0:0:
352,60,20795,2,0,P|357:100|352:140,1,80,0|2,0:0|0:0,0:0:0:0:
192,212,21168,2,0,P|184:172|192:132,1,80,2|8,0:0|0:0,0:0:0:0:
352,60,21540,1,0,0:0:0:0:
388,220,21727,6,0,P|338:279|262:272,1,160,2|8,0:0|0:0,0:0:0:0:
292,144,22286,1,0,0:0:0:0:
262,272,22471,1,2,0:0:0:0:
220,120,22658,1,2,0:0:0:0:
184,260,22844,1,8,0:0:0:0:
140,140,23031,6,0,P|140:100|142:61,1,80,2|0,0:0|0:0,0:0:0:0:
28,187,23404,2,0,P|26:147|26:108,1,80,2|8,0:0|0:0,0:0:0:0:
106,264,23776,2,0,P|145:267|185:267,1,80,0|2,0:0|0:0,0:0:0:0:
218,138,24149,2,0,P|178:137|139:140,1,80,2|8,0:0|0:0,0:0:0:0:
88,35,24522,1,0,0:0:0:0:
88,35,24708,6,0,P|168:31|250:33,1,160,2|8,0:0|0:0,0:0:0:0:
400,80,25267,2,0,P|363:95|325:109,1,80,0|2,0:0|0:0,0:0:0:0:
456,176,25640,2,0,P|419:191|381:204,1,80,2|8,0:0|0:0,0:0:0:0:
148,232,26012,6,0,P|110:210|79:184,1,80,4|0,0:0|0:0,0:0:0:0:
256,236,26384,2,0,P|293:257|324:283,1,80,4|0,0:0|0:0,0:0:0:0:
188,352,26757,1,4,0:0:0:0:
188,352,27130,5,2,0:0:0:0:
188,352,27224,1,2,0:0:0:0:
188,352,27317,1,8,0:0:0:0:
388,200,27689,6,0,P|316:244|312:328,1,160,6|8,0:0|0:0,0:0:0:0:
389,286,28248,1,0,0:0:0:0:
370,118,28435,2,0,P|333:129|295:157,1,80,2|2,0:0|0:0,0:0:0:0:
388,200,28807,1,8,0:0:0:0:
276,51,28993,6,0,P|245:78|228:115,1,80,0|2,0:0|0:0,0:0:0:0:
132,84,29366,2,0,P|136:125|156:160,1,80,0|8,0:0|0:0,0:0:0:0:
76,216,29739,2,0,P|107:242|146:253,1,80,0|2,0:0|0:0,0:0:0:0:
286,254,30112,2,0,P|325:248|360:229,1,80,2|8,0:0|0:0,0:0:0:0:
252,184,30485,1,0,0:0:0:0:
252,184,30671,6,0,P|206:244|237:313,1,160,2|8,0:0|0:0,0:0:0:0:
348,232,31230,1,0,0:0:0:0:
448,308,31416,1,2,0:0:0:0:
360,160,31603,1,2,0:0:0:0:
376,316,31789,1,8,0:0:0:0:
440,156,31975,6,0,L|472:68,1,80,2|0,0:0|0:0,0:0:0:0:
308,64,32347,2,0,L|208:52,1,80,2|8,2:0|0:0,0:0:0:0:
140,188,32720,2,0,L|119:265,1,80,2|0,0:0|0:0,0:0:0:0:
276,328,33093,2,0,L|355:337,1,80,2|8,2:0|0:0,0:0:0:0:
280,200,33465,1,0,0:0:0:0:
340,97,33652,6,0,P|413:67|488:91,1,160,4|8,2:0|0:0,0:0:0:0:
356,228,34211,2,0,P|281:208|242:140,1,160,2|2,2:0|0:0,0:0:0:0:
180,32,34770,1,8,0:0:0:0:
112,144,34956,6,0,P|91:218|133:283,1,160,2|2,2:0|0:0,0:0:0:0:
244,340,35515,1,8,0:0:0:0:
372,280,35701,2,0,P|392:205|350:140,1,160,2|2,2:0|0:0,0:0:0:0:
262,44,36261,1,8,0:0:0:0:
262,44,36447,1,2,0:0:0:0:
160,168,36633,5,6,0:0:0:0:
260,44,37006,1,10,0:0:0:0:
320,192,37378,1,2,0:0:0:0:
219,322,37751,1,10,0:0:0:0:
112,227,37938,6,0,P|186:251|219:322,1,160,4|2,0:0|0:0,0:0:0:0:
372,352,38496,1,8,0:0:0:0:
408,168,38682,1,2,0:0:0:0:
408,168,38775,1,2,0:0:0:0:
408,168,38869,2,0,L|364:108,1,64,2|0,0:0|0:0,0:0:0:0:
308,52,39242,2,0,L|244:52,1,64,2|0,0:0|0:0,0:0:0:0:
216,152,39615,6,0,P|156:120|132:60,1,128,6|8,0:0|0:0,0:0:0:0:
80,292,40360,2,0,L|136:344,1,64,2|0,0:0|0:0,0:0:0:0:
204,372,40733,2,0,L|268:372,1,64
354,365,41106,6,0,P|399:319|429:263,1,128,2|8,0:0|0:0,0:0:0:0:
432,252,41850,1,2,0:0:0:0:
336,192,42037,1,0,0:0:0:0:
228,228,42223,1,0,0:0:0:0:
188,334,42409,1,0,0:0:0:0:
300,316,42596,6,0,P|335:307|368:280,1,64,2|0,0:0|0:0,0:0:0:0:
424,176,42969,2,0,P|403:137|364:108,1,64,8|0,0:0|0:0,0:0:0:0:
260,96,43341,2,0,P|221:101|184:128,1,64
123,213,43714,5,0,0:0:0:0:
188,299,43900,1,0,0:0:0:0:
297,301,44086,1,2,0:0:0:0:
367,219,44273,1,0,0:0:0:0:
346,112,44459,1,8,0:0:0:0:
356,96,44832,5,2,0:0:0:0:
280,152,45018,1,0,0:0:0:0:
220,76,45204,1,0,0:0:0:0:
160,0,45391,1,0,0:0:0:0:
124,88,45577,2,0,L|120:240,1,128,6|8,0:0|0:0,0:0:0:0:
120,244,46322,5,2,0:0:0:0:
196,188,46508,1,0,0:0:0:0:
256,264,46694,1,0,0:0:0:0:
316,340,46881,1,0,0:0:0:0:
356,252,47067,2,0,L|360:100,1,128,2|8,0:0|0:0,0:0:0:0:
359,89,47813,5,2,0:0:0:0:
496,89,47999,1,0,0:0:0:0:
426,157,48186,1,8,0:0:0:0:
428,17,48372,1,0,0:0:0:0:
359,89,48559,6,0,L|285:162,1,95.9999970703126,8|0,0:0|0:0,0:0:0:0:
359,294,48932,2,0,L|285:220,1,95.9999970703126,8|0,0:0|0:0,0:0:0:0:
154,294,49304,2,0,L|227:220,1,95.9999970703126,8|0,0:0|0:0,0:0:0:0:
154,89,49677,2,0,L|221:156,1,95.9999970703126,8|0,0:0|0:0,0:0:0:0:
400,192,50050,6,0,L|296:192,1,95.9999970703126,8|0,0:0|0:0,0:0:0:0:
256,48,50422,2,0,L|256:152,1,95.9999970703126,8|0,0:0|0:0,0:0:0:0:
112,192,50795,2,0,L|216:192,1,95.9999970703126,8|0,0:0|0:0,0:0:0:0:
256,336,51168,2,0,L|256:232,1,95.9999970703126,8|0,0:0|0:0,0:0:0:0:
341,104,51540,5,8,0:0:0:0:
168,277,51727,1,8,0:0:0:0:
168,104,51913,1,8,0:0:0:0:
342,277,52099,1,8,0:0:0:0:
351,95,52286,5,8,0:0:0:0:
159,287,52472,1,8,0:0:0:0:
159,95,52658,1,8,0:0:0:0:
351,287,52845,1,12,0:0:0:0:
360,296,53404,5,2,0:0:0:0:
452,124,53776,1,2,0:0:0:0:
268,68,54149,5,2,0:0:0:0:
344,176,54335,1,0,0:0:0:0:
288,288,54522,6,0,L|152:288,1,95.9999970703126,6|0,0:0|0:0,0:0:0:0:
60,196,54894,2,0,P|46:150|56:104,1,95.9999970703126,8|0,0:0|0:0,0:0:0:0:
164,48,55267,2,0,P|172:94|159:140,1,95.9999970703126,2|2,0:0|0:0,0:0:0:0:
360,144,55640,2,0,P|373:98|363:51,1,95.9999970703126,8|0,0:0|0:0,0:0:0:0:
256,16,56012,6,0,P|246:62|259:108,1,95.9999970703126,2|0,0:0|0:0,0:0:0:0:
100,136,56385,2,0,P|131:171|176:187,1,95.9999970703126,8|0,0:0|0:0,0:0:0:0:
148,320,56758,2,0,P|195:318|236:294,1,95.9999970703126,2|2,0:0|0:0,0:0:0:0:
356,216,57130,2,0,P|394:189|416:146,1,95.9999970703126,8|0,0:0|0:0,0:0:0:0:
290,175,57503,6,0,P|304:272|396:280,1,191.999994140625,6|8,0:0|0:0,0:0:0:0:
172,124,58248,1,2,0:0:0:0:
290,175,58435,1,2,0:0:0:0:
152,252,58621,1,8,0:0:0:0:
172,125,58807,1,0,0:0:0:0:
292,256,58994,6,0,P|337:243|368:200,1,95.9999970703126,2|0,0:0|0:0,0:0:0:0:
276,88,59366,2,0,P|266:129|299:181,1,95.9999970703126,8|0,0:0|0:0,0:0:0:0:
444,212,59738,2,0,P|434:156|396:130,1,95.9999970703126,2|2,0:0|0:0,0:0:0:0:
292,256,60112,1,8,0:0:0:0:
180,184,60298,1,0,0:0:0:0:
148,324,60485,5,4,0:0:0:0:
148,324,60857,1,8,0:0:0:0:
402,110,61230,2,0,B|356:138|356:138|388:166|388:166|344:220|362:252,1,191.999994140625,2|8,0:0|0:0,0:0:0:0:
452,272,61789,6,0,P|386:343|286:307,1,191.999994140625,6|2,0:0|0:0,0:0:0:0:
164,204,62348,1,8,0:0:0:0:
129,294,62534,2,0,P|219:277|255:192,1,191.999994140625,6|2,0:0|0:0,0:0:0:0:
328,120,63093,1,8,0:0:0:0:
254,191,63280,1,0,0:0:0:0:
184,120,63465,6,0,P|136:112|88:120,1,95.9999970703126,2|0,0:0|0:0,0:0:0:0:
255,192,63839,1,8,0:0:0:0:
328,120,64024,2,0,P|376:112|424:120,1,95.9999970703126,2|0,0:0|0:0,0:0:0:0:
255,192,64398,1,2,0:0:0:0:
256,48,64584,1,8,0:0:0:0:
328,120,64770,6,0,P|352:220|299:282,1,191.999994140625,6|2,0:0|0:0,0:0:0:0:
192,276,65329,2,0,P|164:244|160:184,1,95.9999970703126,8|0,2:0|2:0,2:0:0:0:
188,80,65702,1,2,0:0:0:0:
255,192,65888,5,8,0:0:0:0:
255,192,65981,1,8,0:0:0:0:
255,192,66075,1,2,0:0:0:0:
308,80,66260,1,8,0:0:0:0:
308,80,66354,1,8,0:0:0:0:
308,80,66447,1,6,0:0:0:0:
56,304,66820,6,0,P|81:263|122:239,1,95.9999970703126,8|0,0:0|0:0,0:0:0:0:
228,188,67192,1,2,0:0:0:0:
180,68,67378,1,2,0:0:0:0:
60,120,67565,2,0,P|103:153|150:160,1,95.9999970703126,8|0,0:0|0:0,0:0:0:0:
284,92,67937,6,0,P|331:94|372:117,1,95.9999970703126,2|0,0:0|0:0,0:0:0:0:
420,232,68310,2,0,P|372:230|328:249,1,95.9999970703126,8|0,0:0|0:0,0:0:0:0:
208,344,68683,1,2,0:0:0:0:
120,248,68869,1,2,0:0:0:0:
260,200,69055,2,0,P|312:172|352:128,1,95.9999970703126,8|0,2:0|2:0,2:0:0:0:
268,20,69428,6,0,P|180:44|156:144,1,191.999994140625,4|8,0:0|0:0,0:0:0:0:
247,115,69988,1,0,0:0:0:0:
316,208,70173,2,0,L|365:293,1,95.9999970703126,2|2,0:0|0:0,0:0:0:0:
193,211,70546,2,0,L|144:296,1,95.9999970703126,8|0,0:0|0:0,0:0:0:0:
252,44,70919,5,2,0:0:0:0:
128,280,71292,1,10,0:0:0:0:
396,280,71665,1,2,0:0:0:0:
204,152,72037,5,8,0:0:0:0:
326,152,72224,1,0,0:0:0:0:
265,249,72410,1,4,0:0:0:0:
128,66,72782,2,0,P|161:29|217:17,1,95.9999970703126,8|0,0:0|0:0,0:0:0:0:
275,108,73155,2,0,P|241:141|195:151,1,95.9999970703126,2|0,0:0|0:0,0:0:0:0:
56,200,73528,1,8,0:0:0:0:
84,328,73714,6,0,P|177:340|254:288,1,191.999994140625,6|0,0:0|0:0,0:0:0:0:
360,192,74273,1,8,0:0:0:0:
425,327,74459,2,0,P|332:340|255:288,1,191.999994140625,6|0,0:0|0:0,0:0:0:0:
200,176,75019,1,8,0:0:0:0:
172,48,75205,1,2,0:0:0:0:
72,164,75391,6,0,P|98:202|139:224,1,95.9999970703126,12|0,0:0|0:0,0:0:0:0:
264,224,75764,2,0,P|311:214|347:185,1,95.9999970703126,8|0,0:0|0:0,0:0:0:0:
328,64,76136,2,0,P|297:100|253:119,1,95.9999970703126,8|0,0:0|0:0,0:0:0:0:
108,96,76509,1,8,0:0:0:0:
100,272,76696,1,8,0:0:0:0:
264,224,76881,5,2,0:0:0:0:
56,180,77068,1,2,0:0:0:0:
196,300,77255,1,8,0:0:0:0:
224,144,77441,1,8,0:0:0:0:
224,144,77534,1,8,0:0:0:0:
224,144,77627,5,2,0:0:0:0:
136,200,77814,1,0,0:0:0:0:
324,128,77999,1,8,0:0:0:0:
192,64,78186,1,8,0:0:0:0:
236,220,78373,6,0,P|260:268|364:288,1,160,6|8,0:0|0:0,0:0:0:0:
459,183,78932,1,0,0:0:0:0:
324,128,79118,1,2,0:0:0:0:
464,95,79304,1,0,0:0:0:0:
377,204,79491,1,0,0:0:0:0:
383,62,79677,1,0,0:0:0:0:
376,204,79863,6,0,P|368:256|280:308,1,160,2|8,0:0|0:0,0:0:0:0:
248,68,80608,1,2,0:0:0:0:
325,122,80794,1,0,0:0:0:0:
364,207,80980,1,0,0:0:0:0:
332,296,81167,1,0,0:0:0:0:
216,336,81354,6,0,P|177:289|168:200,1,128,2|8,0:0|0:0,0:0:0:0:
232,88,81912,2,0,P|271:135|280:224,1,128,2|2,0:0|0:0,0:0:0:0:
328,324,82472,1,8,0:0:0:0:
404,154,82658,6,0,P|382:75|301:43,1,160,4|2,0:0|0:0,0:0:0:0:
175,40,83217,2,0,P|131:48|99:80,1,80,8|2,0:0|0:0,0:0:0:0:
168,172,83590,5,2,0:0:0:0:
200,196,83683,1,0,0:0:0:0:
240,204,83776,1,8,0:0:0:0:
276,193,83869,1,8,0:0:0:0:
306,167,83962,1,2,0:0:0:0:
322,131,84055,1,0,0:0:0:0:
320,91,84149,1,8,0:0:0:0:
300,57,84242,1,8,0:0:0:0:
264,40,84335,6,0,P|216:104|144:148,1,160,6|8,0:0|0:0,0:0:0:0:
48,196,84894,1,0,0:0:0:0:
100,296,85081,2,0,P|140:320|184:320,1,80,8|8,0:0|0:0,0:0:0:0:
306,311,85453,1,8,0:0:0:0:
348,288,85546,1,8,0:0:0:0:
384,254,85639,1,2,0:0:0:0:
408,212,85732,1,2,0:0:0:0:
420,164,85825,6,0,P|392:96|316:56,1,160,4|0,0:0|0:0,0:0:0:0:
308,168,86385,1,0,0:0:0:0:
232,260,86571,2,0,P|200:284|152:296,1,80,2|0,2:0|0:0,0:0:0:0:
188,172,86944,1,8,0:0:0:0:
264,352,87130,1,4,0:0:0:0:
256,192,87317,12,0,88808,0:0:0:0:
