osu file format v14

[General]
AudioFilename: Colorful Box.mp3
AudioLeadIn: 1000
PreviewTime: 54521
Countdown: 0
SampleSet: Soft
StackLeniency: 0.7
Mode: 0
LetterboxInBreaks: 0
WidescreenStoryboard: 0

[Editor]
DistanceSpacing: 0.5
BeatDivisor: 4
GridSize: 8
TimelineZoom: 1.2

[Metadata]
Title:COLORFUL BOX
TitleUnicode:COLORFUL BOX
Artist:ISHIDA YOKO
ArtistUnicode:石田燿子
Creator:zj0924
Version:Hard
Source:SHIROBAKO
Tags:WHITE BOX Opening P.A. Works TV Size musashino animation musani exodus wakeshima kanon 分島花音
BeatmapID:636245
BeatmapSetID:281071

[Difficulty]
HPDrainRate:6
CircleSize:4
OverallDifficulty:6.5
ApproachRate:7.5
SliderMultiplier:1.4
SliderTickRate:1

[Events]
//Background and Video events
0,0,"BG2.jpg",0,0
Video,-434,"optc.flv"
//Break Periods
//Storyboard Layer 0 (Background)
//Storyboard Layer 1 (Fail)
//Storyboard Layer 2 (Pass)
//Storyboard Layer 3 (Foreground)
//Storyboard Sound Samples

[TimingPoints]
857,372.670807453416,4,2,1,75,1,0
9614,-83.3333333333333,4,2,1,75,0,0
15763,-83.3333333333333,4,2,1,50,0,0
27689,-83.3333333333333,4,2,1,50,0,0
31975,-83.3333333333333,4,2,2,50,0,0
33652,-83.3333333333333,4,2,1,50,0,0
36633,-83.3333333333333,4,2,2,75,0,0
37937,-83.3333333333333,4,2,2,50,0,0
38496,-83.3333333333333,4,2,1,50,0,0
38869,-100,4,2,2,75,0,0
48558,-100,4,2,2,75,0,0
52844,-100,4,2,2,50,0,0
53403,-100,4,2,2,75,0,0
54521,-83.3333333333333,4,2,1,75,0,1
77627,-100,4,2,2,75,0,1
78372,-100,4,2,2,75,0,0
83776,-83.3333333333333,4,2,1,75,0,0
88807,-100,4,2,1,5,0,0

[Colours]
Combo1 : 255,0,0
Combo2 : 255,128,0
Combo3 : 0,128,192
Combo4 : 255,0,255
Combo5 : 255,255,0

[HitObjects]
204,16,857,6,0,P|268:39|323:89,1,140,6|0,0:0|0:0,0:0:0:0:
388,208,1603,1,0,0:0:0:0:
252,242,1975,1,10,0:0:0:0:
172,128,2347,6,0,P|125:179|101:245,1,140,6|0,0:0|0:0,0:0:0:0:
179,363,3093,1,0,0:0:0:0:
252,242,3466,1,8,0:0:0:0:
368,320,3838,6,0,P|386:252|379:183,1,140,6|0,0:0|0:0,0:0:0:0:
320,56,4583,2,0,L|266:102,1,70
176,104,4956,2,0,L|122:58,1,70,2|0,0:0|0:0,0:0:0:0:
133,169,5329,5,6,0:0:0:0:
222,40,5701,1,0,0:0:0:0:
288,204,6074,2,0,L|319:141,1,70,8|2,0:0|0:0,0:0:0:0:
420,192,6447,1,10,0:0:0:0:
420,191,6820,6,0,P|384:251|322:280,1,140,6|0,0:0|0:0,0:0:0:0:
288,204,7379,1,2,0:0:0:0:
236,276,7565,2,0,P|272:336|337:365,1,140,6|0,0:0|0:0,0:0:0:0:
320,264,8124,2,0,L|286:197,1,70,2|8,0:0|0:0,0:0:0:0:
144,56,8683,6,0,P|114:72|80:108,1,70
52,180,9056,2,0,L|122:180,2,70,8|2|8,0:0|0:0|0:0,0:0:0:0:
85,261,9615,6,0,P|165:279|240:244,1,167.999994873047,6|2,0:0|0:0,0:0:0:0:
274,167,10174,2,0,P|232:161|193:174,1,83.9999974365235,8|0,0:0|0:0,0:0:0:0:
320,244,10547,2,0,P|359:256|400:251,1,83.9999974365235,8|2,0:0|0:0,0:0:0:0:
398,163,10919,1,2,0:0:0:0:
398,163,11106,6,0,P|399:84|326:41,1,167.999994873047,6|2,0:0|0:0,0:0:0:0:
324,127,11665,1,8,0:0:0:0:
172,72,12037,2,0,P|208:88|256:80,2,83.9999974365235,8|2|2,0:0|0:0|0:0,0:0:0:0:
104,120,12596,6,0,P|173:164|259:162,1,167.999994873047,6|2,0:0|0:0,0:0:0:0:
332,120,13155,1,8,0:0:0:0:
368,284,13528,2,0,P|344:249|336:208,2,83.9999974365235,8|2|2,0:0|0:0|0:0,0:0:0:0:
368,284,14087,6,0,P|407:211|401:128,1,167.999994873047,6|2,0:0|0:0,0:0:0:0:
364,52,14646,1,8,0:0:0:0:
308,112,14832,2,0,L|312:160,2,41.9999987182618,2|2|8,0:0|0:0|0:0,0:0:0:0:
252,52,15205,1,2,0:0:0:0:
192,112,15391,1,2,0:0:0:0:
220,192,15578,1,2,0:0:0:0:
297,202,15764,6,0,P|246:264|164:247,1,167.999994873047,6|8,0:0|0:0,0:0:0:0:
132,174,16323,1,0,0:0:0:0:
58,230,16509,2,0,P|71:268|103:298,2,83.9999974365235,2|2|8,0:0|0:0|0:0,0:0:0:0:
48,152,17068,2,0,P|78:75|154:46,1,167.999994873047,2|2,0:0|0:0,0:0:0:0:
203,111,17627,5,8,0:0:0:0:
203,111,17814,2,0,P|242:127|284:127,1,83.9999974365235,0|2,0:0|0:0,0:0:0:0:
338,66,18186,2,0,P|305:91|284:127,1,83.9999974365235,2|8,0:0|0:0,0:0:0:0:
309,249,18559,1,2,0:0:0:0:
309,249,18745,6,0,P|343:178|284:127,1,167.999994873047,2|8,0:0|0:0,0:0:0:0:
243,202,19304,1,2,0:0:0:0:
228,284,19491,2,0,P|259:319|279:359,2,83.9999974365235,2|2|8,0:0|0:0|0:0,0:0:0:0:
154,217,20050,6,0,P|156:258|142:297,1,83.9999974365235,2|0,0:0|0:0,0:0:0:0:
68,329,20422,2,0,P|62:287|74:248,1,83.9999974365235,2|8,0:0|0:0,0:0:0:0:
92,176,20795,2,0,P|75:135|84:92,1,83.9999974365235,0|2,0:0|0:0,0:0:0:0:
149,50,21168,2,0,P|160:90|154:132,2,83.9999974365235,2|8|0,0:0|0:0|0:0,0:0:0:0:
149,50,21727,6,0,P|224:83|298:49,1,167.999994873047,2|8,0:0|0:0,0:0:0:0:
362,105,22286,1,2,0:0:0:0:
362,105,22472,2,0,L|420:165,2,83.9999974365235,2|2|8,0:0|0:0|0:0,0:0:0:0:
336,196,23031,6,0,L|384:268,1,83.9999974365235,2|0,0:0|0:0,0:0:0:0:
284,268,23404,2,0,L|300:352,1,83.9999974365235,2|8,0:0|0:0,0:0:0:0:
204,308,23776,2,0,L|148:372,1,83.9999974365235,0|2,0:0|0:0,0:0:0:0:
104,284,24149,2,0,L|12:292,1,83.9999974365235,2|8,0:0|0:0,0:0:0:0:
102,189,24522,1,0,0:0:0:0:
102,189,24708,6,0,P|184:200|269:189,1,167.999994873047,2|8,0:0|0:0,0:0:0:0:
368,168,25267,2,0,P|372:126|368:84,1,83.9999974365235,0|2,0:0|0:0,0:0:0:0:
288,24,25640,2,0,P|244:20|204:24,1,83.9999974365235,2|0,0:0|0:0,0:0:0:0:
100,120,26011,5,4,0:0:0:0:
100,153,26385,1,4,0:0:0:0:
100,186,26757,1,4,0:0:0:0:
268,104,27130,2,0,L|336:104,2,41.9999987182618,2|2|8,0:0|0:0|0:0,0:0:0:0:
416,28,27689,6,0,L|416:196,1,167.999994873047,6|8,0:0|0:0,0:0:0:0:
416,280,28248,1,0,0:0:0:0:
336,252,28435,2,0,P|288:234|260:200,2,83.9999974365235,2|2|8,0:0|0:0|0:0,0:0:0:0:
332,332,28994,6,0,P|260:308|188:236,1,167.999994873047,2|2,0:0|0:0,0:0:0:0:
188,160,29553,1,8,0:0:0:0:
115,203,29739,2,0,P|102:121|124:41,1,167.999994873047,2|2,0:0|0:0,0:0:0:0:
124,41,30298,2,0,P|164:52|212:48,1,83.9999974365235,8|0,0:0|0:0,0:0:0:0:
291,47,30671,6,0,P|367:67|425:171,1,167.999994873047,2|8,0:0|0:0,0:0:0:0:
436,227,31230,1,2,0:0:0:0:
436,228,31416,2,0,B|370:278|370:278|302:226,1,167.999994873047,2|8,0:0|0:0,0:0:0:0:
272,304,31975,6,0,L|205:252,1,83.9999974365235,2|0,0:0|0:0,0:0:0:0:
121,223,32348,2,0,L|134:307,1,83.9999974365235,2|8,0:0|0:0,0:0:0:0:
43,257,32721,2,0,L|30:173,1,83.9999974365235,2|0,0:0|0:0,0:0:0:0:
44,88,33093,2,0,L|116:132,1,83.9999974365235,2|8,0:0|0:0,0:0:0:0:
188,172,33466,1,0,0:0:0:0:
256,124,33652,6,0,B|292:56|292:56|392:56,1,167.999994873047,6|8,0:0|0:0,0:0:0:0:
384,140,34211,2,0,B|348:208|348:208|248:208,1,167.999994873047,2|2,0:0|0:0,0:0:0:0:
184,76,34770,1,8,0:0:0:0:
116,124,34957,2,0,B|152:208|100:208|132:300,1,167.999994873047,2|2,0:0|0:0,0:0:0:0:
228,184,35516,5,8,0:0:0:0:
228,184,35702,2,0,B|192:268|244:268|212:360,1,167.999994873047,2|2,0:0|0:0,0:0:0:0:
300,352,36261,2,0,L|408:351,1,83.9999974365235,8|2,0:0|0:0,0:0:0:0:
453,303,36634,5,2,0:0:0:0:
396,145,37006,1,2,0:0:0:0:
293,278,37379,1,2,0:0:0:0:
450,220,37752,1,2,0:0:0:0:
469,103,37938,6,0,P|403:57|317:111,1,167.999994873047,4|2,0:0|0:0,0:0:0:0:
240,148,38496,1,8,0:0:0:0:
220,44,38683,1,2,0:0:0:0:
220,44,38776,1,2,0:0:0:0:
220,44,38869,2,0,L|170:93,1,70,2|0,0:0|0:0,0:0:0:0:
88,92,39242,2,0,L|39:41,1,70,2|0,0:0|0:0,0:0:0:0:
128,160,39615,6,0,L|128:312,1,140,6|8,0:0|0:0,0:0:0:0:
292,340,40360,2,0,L|341:290,1,70,2|0,0:0|0:0,0:0:0:0:
424,292,40732,2,0,L|473:342,1,70
384,224,41105,6,0,L|384:72,1,140,2|8,0:0|0:0,0:0:0:0:
224,104,41850,1,2,0:0:0:0:
177,34,42037,1,0,0:0:0:0:
108,81,42224,1,0,0:0:0:0:
155,150,42410,1,0,0:0:0:0:
124,230,42596,6,0,P|75:181|38:122,1,140,2|8,0:0|0:0,2:0:0:0:
39,339,43342,2,0,P|76:279|125:230,1,140,2|0,0:0|0:0,2:0:0:0:
204,232,43901,1,0,0:0:0:0:
204,232,44087,6,0,L|304:232,1,70,2|0,0:0|0:0,0:0:0:0:
448,336,44832,2,0,L|448:260,1,70,2|0,0:0|0:0,0:0:0:0:
363,191,45205,2,0,L|363:261,1,70
452,182,45578,6,0,P|426:133|350:101,1,140,6|8,0:0|0:0,0:0:0:0:
228,60,46323,2,0,L|228:130,1,70,2|0,0:0|0:0,0:0:0:0:
144,178,46696,2,0,L|144:108,1,70
225,206,47068,6,0,P|192:249|106:256,1,140,2|8,0:0|0:0,0:0:0:0:
330,307,47814,1,2,0:0:0:0:
406,271,48000,1,0,0:0:0:0:
328,229,48186,1,0,0:0:0:0:
404,193,48373,1,0,0:0:0:0:
328,152,48559,6,8,P|268:180|260:270,1,140
195,309,49117,2,0,P|142:350|53:325,1,140,2|2,0:0|0:0,0:0:0:0:
43,260,49676,1,8,0:0:0:0:
96,176,49863,5,2,0:0:0:0:
195,309,50235,1,2,0:0:0:0:
287,168,50608,1,2,0:0:0:0:
384,304,50981,1,2,0:0:0:0:
228,216,51354,1,0,0:0:0:0:
216,133,51540,6,0,P|229:67|290:38,1,140,10|8,0:0|0:0,0:0:0:0:
228,215,52099,2,8,P|163:199|133:137,1,140,10|8,0:0|0:0,0:0:0:0:
170,30,52658,1,8,0:0:0:0:
292,116,52845,1,4,0:0:0:0:
308,124,53404,5,2,0:0:0:0:
462,188,53776,1,2,0:0:0:0:
368,49,54148,1,2,0:0:0:0:
368,49,54335,1,0,0:0:0:0:
376,180,54522,6,0,P|338:234|244:232,1,167.999994873047,6|8,0:0|0:0,0:0:0:0:
151,261,55080,1,0,0:0:0:0:
151,261,55267,2,0,L|170:180,1,83.9999974365235,2|2,0:0|0:0,0:0:0:0:
101,120,55640,2,0,L|83:203,1,83.9999974365235,8|0,0:0|0:0,0:0:0:0:
52,56,56012,6,0,P|132:46|180:112,1,167.999994873047,2|8,0:0|0:0,0:0:0:0:
192,201,56571,1,0,0:0:0:0:
268,144,56758,2,0,L|340:100,1,83.9999974365235,2|2,0:0|0:0,0:0:0:0:
400,160,57130,2,0,L|327:203,1,83.9999974365235,8|0,0:0|0:0,0:0:0:0:
430,87,57503,6,0,P|476:151|443:225,1,167.999994873047,6|8,0:0|0:0,0:0:0:0:
312,328,58248,2,0,L|220:244,1,83.9999974365235,2|2,0:0|0:0,0:0:0:0:
152,232,58621,1,8,0:0:0:0:
64,296,58807,1,0,0:0:0:0:
44,184,58994,6,0,L|44:96,1,83.9999974365235,2|0,0:0|0:0,0:0:0:0:
128,120,59366,2,0,L|128:32,1,83.9999974365235,8|0,0:0|0:0,0:0:0:0:
212,104,59739,2,0,L|212:188,1,83.9999974365235,2|2,0:0|0:0,0:0:0:0:
290,162,60112,2,0,L|290:246,1,83.9999974365235,8|0,0:0|0:0,0:0:0:0:
358,285,60485,6,0,P|289:325|220:284,1,167.999994873047,6|8,0:0|0:0,0:0:0:0:
289,161,61230,2,0,P|221:203|220:284,1,167.999994873047,2|8,0:0|0:0,0:0:0:0:
138,283,61788,6,0,P|190:360|268:349,1,167.999994873047,6|0,0:0|0:0,0:0:0:0:
304,284,62348,1,8,0:0:0:0:
344,360,62534,2,0,P|389:293|360:217,1,167.999994873047,6|2,0:0|0:0,0:0:0:0:
360,217,63093,1,8,0:0:0:0:
419,148,63279,1,2,0:0:0:0:
418,147,63465,6,0,P|340:127|278:179,1,167.999994873047,2|8,0:0|0:0,0:0:0:0:
253,262,64024,2,0,P|195:206|214:123,1,167.999994873047,2|2,0:0|0:0,0:0:0:0:
281,38,64584,1,8,0:0:0:0:
319,109,64770,6,0,P|238:104|200:33,1,167.999994873047,6|2,0:0|0:0,0:0:0:0:
200,33,65329,1,8,0:0:0:0:
353,217,65702,2,0,L|408:168,2,41.9999987182618,10|8|2,0:0|0:0|0:0,0:0:0:0:
356,313,66075,2,0,L|384:381,2,41.9999987182618,8|8|2,0:0|0:0|0:0,0:0:0:0:
424,257,66447,6,0,P|348:297|280:248,1,167.999994873047,6|8,0:0|0:0,0:0:0:0:
222,190,67006,1,0,0:0:0:0:
193,104,67193,2,0,L|177:21,1,83.9999974365235,2|2,0:0|0:0,0:0:0:0:
282,107,67565,2,0,L|266:24,1,83.9999974365235,8|0,0:0|0:0,0:0:0:0:
103,108,67938,6,0,P|141:179|221:189,1,167.999994873047,2|8,0:0|0:0,0:0:0:0:
343,271,68683,2,0,P|263:260|221:190,1,167.999994873047,2|8,0:0|0:0,0:0:0:0:
193,104,69242,1,2,0:0:0:0:
166,254,69429,6,0,L|279:130,1,167.999994873047,6|8,0:0|0:0,0:0:0:0:
340,71,69988,1,0,0:0:0:0:
399,129,70174,2,0,P|423:165|436:206,1,83.9999974365235,2|2,0:0|0:0,0:0:0:0:
316,204,70546,2,0,P|293:169|280:130,1,83.9999974365235,8|0,0:0|0:0,0:0:0:0:
244,52,70919,6,0,B|160:40|166:76|59:55,2,167.999994873047,2|8|2,0:0|0:0|0:0,0:0:0:0:
48,152,72037,1,8,0:0:0:0:
16,240,72224,1,2,0:0:0:0:
64,320,72410,6,0,P|158:313|198:258,1,167.999994873047,6|8,0:0|0:0,0:0:0:0:
355,157,73155,2,0,P|413:213|407:294,1,167.999994873047,2|8,0:0|0:0,0:0:0:0:
295,207,73714,6,0,P|283:128|347:80,1,167.999994873047,6|2,0:0|0:0,0:0:0:0:
438,124,74273,1,8,0:0:0:0:
428,224,74460,2,0,P|409:303|336:339,1,167.999994873047,6|2,0:0|0:0,0:0:0:0:
224,308,75019,2,0,P|184:272|160:232,1,83.9999974365235,8|2,0:0|0:0,0:0:0:0:
126,127,75391,6,0,B|215:146|209:110|292:122,1,167.999994873047,6|8,0:0|0:0,0:0:0:0:
349,69,75950,2,0,B|373:101|371:134|361:158|361:158|341:191|341:191|349:227,1,167.999994873047,2|2,0:0|0:0,0:0:0:0:
355,303,76509,1,8,0:0:0:0:
355,303,76696,6,0,B|322:305|286:282|274:248|274:248|260:233|216:223,1,167.999994873047,2|2,0:0|0:0,0:0:0:0:
216,223,77255,1,8,0:0:0:0:
137,55,77627,2,0,L|137:125,1,70,2|0,0:0|0:0,0:0:0:0:
60,160,78000,2,0,L|60:90,1,70
130,206,78373,6,0,P|194:180|218:117,1,140,4|8,0:0|0:0,0:0:0:0:
248,32,78931,2,0,L|318:32,1,70,0|2,0:0|0:0,0:0:0:0:
395,35,79304,1,0,0:0:0:0:
431,104,79490,2,0,L|456:177,1,70
316,207,79863,6,0,P|253:181|229:118,1,140,2|8,0:0|0:0,0:0:0:0:
104,160,80609,2,0,L|104:230,1,70,2|0,0:0|0:0,0:0:0:0:
186,295,80981,2,0,L|186:225,1,70
271,139,81354,6,0,P|249:203|185:225,1,140,2|8,0:0|0:0,0:0:0:0:
194,148,81913,2,0,P|217:85|282:60,1,140,2|2,0:0|0:0,0:0:0:0:
271,140,82472,1,8,0:0:0:0:
122,170,82658,6,0,P|103:232|139:296,1,140,4|2,0:0|0:0,0:0:0:0:
208,328,83217,2,0,P|279:322|336:284,1,140,8|2,0:0|0:0,0:0:0:0:
420,285,83776,2,0,L|452:329,2,41.9999987182618,8|8|2,0:0|0:0|0:0,0:0:0:0:
373,216,84149,1,8,0:0:0:0:
373,216,84242,1,8,0:0:0:0:
373,216,84335,6,0,P|349:150|258:125,1,167.999994873047,6|8,0:0|0:0,0:0:0:0:
285,210,84894,1,2,0:0:0:0:
288,298,85081,2,0,P|224:273|203:181,1,167.999994873047,4|8,0:0|0:0,0:0:0:0:
116,212,85640,1,2,0:0:0:0:
48,164,85826,6,0,P|76:96|159:61,1,167.999994873047,4|0,0:0|0:0,0:0:0:0:
241,76,86385,2,0,P|272:108|307:126,1,83.9999974365235,0|2,0:0|0:0,0:0:0:0:
412,156,86757,1,0,0:0:0:0:
380,52,86943,1,8,0:0:0:0:
336,224,87130,1,4,0:0:0:0:
256,192,87317,12,0,88808,0:0:0:0:
