osu file format v14

[General]
AudioFilename: Colorful Box.mp3
AudioLeadIn: 1000
PreviewTime: 54521
Countdown: 0
SampleSet: Soft
StackLeniency: 0.7
Mode: 0
LetterboxInBreaks: 0
WidescreenStoryboard: 0

[Editor]
DistanceSpacing: 0.9
BeatDivisor: 4
GridSize: 4
TimelineZoom: 1.2

[Metadata]
Title:COLORFUL BOX
TitleUnicode:COLORFUL BOX
Artist:ISHIDA YOKO
ArtistUnicode:石田燿子
Creator:zj0924
Version:Easy
Source:SHIROBAKO
Tags:WHITE BOX Opening P.A. Works TV Size musashino animation musani exodus wakeshima kanon 分島花音
BeatmapID:636243
BeatmapSetID:281071

[Difficulty]
HPDrainRate:2
CircleSize:3
OverallDifficulty:2
ApproachRate:3
SliderMultiplier:0.9
SliderTickRate:1

[Events]
//Background and Video events
0,0,"BG4.jpg",0,0
Video,-434,"optc.flv"
//Break Periods
//Storyboard Layer 0 (Background)
//Storyboard Layer 1 (Fail)
//Storyboard Layer 2 (Pass)
//Storyboard Layer 3 (Foreground)
//Storyboard Sound Samples

[TimingPoints]
857,372.670807453416,4,2,1,75,1,0
15763,-100,4,2,1,50,0,0
38869,-100,4,2,2,75,0,0
52844,-100,4,2,2,50,0,0
54521,-100,4,2,1,75,0,1
75950,-100,4,2,2,75,0,1
76881,-100,4,2,1,75,0,1
78372,-100,4,2,2,75,0,0
84335,-100,4,2,1,75,0,0
88807,-100,4,2,1,5,0,0

[Colours]
Combo1 : 255,0,0
Combo2 : 255,128,0
Combo3 : 0,128,192
Combo4 : 255,0,255
Combo5 : 255,255,0

[HitObjects]
112,108,857,5,6,0:0:0:0:
391,271,2347,1,6,0:0:0:0:
112,108,3839,5,6,0:0:0:0:
228,321,4957,2,0,B|288:321|288:321|316:313,1,90,10|6,0:0|0:0,0:0:0:0:
439,207,6074,2,0,P|442:162|434:117,1,90,8|2,0:0|0:0,0:0:0:0:
466,43,6820,6,4,P|381:54|355:135,2,180,6|6|8,0:0|0:0|0:0,0:0:0:0:
182,32,9615,6,0,P|102:69|76:125,1,135,6|8,0:0|0:0,0:0:0:0:
57,185,10547,1,2,0:0:0:0:
85,303,11105,2,0,P|133:342|211:341,1,135,6|8,0:0|0:0,0:0:0:0:
278,313,12037,1,2,0:0:0:0:
388,364,12596,6,0,P|397:294|366:229,1,135,6|8,0:0|0:0,0:0:0:0:
320,172,13527,1,2,0:0:0:0:
203,207,14087,2,0,P|131:224|69:214,1,135,6|8,0:0|0:0,0:0:0:0:
32,144,15018,2,0,P|36:108|68:64,1,90,8|2,0:0|0:0,0:0:0:0:
140,30,15764,6,0,P|227:41|279:129,1,180,6|2,0:0|0:0,0:0:0:0:
434,149,17255,2,0,P|437:103|433:59,1,90,2|8,0:0|0:0,0:0:0:0:
352,59,17999,2,0,P|347:103|351:148,1,90,2|8,0:0|0:0,0:0:0:0:
352,229,18745,6,0,P|280:276|195:229,1,180,2|2,0:0|0:0,0:0:0:0:
177,80,20236,2,0,P|132:67|82:80,1,90,2|8,0:0|0:0,0:0:0:0:
17,111,20981,2,0,L|17:201,1,90,2|8,0:0|0:0,0:0:0:0:
58,271,21727,6,0,P|134:319|206:271,1,180,2|2,0:0|0:0,0:0:0:0:
243,119,23217,2,0,P|317:76|388:124,1,180,2|2,0:0|0:0,0:0:0:0:
443,278,24708,2,0,P|426:319|393:348,1,90,2|8,0:0|0:0,0:0:0:0:
359,274,25453,2,0,P|324:229|315:154,1,135,2|4,0:0|0:0,0:0:0:0:
314,72,26384,2,0,P|357:80|387:113,1,90,4|4,0:0|0:0,0:0:0:0:
216,227,27689,6,0,P|132:258|50:200,1,180,6|2,0:0|0:0,0:0:0:0:
40,136,28807,1,8,0:0:0:0:
52,55,29180,2,0,P|106:45|159:55,1,90,2|8,0:0|0:0,0:0:0:0:
221,56,29926,2,0,P|223:125|217:161,1,90,2|8,0:0|0:0,0:0:0:0:
216,227,30671,6,0,P|271:227|323:211,1,90,2|8,0:0|0:0,0:0:0:0:
353,153,31416,2,0,P|377:190|388:234,2,90,2|8|2,0:0|0:0|0:0,0:0:0:0:
353,71,32534,2,0,P|376:33|413:6,2,90,8|2|8,0:0|0:0|0:0,0:0:0:0:
433,87,33652,6,0,P|452:127|458:171,1,90,6|8,0:0|0:0,0:0:0:0:
437,250,34397,1,2,0:0:0:0:
361,221,34770,2,0,P|284:181|211:226,1,180,8|8,0:0|0:0,0:0:0:0:
175,299,35888,2,0,P|128:330|82:347,1,90,2|8,0:0|0:0,0:0:0:0:
56,272,36634,6,0,P|52:216|60:168,1,90,2|8,0:0|0:0,0:0:0:0:
64,104,37378,2,0,B|100:48|152:128|184:76,1,135,2|4,0:0|0:0,0:0:0:0:
384,67,38870,6,0,B|396:155|464:127|484:223,1,180,2|4,0:0|0:0,0:0:0:0:
362,321,40360,2,0,B|351:235|283:263|265:177,1,180,2|2,0:0|0:0,0:0:0:0:
164,304,41850,6,0,B|-16:216|72:216,1,180,2|2,0:0|0:0,0:0:0:0:
152,204,42969,2,0,L|240:248,2,90,8|0|8,0:0|0:0|0:0,0:0:0:0:
101,140,44087,5,2,0:0:0:0:
248,68,44832,1,2,0:0:0:0:
408,44,45578,6,0,B|364:131|436:131|404:235,1,180,4|0,0:0|0:0,0:0:0:0:
288,324,47068,2,0,B|201:296|201:368|113:324,1,180,4|0,0:0|0:0,0:0:0:0:
81,166,48558,5,8,0:0:0:0:
2,145,48931,2,0,P|48:240|151:207,1,225,8|2,0:0|0:0,0:0:0:0:
208,161,50235,2,0,P|244:135|255:92,2,90,2|2|2,0:0|0:0|0:0,0:0:0:0:
256,192,51540,12,4,52845,0:0:0:0:
104,44,54522,6,0,P|79:82|88:136,1,90,6|8,0:0|0:0,0:0:0:0:
160,104,55267,2,0,P|210:84|256:100,1,90,2|8,0:0|0:0,0:0:0:0:
212,166,56012,1,2,0:0:0:0:
136,192,56385,2,0,P|96:212|72:256,2,90,8|2|8,0:0|0:0|0:0,0:0:0:0:
156,272,57503,6,0,P|220:276|260:276,1,90,6|8,0:0|0:0,0:0:0:0:
328,280,58248,2,0,P|368:236|376:188,1,90,2|8,0:0|0:0,0:0:0:0:
376,128,58994,2,0,P|352:80|304:56,2,90,2|8|2,0:0|0:0|0:0,0:0:0:0:
296,136,60112,2,0,P|260:156|192:156,1,90,8|6,0:0|0:0,0:0:0:0:
136,136,60857,5,8,0:0:0:0:
92,212,61230,2,0,B|148:248|148:248|220:248,1,135,2|4,0:0|0:0,0:0:0:0:
228,328,62162,1,0,0:0:0:0:
296,284,62534,2,0,B|364:284|364:284|420:248,1,135,4|8,0:0|0:0,0:0:0:0:
436,168,63466,6,0,B|476:140|444:56|356:12|316:48,1,225,2|2,0:0|0:0,0:0:0:0:
300,124,64770,2,0,B|272:212|272:212|216:188,1,135,6|8,0:0|0:0,0:0:0:0:
152,192,65702,2,0,B|112:172|92:124,1,90,2|8,0:0|0:0,0:0:0:0:
92,44,66447,5,6,0:0:0:0:
168,72,66820,2,0,B|256:80|256:80|352:48,1,180,8|8,0:0|0:0,0:0:0:0:
416,84,67938,2,0,P|448:132|448:184,2,90,2|8|2,0:0|0:0|0:0,0:0:0:0:
372,152,69056,2,0,P|384:208|424:240,1,90,8|6,0:0|0:0,0:0:0:0:
444,300,69801,5,8,0:0:0:0:
364,300,70174,2,0,P|316:300|264:288,1,90,2|8,0:0|0:0,0:0:0:0:
200,264,70919,2,0,L|176:352,2,90,2|8|2,0:0|0:0|0:0,0:0:0:0:
184,184,72037,2,0,B|237:176|262:214,1,90,8|6,0:0|0:0,0:0:0:0:
284,293,72783,5,8,0:0:0:0:
364,300,73155,2,0,B|343:312|452:288|416:184,1,135,2|4,0:0|0:0,0:0:0:0:
388,128,74087,2,0,B|336:108|293:134,1,90,2|4,0:0|0:0,0:0:0:0:
256,196,74832,2,0,P|194:232|120:224,1,135,2|8,0:0|0:0,0:0:0:0:
64,184,75763,6,0,P|48:96|128:40,1,180,8|8,0:0|0:0,0:0:0:0:
192,52,76881,2,0,P|225:81|237:124,1,90,2|8,0:0|0:0,0:0:0:0:
304,168,77627,2,0,P|348:161|382:131,1,90,2|8,0:0|0:0,0:0:0:0:
312,89,78373,5,4,0:0:0:0:
380,45,78745,2,0,P|452:89|452:181,1,180,8|8,0:0|0:0,0:0:0:0:
392,228,79863,2,0,L|412:332,1,90,2|8,0:0|0:0,0:0:0:0:
328,316,80608,2,0,P|253:356|174:310,1,180,2|2,0:0|0:0,0:0:0:0:
130,247,81726,6,4,P|202:163|322:171,1,225,8|4,0:0|0:0,0:0:0:0:
272,236,83031,2,0,P|352:232|388:184,1,135,2|2,0:0|0:0,0:0:0:0:
468,52,84335,6,0,P|480:156|440:260,1,180,6|2,0:0|0:0,0:0:0:0:
320,312,85826,2,0,P|308:208|348:104,1,180,6|2,0:0|0:0,0:0:0:0:
256,192,87130,12,0,88807,0:0:0:0:
