osu file format v14

[General]
AudioFilename: COLORFUL BOX.mp3
AudioLeadIn: 800
PreviewTime: 54894
Countdown: 0
SampleSet: Soft
StackLeniency: 0.7
Mode: 0
LetterboxInBreaks: 0
WidescreenStoryboard: 0

[Editor]
DistanceSpacing: 1.3
BeatDivisor: 1
GridSize: 4
TimelineZoom: 1

[Metadata]
Title:COLORFUL BOX
TitleUnicode:COLORFUL BOX
Artist:ISHIDA YOKO
ArtistUnicode:石田燿子
Creator:Del05
Version:Hard
Source:SHIROBAKO
Tags:Opening P.A. Works Aoi Miyamori Ema Yasuhara Shizuka Sakaki Misa Tōdō Midori Imai
BeatmapID:653778
BeatmapSetID:290161

[Difficulty]
HPDrainRate:5
CircleSize:4
OverallDifficulty:6
ApproachRate:7.5
SliderMultiplier:1.4
SliderTickRate:1

[Events]
//Background and Video events
0,0,"BG.jpg",0,0
Video,0,"op.avi"
//Break Periods
//Storyboard Layer 0 (Background)
//Storyboard Layer 1 (Fail)
//Storyboard Layer 2 (Pass)
//Storyboard Layer 3 (Foreground)
//Storyboard Sound Samples

[TimingPoints]
1230,372.670807453416,4,2,1,100,1,0
1230,-111.111111111111,4,2,1,40,0,0
9428,-100,4,2,1,45,0,0
16136,-100,4,2,1,45,0,0
27503,-100,4,2,1,35,0,0
28062,-100,4,2,1,45,0,0
39987,-117.647058823529,4,2,1,35,0,0
48186,-117.647058823529,4,2,1,45,0,0
48931,-100,4,2,1,45,0,0
53776,-117.647058823529,4,2,1,45,0,0
54894,-100,4,2,1,45,0,1
77254,-117.647058823529,4,2,1,35,0,0
82472,-100,4,2,1,45,0,0
86571,-133.333333333333,4,2,1,45,0,0
89180,-133.333333333333,4,2,1,10,0,0

[Colours]
Combo1 : 187,103,229
Combo2 : 255,213,128
Combo3 : 242,121,97
Combo4 : 255,140,179

[HitObjects]
140,92,1230,5,4,0:0:0:0:
140,92,2348,2,0,B|204:80|204:80|284:100,1,125.999996154785,2|4,0:0|0:0,0:0:0:0:
372,292,3838,2,0,B|308:304|308:304|228:284,1,125.999996154785,2|4,0:0|0:0,0:0:0:0:
12,204,4956,2,0,B|48:136|4:64,1,125.999996154785,0|2,0:0|0:0,0:0:0:0:
140,92,5702,2,0,P|203:104|280:88,1,125.999996154785,4|0,0:0|0:0,0:0:0:0:
448,120,6447,6,0,L|444:182,1,62.9999980773926
352,224,6820,2,0,L|348:286,2,62.9999980773926,0|0|6,0:0|0:0|0:0,0:0:0:0:
108,228,7938,2,0,P|104:292|116:364,2,125.999996154785,2|0|12,0:0|0:0|0:0,0:0:0:0:
108,228,9428,2,0,P|116:180|128:144,1,70
156,80,9801,1,2,0:0:0:0:
232,112,9987,6,0,P|304:128|376:108,1,140,4|0,0:0|0:0,0:0:0:0:
448,92,10546,2,0,B|460:188,1,70,8|0,0:0|0:0,0:0:0:0:
456,244,10919,2,4,P|384:248|340:300,1,140,6|2,0:0|0:0,0:0:0:0:
256,284,11478,6,0,P|232:219|170:191,1,140,4|2,0:0|0:0,0:0:0:0:
172,276,12037,2,0,L|292:176,1,140,8|2,0:0|0:0,0:0:0:0:
320,112,12596,1,2,0:0:0:0:
240,112,12782,1,2,0:0:0:0:
280,186,12969,6,0,L|387:275,1,140,4|0,0:0|0:0,0:0:0:0:
304,284,13528,2,0,P|328:219|390:191,1,140,4|2,0:0|0:0,0:0:0:0:
424,116,14087,2,0,P|386:103|340:76,1,70,2|2,0:0|0:0,0:0:0:0:
288,48,14459,2,0,P|210:41|144:48,1,140,12|2,0:0|0:0,0:0:0:0:
77,92,15018,2,0,P|64:160|100:224,2,140,8|0|2,0:0|0:0|0:0,0:0:0:0:
52,308,16136,6,0,P|104:324|180:276,1,140,6|8,0:0|0:0,0:0:0:0:
252,252,16695,2,0,L|275:318,1,70,0|2,0:0|0:0,0:0:0:0:
400,368,17068,2,0,L|372:292,1,70,2|8,0:0|0:0,0:0:0:0:
332,232,17441,2,0,P|364:188|392:104,1,140
404,24,18000,2,0,L|496:16,2,70,8|0|2,0:0|0:0|0:0,0:0:0:0:
320,40,18559,1,2,0:0:0:0:
240,60,18745,2,0,P|240:128|244:212,1,140,8|2,0:0|0:0,0:0:0:0:
416,348,19490,6,0,P|419:278|419:208,1,140,8|2,0:0|0:0,0:0:0:0:
396,128,20049,1,2,0:0:0:0:
328,180,20236,2,0,P|292:182|256:180,1,70,8|0,0:0|0:0,0:0:0:0:
204,80,20608,2,0,P|239:77|276:80,1,70,2|0,0:0|0:0,0:0:0:0:
396,128,20981,2,0,P|396:200|408:272,1,140,8|2,0:0|0:0,0:0:0:0:
364,340,21539,1,2,0:0:0:0:
288,308,21726,2,0,P|218:300|148:306,1,140,8|6,0:0|0:0,0:0:0:0:
40,100,22472,6,0,P|110:92|180:98,1,140,8|2,0:0|0:0,0:0:0:0:
248,148,23031,1,2,0:0:0:0:
308,88,23218,2,0,P|345:82|380:88,1,70,8|0,0:0|0:0,0:0:0:0:
408,164,23590,2,0,P|370:169|336:164,1,70,2|0,0:0|0:0,0:0:0:0:
248,148,23962,2,0,P|272:224|336:256,1,140,8|2,0:0|0:0,0:0:0:0:
400,224,24521,1,2,0:0:0:0:
339,165,24708,2,0,L|215:245,1,140,8|6,0:0|0:0,0:0:0:0:
48,340,25453,5,8,0:0:0:0:
48,340,25826,2,0,L|52:252,1,70,2|2,0:0|0:0,0:0:0:0:
76,192,26198,1,8,0:0:0:0:
140,136,26385,1,4,0:0:0:0:
304,58,26757,1,4,0:0:0:0:
289,240,27130,1,4,0:0:0:0:
140,136,27503,2,0,L|140:88,2,35,4|4|4,3:0|3:0|3:0,0:0:0:0:
144,304,28062,6,0,P|211:319|296:320,1,140,4|8,0:0|0:0,0:0:0:0:
444,284,28807,2,0,L|444:204,1,70,2|2,0:0|0:0,0:0:0:0:
376,80,29180,2,0,L|376:156,1,70,8|2,0:0|0:0,0:0:0:0:
304,204,29552,2,0,P|252:228|160:188,1,140,2|8,0:0|0:0,0:0:0:0:
112,148,30111,1,0,0:0:0:0:
112,148,30298,2,0,L|112:72,2,70,2|2|8,0:0|0:0|0:0,0:0:0:0:
44,304,31043,6,0,P|114:312|192:304,1,140,2|8,0:0|0:0,0:0:0:0:
336,240,31789,2,0,P|340:202|336:168,1,70,2|2,0:0|0:0,0:0:0:0:
260,136,32161,2,0,P|255:170|259:205,1,70,8|2,0:0|0:0,0:0:0:0:
200,264,32534,2,0,P|164:268|128:265,1,70,0|2,0:0|0:0,0:0:0:0:
92,192,32907,2,0,P|130:188|164:192,1,70,8|0,0:0|0:0,0:0:0:0:
244,192,33279,2,0,P|271:170|293:143,1,70,2|2,0:0|0:0,0:0:0:0:
372,124,33652,2,0,P|288:108|272:60,2,140,8|6|8,0:0|0:0|0:0,0:0:0:0:
456,100,34584,6,0,L|476:168,1,70,0|2,0:0|0:0,0:0:0:0:
420,276,34956,2,0,L|396:196,1,70,2|8,0:0|0:0,0:0:0:0:
376,128,35329,2,0,P|300:144|248:108,1,140,2|2,0:0|0:0,0:0:0:0:
320,64,35888,2,0,L|304:216,1,140,8|2,0:0|0:0,0:0:0:0:
280,284,36447,1,2,0:0:0:0:
220,224,36633,1,8,0:0:0:0:
162,114,37006,6,0,P|182:202|230:226,1,140,4|8,0:0|0:0,0:0:0:0:
242,142,37565,1,0,0:0:0:0:
296,72,37751,2,0,L|268:0,2,70,2|2|8,0:0|0:0|0:0,0:0:0:0:
324,152,38310,2,0,P|320:220|392:276,1,140,6|2,0:0|0:0,0:0:0:0:
396,192,38869,5,8,0:0:0:0:
476,220,39056,1,0,1:0:0:0:
476,220,39149,1,0,1:0:0:0:
476,220,39242,2,0,L|484:132,1,70,2|0,0:0|0:0,0:0:0:0:
416,40,39615,2,0,L|408:116,1,70,2|0,0:0|0:0,0:0:0:0:
396,192,39987,6,0,P|332:176|272:196,1,119.000002269745,4|8,0:0|0:0,0:0:0:0:
212,316,40733,2,0,L|212:256,1,59.5000011348725
136,180,41105,2,0,L|136:256,1,59.5000011348725
132,316,41478,2,0,P|76:292|60:232,1,119.000002269745,0|8,0:0|0:0,0:0:0:0:
60,84,42223,2,0,L|60:152,1,59.5000011348725
136,180,42596,2,0,L|136:104,1,59.5000011348725
61,84,42969,6,0,P|120:96|192:84,1,119.000002269745,0|8,0:0|0:0,0:0:0:0:
248,56,43528,2,0,L|328:56,1,59.5000011348725
368,100,43900,1,0,0:0:0:0:
308,148,44087,2,0,L|236:148,1,59.5000011348725
179,89,44459,6,0,P|160:144|192:216,1,119.000002269745,2|8,0:0|0:0,0:0:0:0:
288,308,45205,2,0,L|320:236,1,59.5000011348725
416,312,45577,2,0,L|384:240,1,59.5000011348725
356,193,45950,2,0,P|360:129|356:65,1,119.000002269745,4|8,0:0|0:0,0:0:0:0:
204,48,46695,2,0,L|172:120,1,59.5000011348725
76,44,47067,2,0,L|108:116,1,59.5000011348725
138,165,47440,6,0,P|133:229|138:293,1,119.000002269745,0|8,0:0|0:0,0:0:0:0:
276,352,48186,2,0,L|280:288,1,59.5000011348725,2|2,0:0|0:0,0:0:0:0:
236,228,48559,2,0,P|304:220|352:264,1,119.000002269745,8|6,0:0|0:0,0:0:0:0:
500,184,49304,6,0,P|439:152|419:81,1,140,8|0,0:0|0:0,0:0:0:0:
356,32,49863,1,2,0:0:0:0:
292,84,50049,2,0,P|290:118|280:160,1,70,8|0,0:0|0:0,0:0:0:0:
204,180,50422,2,0,P|205:145|216:104,1,70,2|0,0:0|0:0,0:0:0:0:
328,156,50795,2,0,P|326:190|316:232,1,70,8|2,0:0|0:0,0:0:0:0:
152,248,51167,2,0,P|153:213|164:172,1,70,2|2,0:0|0:0,0:0:0:0:
116,108,51540,2,0,P|188:100|240:148,1,140,8|12,0:0|0:0,0:0:0:0:
284,304,52285,6,0,L|280:212,1,70,2|2,0:0|0:0,0:0:0:0:
364,156,52658,2,0,L|368:228,1,70,2|2,0:0|0:0,0:0:0:0:
456,312,53031,2,0,L|452:236,1,70,2|8,0:0|0:0,0:0:0:0:
364,52,53776,6,0,L|364:132,1,59.5000011348725
284,184,54149,2,0,L|284:112,1,59.5000011348725,0|2,0:0|0:0,0:0:0:0:
284,52,54521,2,0,P|232:72|212:132,1,119.000002269745,2|4,0:0|0:0,0:0:0:0:
204,296,55267,6,0,P|165:302|132:296,1,70,8|0,0:0|0:0,0:0:0:0:
104,204,55639,2,0,P|142:197|176:204,1,70,2|2,0:0|0:0,0:0:0:0:
252,232,56012,2,0,P|327:249|386:207,1,140,8|2,0:0|0:0,0:0:0:0:
309,160,56571,1,0,0:0:0:0:
364,88,56757,2,0,P|325:71|279:75,1,70,8|0,0:0|0:0,0:0:0:0:
212,120,57130,2,0,P|216:155|212:196,1,70,2|2,0:0|0:0,0:0:0:0:
184,268,57503,2,0,P|132:216|136:148,2,140,8|6|8,0:0|0:0|0:0,0:0:0:0:
332,348,58621,6,0,L|340:276,1,70,2|2,0:0|0:0,0:0:0:0:
400,220,58993,1,8,0:0:0:0:
356,152,59180,1,0,0:0:0:0:
296,208,59366,2,0,P|224:200|176:148,2,140,2|8|2,0:0|0:0|0:0,0:0:0:0:
356,152,60298,1,2,0:0:0:0:
388,76,60484,2,0,P|352:68|304:84,1,70,8|0,0:0|0:0,0:0:0:0:
260,132,60857,6,0,L|204:272,1,140,6|8,0:0|0:0,0:0:0:0:
52,328,61602,2,0,L|88:248,1,70,2|2,0:0|0:0,0:0:0:0:
120,188,61975,1,8,0:0:0:0:
88,108,62161,2,0,P|172:120|204:176,1,140,6|2,0:0|0:0,0:0:0:0:
244,232,62720,6,0,P|280:235|328:228,1,70,8|6,0:0|0:0,0:0:0:0:
420,104,63279,1,2,0:0:0:0:
476,164,63466,1,8,0:0:0:0:
420,228,63652,1,0,1:0:0:0:
420,228,63745,1,0,1:0:0:0:
420,228,63838,6,0,B|382:197|382:197|346:153|346:153|312:125,1,140,6|8,0:0|0:0,0:0:0:0:
268,28,64397,1,2,0:0:0:0:
164,64,64584,2,0,P|159:102|169:143,1,70,2|2,0:0|0:0,0:0:0:0:
204,208,64956,1,8,0:0:0:0:
140,260,65143,2,0,P|208:292|272:248,1,140,6|2,0:0|0:0,0:0:0:0:
268,156,65702,6,0,P|200:124|140:156,1,140,8|8,0:0|0:0,0:0:0:0:
205,208,66261,1,2,0:0:0:0:
205,208,66354,1,2,0:0:0:0:
205,208,66447,1,8,0:0:0:0:
262,265,66633,1,2,0:0:0:0:
262,265,66726,1,2,0:0:0:0:
262,265,66820,6,0,P|336:288|408:244,1,140,6|8,0:0|0:0,0:0:0:0:
328,200,67379,1,0,0:0:0:0:
360,124,67565,2,0,P|320:116|284:128,1,70,2|2,0:0|0:0,0:0:0:0:
212,96,67938,2,0,P|216:57|208:24,1,70,8|0,0:0|0:0,0:0:0:0:
132,64,68310,6,0,P|123:137|124:220,1,140,6|8,0:0|0:0,0:0:0:0:
160,280,68869,2,0,P|197:283|248:280,1,70,0|2,0:0|0:0,0:0:0:0:
292,224,69242,1,2,0:0:0:0:
352,284,69428,1,8,0:0:0:0:
412,224,69615,1,0,0:0:0:0:
352,284,69801,6,0,P|332:216|376:144,1,140,6|8,0:0|0:0,0:0:0:0:
436,8,70546,2,0,L|356:48,1,70,2|2,0:0|0:0,0:0:0:0:
300,80,70919,2,0,P|260:86|212:68,1,70,8|0,0:0|0:0,0:0:0:0:
168,28,71292,2,0,P|178:97|172:184,1,140,2|8,0:0|0:0,0:0:0:0:
172,252,71851,2,0,P|206:264|264:276,1,70,0|2,0:0|0:0,0:0:0:0:
292,340,72223,1,2,0:0:0:0:
364,296,72410,1,8,0:0:0:0:
321,225,72596,1,0,0:0:0:0:
364,296,72782,6,0,P|400:244|376:160,1,140,6|8,0:0|0:0,0:0:0:0:
220,192,73528,2,0,L|312:220,1,70,2|2,0:0|0:0,0:0:0:0:
372,200,73900,1,8,0:0:0:0:
312,136,74087,2,0,L|172:92,1,140,4|2,0:0|0:0,0:0:0:0:
96,68,74646,1,8,0:0:0:0:
52,136,74832,2,0,P|51:204|68:284,1,140,4|2,0:0|0:0,0:0:0:0:
132,328,75391,1,8,0:0:0:0:
200,280,75577,1,0,0:0:0:0:
268,332,75764,6,0,P|302:335|344:332,1,70,6|0,0:0|0:0,0:0:0:0:
404,284,76136,1,8,0:0:0:0:
464,228,76323,2,0,P|400:200|340:232,1,140,2|2,0:0|0:0,0:0:0:0:
260,252,76882,1,8,0:0:0:0:
256,168,77068,2,0,P|280:137|296:104,1,70,0|2,0:0|0:0,0:0:0:0:
240,36,77441,6,0,P|215:66|204:96,1,59.5000011348725,2|8,0:0|0:0,0:0:0:0:
256,168,77813,1,0,1:0:0:0:
256,168,77907,1,0,1:0:0:0:
256,168,78000,2,0,P|192:180|136:152,1,119.000002269745,8|2,0:0|0:0,0:0:0:0:
76,108,78559,1,2,0:0:0:0:
40,184,78745,6,0,P|38:240|48:304,1,119.000002269745,4|8,0:0|0:0,0:0:0:0:
212,340,79490,2,0,P|246:344|292:328,1,59.5000011348725
296,260,79863,2,0,P|261:255|216:272,1,59.5000011348725
156,276,80236,2,0,P|148:220|148:152,1,119.000002269745,4|8,0:0|0:0,0:0:0:0:
184,44,80981,2,0,L|248:44,1,59.5000011348725
320,120,81354,2,0,L|260:120,1,59.5000011348725
180,120,81726,6,0,P|188:160|260:200,1,119.000002269745,4|8,0:0|0:0,0:0:0:0:
388,220,82472,2,0,P|390:262|384:304,1,70,2|2,0:0|0:0,0:0:0:0:
324,344,82844,1,8,0:0:0:0:
268,280,83031,2,0,P|274:211|264:140,1,140,2|2,0:0|0:0,0:0:0:0:
200,88,83590,1,8,0:0:0:0:
136,144,83776,2,0,L|148:216,1,70,0|8,0:0|0:0,0:0:0:0:
156,296,84149,2,0,L|108:304,5,35,2|2|2|2|2|2,0:0|0:0|0:0|0:0|0:0|0:0,0:0:0:0:
121,301,84708,6,0,P|64:260|64:172,1,140,4|2,0:0|0:0,0:0:0:0:
88,120,85267,1,2,0:0:0:0:
168,96,85453,2,0,P|240:116|320:88,1,140,8|2,0:0|0:0,0:0:0:0:
340,24,86012,1,2,0:0:0:0:
236,24,86198,6,0,L|232:164,1,140,12|0,0:0|0:0,0:0:0:0:
228,300,86944,2,0,L|284:316,1,52.5000020027161,2|2,0:0|0:0,0:0:0:0:
332,312,87316,2,0,L|332:236,1,52.5000020027161,8|4,0:0|0:0,0:0:0:0:
256,192,87689,12,0,89180,0:0:0:0:
