osu file format v14

[General]
AudioFilename: COLORFUL BOX.mp3
AudioLeadIn: 800
PreviewTime: 54894
Countdown: 0
SampleSet: Soft
StackLeniency: 0.8
Mode: 0
LetterboxInBreaks: 0
WidescreenStoryboard: 0

[Editor]
DistanceSpacing: 1
BeatDivisor: 4
GridSize: 4
TimelineZoom: 1

[Metadata]
Title:COLORFUL BOX
TitleUnicode:COLORFUL BOX
Artist:ISHIDA YOKO
ArtistUnicode:石田燿子
Creator:Del05
Version:Easy
Source:SHIROBAKO
Tags:Opening P.A. Works Aoi Miyamori Ema Yasuhara Shizuka Sakaki Misa Tōdō Midori Imai
BeatmapID:653777
BeatmapSetID:290161

[Difficulty]
HPDrainRate:2
CircleSize:3
OverallDifficulty:2
ApproachRate:3
SliderMultiplier:0.8
SliderTickRate:1

[Events]
//Background and Video events
0,0,"BG.jpg",0,0
Video,0,"op.avi"
//Break Periods
//Storyboard Layer 0 (Background)
//Storyboard Layer 1 (Fail)
//Storyboard Layer 2 (Pass)
//Storyboard Layer 3 (Foreground)
//Storyboard Sound Samples

[TimingPoints]
1230,372.670807453416,4,2,1,100,1,0
1230,-100,4,2,1,40,0,0
16136,-100,4,2,1,30,0,0
54894,-100,4,2,1,50,0,1
77254,-100,4,2,1,50,0,0
78000,-100,4,2,1,30,0,0
89180,-100,4,2,1,10,0,0

[Colours]
Combo1 : 187,103,229
Combo2 : 255,213,128
Combo3 : 242,121,97
Combo4 : 255,140,179

[HitObjects]
52,48,1230,5,4,0:0:0:0:
256,292,2720,1,4,0:0:0:0:
460,48,4211,1,4,0:0:0:0:
256,292,5702,5,4,0:0:0:0:
256,132,6447,2,0,P|252:77|248:52,2,80,2|8|6,0:0|0:0|0:0,0:0:0:0:
188,276,7938,2,0,P|256:300|336:264,1,160,4|8,0:0|0:0,0:0:0:0:
480,208,9428,6,0,P|456:160|392:124,1,120,0|4,0:0|0:0,0:0:0:0:
280,120,10546,2,0,P|240:124|188:116,1,80,8|8,0:0|0:0,0:0:0:0:
88,84,11478,2,0,L|52:212,1,120,4|8,0:0|0:0,0:0:0:0:
12,268,12410,2,0,P|84:274|128:236,1,120,8|4,0:0|0:0,0:0:0:0:
212,172,13528,6,0,P|248:168|300:176,1,80,8|8,0:0|0:0,0:0:0:0:
388,244,14459,2,0,P|410:186|393:119,1,120,6|8,0:0|0:0,0:0:0:0:
363,59,15391,2,0,L|283:55,1,80,0|8,0:0|0:0,0:0:0:0:
236,120,16136,6,0,L|232:212,1,80,6|8,0:0|0:0,0:0:0:0:
261,275,16882,2,0,P|240:316|194:335,1,80,2|8,0:0|0:0,0:0:0:0:
183,257,17627,2,0,L|91:233,1,80,2|8,0:0|0:0,0:0:0:0:
36,276,18372,2,0,P|32:200|104:156,1,160,2|2,0:0|0:0,0:0:0:0:
176,144,19490,5,8,0:0:0:0:
124,80,19863,2,0,P|172:62|216:73,1,80,2|8,0:0|0:0,0:0:0:0:
260,120,20608,2,0,P|260:164|236:208,1,80,2|8,0:0|0:0,0:0:0:0:
212,268,21354,2,0,P|173:278|133:282,2,80,2|8|6,0:0|0:0|0:0,0:0:0:0:
288,240,22472,1,8,0:0:0:0:
356,200,22844,6,0,L|360:112,1,80,2|8,0:0|0:0,0:0:0:0:
440,104,23590,2,0,L|436:188,1,80,2|8,0:0|0:0,0:0:0:0:
412,260,24335,2,0,P|328:240|254:258,1,160,2|2,0:0|0:0,0:0:0:0:
180,240,25453,6,0,L|144:152,1,80,8|2,0:0|0:0,0:0:0:0:
248,100,26385,2,0,L|212:12,2,80,4|4|4,0:0|0:0|0:0,0:0:0:0:
448,100,28062,6,0,L|478:174,1,80,4|8,0:0|0:0,0:0:0:0:
416,224,28807,2,0,P|364:196|328:196,1,80,2|8,0:0|0:0,0:0:0:0:
264,192,29552,2,0,P|224:199|192:221,1,80,2|8,0:0|0:0,0:0:0:0:
256,272,30298,2,0,P|185:302|116:251,1,160,2|0,0:0|0:0,0:0:0:0:
92,184,31415,1,8,0:0:0:0:
100,104,31789,6,0,P|137:74|176:68,1,80,2|8,0:0|0:0,0:0:0:0:
168,148,32534,2,0,P|207:153|252:144,1,80,2|8,0:0|0:0,0:0:0:0:
312,100,33279,2,0,P|301:61|296:16,2,80,2|8|6,0:0|0:0|0:0,0:0:0:0:
344,172,34397,5,8,0:0:0:0:
400,232,34770,2,0,P|364:252|312:248,1,80,2|8,0:0|0:0,0:0:0:0:
252,288,35515,1,2,0:0:0:0:
200,228,35888,2,0,P|221:136|279:118,1,160,8|8,0:0|0:0,0:0:0:0:
352,96,37006,6,0,L|388:12,1,80,4|8,0:0|0:0,0:0:0:0:
464,32,37751,2,0,L|416:145,1,120,4|8,0:0|0:0,0:0:0:0:
364,252,38869,1,0,0:0:0:0:
316,188,39242,2,0,B|276:220|287:270|287:270|252:328,1,160,2|6,0:0|0:0,0:0:0:0:
176,352,40360,5,8,0:0:0:0:
116,300,40733,2,0,P|137:224|113:149,1,160
68,84,41851,1,8,0:0:0:0:
144,60,42223,2,0,P|219:81|294:57,1,160
372,32,43341,5,8,0:0:0:0:
420,96,43714,2,0,P|420:136|412:184,1,80
368,240,44459,2,0,P|284:260|212:240,1,160
156,188,45577,2,0,P|156:144|152:96,1,80,0|4,0:0|0:0,0:0:0:0:
92,56,46323,5,8,0:0:0:0:
32,108,46695,2,0,P|32:188|36:280,1,160
100,316,47813,1,8,0:0:0:0:
168,272,48186,2,0,B|196:312|168:364,2,80,0|0|4,0:0|0:0|0:0,0:0:0:0:
124,204,49304,5,8,0:0:0:0:
168,136,49677,2,0,P|108:124|60:152,2,120,8|0|8,0:0|0:0|0:0,0:0:0:0:
244,164,51167,2,0,L|288:76,1,80,8|8,0:0|0:0,0:0:0:0:
352,132,51913,6,0,L|312:212,1,80,12|8,0:0|0:0,0:0:0:0:
248,244,52658,2,0,P|299:281|363:268,1,120,8|4,0:0|0:0,0:0:0:0:
136,80,54894,6,0,L|144:164,1,80,4|8,0:0|0:0,0:0:0:0:
200,216,55639,2,0,P|148:240|116:236,2,80,2|8|2,0:0|0:0|0:0,0:0:0:0:
260,160,56757,1,8,0:0:0:0:
320,108,57130,2,0,P|360:100|400:108,1,80,2|8,0:0|0:0,0:0:0:0:
452,168,57875,5,4,0:0:0:0:
400,228,58248,2,0,P|360:235|321:227,1,80,8|2,0:0|0:0,0:0:0:0:
244,204,58993,2,0,L|212:292,2,80,8|0|8,0:0|0:0|0:0,0:0:0:0:
272,128,60111,1,2,0:0:0:0:
332,76,60484,2,0,P|296:52|244:56,1,80,8|6,0:0|0:0,0:0:0:0:
184,72,61229,5,8,0:0:0:0:
108,52,61603,2,0,P|68:54|36:77,2,80,2|8|2,0:0|0:0|0:0,0:0:0:0:
96,129,62720,1,8,0:0:0:0:
40,189,63093,2,0,P|115:209|174:149,1,160,2|6,0:0|0:0,0:0:0:0:
212,88,64211,5,8,0:0:0:0:
260,152,64584,2,0,P|252:188|203:260,2,120,2|8|0,0:0|0:0|0:0,0:0:0:0:
308,88,66074,2,0,P|364:84|400:92,2,80,8|2|4,0:0|0:0|0:0,0:0:0:0:
228,88,67192,6,0,L|216:0,1,80,8|2,0:0|0:0,0:0:0:0:
140,32,67938,2,0,L|150:112,1,80,8|2,0:0|0:0,0:0:0:0:
168,188,68683,1,8,0:0:0:0:
228,240,69056,2,0,P|192:264|144:264,2,80,2|8|6,0:0|0:0|0:0,0:0:0:0:
280,180,70174,5,8,0:0:0:0:
332,240,70546,2,0,L|332:324,1,80,2|8,0:0|0:0,0:0:0:0:
412,336,71292,2,0,L|412:248,1,80,2|8,0:0|0:0,0:0:0:0:
408,176,72037,1,2,0:0:0:0:
368,108,72410,2,0,P|407:97|455:115,2,80,8|6|8,0:0|0:0|0:0,0:0:0:0:
288,108,73528,6,0,P|236:84|176:97,2,120,2|4|8,0:0|0:0|0:0,0:0:0:0:
348,160,75018,2,0,P|347:203|344:252,1,80,2|8,0:0|0:0,0:0:0:0:
344,320,75764,2,0,P|416:320|488:368,2,160,6|2|2,0:0|0:0|0:0,0:0:0:0:
268,340,77627,1,8,0:0:0:0:
192,368,78000,6,0,P|113:365|48:320,1,160,0|4,0:0|0:0,0:0:0:0:
20,244,79118,1,8,0:0:0:0:
48,168,79490,2,0,P|126:170|191:215,1,160
256,264,80608,1,8,0:0:0:0:
280,188,80981,6,0,L|292:108,1,80
228,60,81726,2,0,P|312:32|368:84,1,160,4|0,0:0|0:0,0:0:0:0:
416,132,82844,2,0,P|414:171|420:216,1,80,8|0,0:0|0:0,0:0:0:0:
444,288,83590,5,8,0:0:0:0:
364,276,83962,2,0,P|288:248|204:280,1,160,0|4,0:0|0:0,0:0:0:0:
136,280,85080,2,0,L|112:192,1,80,8|2,0:0|0:0,0:0:0:0:
220,84,86198,2,0,L|241:161,1,80,4|0,0:0|0:0,0:0:0:0:
263,238,86944,2,0,P|297:241|348:236,1,80,0|8,0:0|0:0,0:0:0:0:
256,192,87689,12,0,89180,0:0:0:0:
