osu file format v7

[General]
AudioFilename: Kusomiso.mp3
AudioLeadIn: 0
PreviewTime: 51050
Countdown: 0
SampleSet: Normal
StackLeniency: 0.7
Mode: 0
LetterboxInBreaks: 0

[Editor]
Bookmarks: 9933,22790,44218,50004,64576,84933,108933
DistanceSpacing: 0.899999976158142
BeatDivisor: 4
GridSize: 8

[Metadata]
Title:Yaranaika
Artist:ISAJI
Creator:S i R i R u
Version:Normal
Source:Kuso Miso Technique
Tags:Doujin kuso miso abe

[Difficulty]
HPDrainRate:3
CircleSize:3
OverallDifficulty:5
SliderMultiplier:1
SliderTickRate:1

[Events]
//Background and Video events
0,0,"BG.jpg"
//Break Periods
2,10561,22447
2,37990,43232
2,79132,84161
2,99275,108161
//Storyboard Layer 0 (Background)
//Storyboard Layer 1 (Fail)
//Storyboard Layer 2 (Pass)
//Storyboard Layer 3 (Foreground)
//Storyboard Sound Samples
//Background Colour Transformations
3,100,255,255,255

[TimingPoints]
1790,428.571428571429,4,2,1,79,1,0
10361,-100,4,2,0,79,0,0
23218,-100,4,2,1,79,0,0
51504,-100,4,1,0,79,0,1
61790,-100,4,1,0,79,0,0
65218,-100,4,1,0,79,0,1
75504,-100,4,1,0,79,0,0
85147,-100,4,2,1,79,0,0
109361,-100,4,1,0,60,0,0
113218,-100,4,1,0,80,0,1
123504,-100,4,1,0,80,0,0
126933,-100,4,1,0,80,0,1
137218,-100,4,1,0,80,0,0

[Colours]
Combo1 : 240,80,80
Combo2 : 64,64,64
Combo3 : 124,29,141
Combo4 : 0,64,0

[HitObjects]
256,88,3075,1,8
192,160,3504,1,4
192,264,3932,1,8
104,320,4361,2,0,B|32:320,2,50,0|0|8
192,264,5218,5,0
296,264,5647,1,8
400,264,6075,1,0
400,264,6289,1,0
400,264,6504,1,8
352,176,6932,6,0,B|352:64,1,100,4|0
256,72,7789,2,0,B|256:192,1,100,4|0
256,272,8647,2,0,B|256:344,4,50,2|0|2|0|2
256,272,9932,1,8
256,176,10361,1,4
256,192,23647,5,8
152,192,24075,2,0,B|152:248|208:288,1,100,4|8
256,192,24932,1,0
360,192,25361,2,0,B|480:192,2,100,8|0|8
352,88,26647,2,0,B|328:40|256:48,1,100,0|8
168,64,27504,5,0
128,88,27718,1,0
88,120,27932,1,8
168,176,28361,1,0
208,208,28575,1,0
248,240,28790,1,8
256,192,29218,12,0,30075
256,192,30504,5,8
256,192,30932,1,4
352,192,31361,2,0,B|400:192|400:240|464:232,1,100,8|0
440,136,32218,2,0,B|440:64,2,50,8|0|0
344,136,33075,1,8
248,136,33504,1,0
112,192,33932,6,0,B|112:248|184:264,1,100,8|0
264,264,34790,1,8
264,264,35004,1,0
264,264,35218,1,0
264,160,35647,2,0,B|384:160,1,100,8|2
392,200,36290,5,0
416,240,36504,1,2
432,288,36718,1,0
440,336,36932,1,2
344,336,37361,1,0
248,336,37790,1,4
256,144,44432,5,0
256,144,44647,1,8
168,192,45075,1,0
168,240,45289,1,0
168,288,45504,1,0
264,264,45932,5,2
360,264,46361,2,0,B|424:264|448:320,2,100,0|2|0
264,264,47647,1,2
256,128,48075,6,0,B|256:72,2,50,4|0|0
184,192,48932,2,0,B|128:192,2,50,4|0|0
184,296,49789,1,4
96,248,50218,1,4
96,144,50647,1,4
96,144,51075,1,0
208,80,51504,5,4
304,80,51932,1,8
352,168,52361,2,0,B|392:200,2,50,0|0|8
304,168,53004,1,0
256,168,53218,6,0,B|136:168,2,100,0|8|0
296,264,54504,1,8
216,328,54932,1,0
120,328,55361,1,8
168,240,55789,2,0,B|168:136,1,100,0|8
256,88,56647,2,0,B|304:48,4,50,0|0|8|8|8
256,192,57932,6,0,B|256:264,1,50,8|0
256,288,58361,1,4
352,320,58789,1,8
416,240,59218,2,0,B|464:296,2,50,0|0|8
416,136,60075,2,0,B|416:80,2,50,0|0|8
312,136,60932,6,0,B|216:136|224:216|128:208,1,200,0|4
136,112,62218,1,8
56,168,62647,1,0
56,272,63075,1,8
152,272,63504,2,0,B|256:272,2,100,4|0|4
152,168,64789,6,0,B|152:104,2,50,8|0|4
256,168,65647,2,0,B|328:176|328:248,1,100,8|0
328,280,66289,1,0
328,328,66504,1,8
424,296,66932,5,0
424,208,67361,1,8
352,136,67789,1,0
304,120,68004,1,0
256,120,68218,1,8
152,120,68647,1,4
112,216,69075,6,0,B|48:216|32:280,2,100,8|0|8
184,288,70361,2,0,B|304:288,1,100
384,288,71218,1,0
352,192,71647,2,0,B|392:136,2,50,8|0|4
248,192,72504,5,8
168,248,72932,2,0,B|96:248|88:176,1,100,0|8
168,128,73789,2,0,B|168:64,2,50,0|0|8
272,128,74647,2,0,B|360:112|352:224|456:200,1,200,0|4
448,104,75932,2,0,B|448:32,2,50,8|0|0
448,104,76789,1,8
352,104,77218,5,0
304,104,77432,1,0
256,104,77647,2,8,B|200:104,2,50
256,208,78504,1,0
256,312,78932,1,4
200,120,85361,6,0,B|200:184,1,50,8|0
200,224,85789,1,4
312,264,86218,6,0,B|312:200,1,50,8|0
312,160,86647,1,0
256,72,87075,1,8
256,72,87504,1,0
256,72,87718,1,0
256,72,87932,1,8
168,120,88361,6,0,B|104:120|80:192,1,100,0|8
168,232,89218,2,0,B|168:336,2,100,4|8|0
272,232,90504,1,8
256,192,90932,12,0,91790
256,192,92218,5,8
256,192,92647,1,4
208,280,93075,2,0,B|264:312|320:272,2,100,8|0|8
256,192,94361,1,0
208,104,94789,1,8
304,104,95218,1,0
408,104,95647,6,0,B|408:216,1,100,8|0
408,304,96504,2,0,B|336:304|320:232,1,100,8|0
408,204,97361,1,8
256,192,97789,12,4,99075
256,192,109361,5,8
152,192,109789,2,0,B|88:192,2,50,4|0|0
256,192,110647,1,4
360,192,111075,2,0,B|416:192,2,50,0|0|4
256,192,111932,1,4
256,288,112361,1,4
256,288,112789,1,8
256,192,113218,5,4
176,256,113647,1,8
72,256,114075,2,0,B|72:320,2,50,0|0|8
72,208,114718,1,0
72,160,114932,6,0,B|72:48,2,100,0|8|0
168,160,116218,1,8
240,88,116647,1,4
344,88,117075,1,8
296,176,117504,6,0,B|296:288,2,100,0|8|0
208,224,118789,1,8
168,248,119004,1,8
128,272,119218,1,8
96,176,119647,5,8
136,88,120075,1,4
232,88,120504,1,8
192,176,120932,1,0
192,176,121147,1,0
192,176,121361,2,0,B|192:240,2,50,8|0|0
296,176,122218,6,0,B|360:184|368:248,1,100,8|0
296,312,123075,1,8
200,312,123504,2,0,B|96:312,2,100,4|8|0
200,208,124789,2,0,B|200:96,1,100,8|4
296,112,125647,1,4
360,192,126075,1,4
264,200,126504,6,0,B|264:264,1,50,8|0
264,304,126932,1,4
168,304,127361,2,0,B|104:304|88:240,1,100,8|0
88,200,128004,2,0,B|88:144,1,50,0|8
88,96,128432,2,0,B|88:40,1,50
184,80,129075,5,8
256,152,129504,2,0,B|368:152,1,100,0|8
432,216,130361,1,4
256,312,131218,5,0
256,112,132075,2,0,B|256:48,2,50,0|0|8
256,160,132718,1,8
256,208,132932,1,8
256,304,133361,1,8
256,304,133575,1,0
256,304,133789,1,4
344,256,134218,6,0,B|400:256|448:288,2,100,8|0|8
256,304,135504,1,0
256,304,135932,1,8
168,256,136361,2,0,B|112:256|64:224,2,100,0|8|4
256,80,138075,5,0
256,80,138504,1,8
256,184,138932,1,0
256,232,139147,1,0
256,280,139361,2,8,B|256:352,2,50
256,280,140218,1,8
256,280,140647,1,4
