osu file format v7

[General]
AudioFilename: Kusomiso.mp3
AudioLeadIn: 0
PreviewTime: 51050
Countdown: 0
SampleSet: Normal
StackLeniency: 0.7
Mode: 0
LetterboxInBreaks: 0

[Editor]
Bookmarks: 22790,44218,50004,64576,84933,108933,126504
DistanceSpacing: 1.29999995231628
BeatDivisor: 4
GridSize: 8

[Metadata]
Title:Yaranaika
Artist:ISAJI
Creator:S i R i R u
Version:Hard
Source:Kuso Miso Technique
Tags:Doujin kuso miso abe

[Difficulty]
HPDrainRate:5
CircleSize:4
OverallDifficulty:8
SliderMultiplier:1.4
SliderTickRate:1

[Events]
//Background and Video events
0,0,"BG.jpg"
//Break Periods
2,17418,22897
2,37561,43897
2,79132,84611
2,99275,109039
//Storyboard Layer 0 (Background)
//Storyboard Layer 1 (Fail)
//Storyboard Layer 2 (Pass)
//Storyboard Layer 3 (Foreground)
//Storyboard Sound Samples
//Background Colour Transformations
3,100,255,255,255

[TimingPoints]
1790,428.571428571429,4,2,1,79,1,0
10361,-100,4,2,0,79,0,0
23218,-100,4,2,1,79,0,0
51504,-100,4,1,0,79,0,1
61790,-100,4,1,0,79,0,0
65218,-100,4,1,0,79,0,1
75504,-100,4,1,0,79,0,0
85147,-100,4,2,1,79,0,0
109361,-100,4,1,0,60,0,0
113218,-100,4,1,0,80,0,1
123504,-100,4,1,0,80,0,0
126933,-100,4,1,0,80,0,1
137218,-100,4,1,0,80,0,0

[Colours]
Combo1 : 240,80,80
Combo2 : 64,64,64
Combo3 : 124,29,141
Combo4 : 0,64,0

[HitObjects]
256,88,3075,1,8
256,176,3290,1,0
256,176,3397,1,0
256,176,3504,2,0,B|256:280,1,70,4|0
256,336,3932,1,8
360,336,4361,6,0,B|440:336,1,70
400,248,4790,2,0,B|472:248,2,70,8|0|0
400,160,5432,1,0
400,72,5647,2,0,B|379:31|296:24|280:80,1,140,8|0
224,144,6289,1,0
136,144,6504,6,0,B|32:144,2,70,8|0|8
104,232,7147,2,2,B|104:296,2,35
192,264,7575,2,2,B|192:304,2,35
280,296,8004,2,2,B|280:336,4,35
368,264,8647,5,8
368,136,8861,1,0
256,56,9075,1,8
144,136,9289,1,0
144,264,9504,1,8
256,192,9932,5,8
256,280,10147,1,0
328,336,10361,2,0,B|384:336|424:296|408:232,1,140,4|8
336,192,11004,1,0
408,136,11218,2,0,B|408:64,2,70,0|0|8
336,192,11861,5,0
248,192,12075,2,0,B|248:272,2,70,0|0|8
336,192,12718,1,0
288,112,12932,2,0,B|272:64|192:56|176:120,1,140,0|8
88,112,13575,1,0
88,200,13789,2,0,B|104:248|184:256|200:192,1,140,0|8
256,136,14432,1,8
312,64,14647,2,0,B|424:64,1,105,0|0
464,64,15075,1,8
464,152,15289,1,8
416,240,15504,6,2,B|416:288|360:296,1,70
256,296,15932,1,8
128,296,16147,2,2,B|88:280|88:224,1,70
256,56,16789,5,8
256,56,17218,1,4
256,104,23647,5,8
256,104,23861,2,0,B|256:184,1,70,0|4
256,264,24290,1,0
344,296,24504,2,0,B|344:192,1,70
432,232,24932,1,0
432,232,25147,2,2,B|432:312,2,70,0|8|0
432,144,25790,5,0
256,88,26218,1,8
80,144,26647,1,0
256,336,27075,5,8
256,336,27290,1,0
256,336,27504,2,0,B|256:184,1,140,4|8
176,152,28147,2,0,B|128:152,2,35,0|0|0
256,104,28575,1,0
336,152,28790,2,2,B|376:152,2,35,8|0|0
176,240,29218,6,0,B|168:368|360:368|336:224,1,280,2|0
256,200,30290,1,0
208,120,30504,6,0,B|120:120,1,70,8|0
120,208,30932,2,2,B|24:208,2,70,4|2|8
176,280,31575,1,0
264,280,31790,2,2,B|344:280,2,70,0|2|10
224,200,32432,1,0
272,120,32647,1,0
88,120,33075,2,0,B|88:272,1,140,8|0
160,320,33718,5,0
232,264,33932,1,8
416,264,34361,1,0
328,264,34575,1,0
416,264,34790,1,8
232,264,35218,5,0
232,176,35432,1,0
320,184,35647,1,8
368,184,35754,1,0
416,184,35861,1,0
408,104,36075,6,2,B|408:64|352:48,1,70
104,104,36504,2,2,B|104:64|160:48,1,70
256,192,36932,5,8
256,192,37147,2,2,B|256:232,2,35
80,80,44647,5,4
432,80,45075,1,2
256,320,45504,5,0
256,320,45718,1,0
256,320,45932,2,0,B|256:176,1,140,2|0
256,64,46789,1,2
48,192,47218,5,0
464,192,47647,1,8
400,344,48075,5,4
336,280,48289,1,0
256,320,48504,1,8
176,280,48718,1,0
112,344,48932,1,8
144,192,49147,5,0
256,192,49361,1,8
368,192,49575,1,8
256,192,49789,1,8
256,32,50218,5,8
256,32,50647,2,0,B|256:80,2,35
96,48,51075,6,0,B|48:64|40:144|104:160,1,140,2|4
184,160,51718,1,0
272,160,51932,2,0,B|321:184|320:264|259:276,1,140,8|0
224,272,52468,1,0
176,272,52575,1,0
128,272,52682,1,0
80,272,52789,1,8
104,184,53004,5,8
48,112,53218,2,0,B|72:72|152:72|176:128,2,140,0|8|0
104,184,54289,1,0
136,216,54397,1,0
168,248,54504,1,8
232,312,54718,1,0
320,288,54932,6,0,B|400:288,1,70,4|0
368,200,55361,2,0,B|440:200,2,70,8|0|0
280,200,56004,2,0,B|200:200,2,70,0|8|0
424,160,56647,5,0
328,56,56861,1,0
184,56,57075,1,8
88,160,57289,1,8
256,192,57504,5,8
256,192,57611,1,0
256,192,57718,1,0
256,280,57932,2,0,B|288:328|376:312|384:264,1,140,0|4
472,280,58575,1,0
424,208,58789,2,0,B|424:64,1,140,8|0
336,104,59432,5,0
296,120,59539,1,0
272,160,59647,1,8
272,248,59861,1,8
200,192,60075,2,0,B|152:208|144:296|216:312,1,140,0|8
288,304,60718,5,0
288,304,60825,1,0
288,304,60932,1,0
288,216,61147,2,0,B|304:168|387:169|405:227,1,140,0|8
440,296,61789,6,0,B|360:296,2,70,4|0|8
400,216,62432,2,0,B|480:216,1,70,0|0
440,128,62861,2,0,B|350:128,1,70,0|8
400,216,63289,1,0
384,328,63504,5,4
256,192,63932,1,0
136,328,64361,1,8
192,112,64789,5,8
256,48,65004,1,0
320,112,65218,1,4
256,280,65647,1,8
256,280,65861,1,0
256,192,66075,5,0
304,192,66182,1,0
344,208,66289,1,0
376,240,66397,1,0
384,288,66504,1,0
384,288,66718,1,0
184,328,66932,6,0,B|128:320|128:232|192:224,1,140,0|8
256,280,67575,1,0
184,328,67789,1,0
80,240,68111,1,0
80,192,68218,1,8
168,208,68432,2,0,B|168:136,2,70
80,56,69075,5,8
432,56,69504,1,0
256,344,69932,1,8
72,304,70361,5,0
144,224,70575,1,0
256,192,70789,1,8
368,224,71004,1,0
440,304,71218,1,8
256,344,71647,6,0,B|256:304,2,35,0|0|0
168,344,72075,2,0,B|104:352|56:280|88:232,1,140,4|8
168,256,72718,1,0
168,168,72932,1,0
248,208,73147,2,0,B|312:208|344:160|336:112,1,140,0|0
248,120,73789,5,0
424,88,74218,1,8
424,272,74647,1,0
384,256,74754,1,0
344,272,74861,1,0
304,256,74968,1,0
264,272,75075,1,8
176,272,75289,1,8
176,184,75504,1,4
96,136,75718,5,0
96,136,75932,1,8
96,224,76147,1,0
176,272,76361,2,0,B|176:352,1,70,0|0
264,312,76789,2,0,B|344:312,2,70,8|0|0
296,224,77432,2,0,B|296:144,2,70,0|8|8
208,224,78075,1,0
128,64,78504,1,8
128,64,78932,1,4
376,128,85361,6,0,B|408:184|392:256|368:280,1,140,8|4
136,264,86218,2,0,B|104:208|120:136|144:112,1,140,8|2
256,56,87075,5,8
256,56,87504,1,0
256,192,87718,1,0
256,328,87932,1,8
256,328,88361,1,0
416,192,88789,5,8
368,112,89004,1,0
320,192,89218,2,0,B|296:248|216:240|208:184,1,140,4|8
208,104,89861,1,0
120,104,90075,2,2,B|56:128|72:216|144:216,1,140,0|8
256,192,90932,12,2,91789
256,160,92218,5,8
256,248,92432,1,0
256,248,92647,2,0,L|256:344,1,70,4|0
344,344,93075,2,2,L|344:192,1,140,8|0
432,208,93718,1,0
400,120,93932,6,0,B|392:72|288:64|288:136,1,140,8|0
232,184,94575,1,0
168,248,94789,2,2,B|96:248,2,70,8|0|0
384,312,95647,6,2,B|432:296|432:248,1,70,8|0
432,112,96075,2,2,B|416:64|368:64,1,70
128,64,96504,6,8,B|80:80|80:136,1,70
80,264,96932,2,2,B|96:312|144:312,1,70
256,192,97361,5,8
176,344,97789,5,2
336,344,98004,1,2
216,272,98218,1,2
296,272,98432,1,2
256,192,98647,1,8
256,192,98754,1,0
256,192,98861,1,0
256,192,98968,1,0
256,192,99075,1,12
88,304,109789,5,8
200,304,110004,1,0
312,304,110218,1,8
416,304,110432,1,8
360,192,110647,5,0
256,192,110861,1,0
152,192,111075,1,8
256,192,111289,1,8
256,192,111504,1,4
256,312,111932,5,4
256,72,112361,1,0
256,72,112468,1,0
256,72,112575,1,0
256,72,112682,1,0
256,72,112789,1,8
256,192,113218,5,4
440,192,113647,1,8
440,192,113861,1,0
408,104,114075,2,0,B|368:104,1,35
328,104,114289,2,0,B|288:104,1,35
248,104,114504,1,8
272,192,114718,1,8
296,280,114932,6,0,B|128:280,1,140,0|8
88,216,115575,1,0
88,128,115789,2,0,B|264:128,1,140,0|8
296,64,116432,1,8
384,64,116647,1,0
256,344,117075,5,8
432,344,117504,1,0
256,344,117932,1,8
256,40,118361,5,8
320,104,118575,1,0
256,192,118789,5,8
256,344,119004,5,8
192,280,119218,1,0
256,192,119647,12,8,120504
256,192,120932,5,0
176,80,121254,1,0
128,80,121361,1,8
40,112,121575,1,0
80,192,121789,5,4
432,192,122218,1,8
256,192,122647,12,4,123504
256,192,123932,6,0,B|256:120,2,70,8|0|0
256,280,124575,1,0
192,344,124789,1,8
128,280,125004,2,0,B|56:280,2,70,0|4|0
192,216,125647,1,8
240,136,125861,1,0
320,96,126075,1,0
368,104,126182,1,0
408,128,126289,1,0
408,248,126504,6,0,B|392:288|304:296|288:240,1,140,8|4
216,296,127147,1,0
136,256,127361,1,8
144,208,127468,1,0
168,176,127575,1,8
208,160,127682,1,0
256,160,127789,2,0,B|304:182|302:265|247:275,1,140,8|8
256,272,128432,6,0,B|256:344,2,70,0|4|0
344,248,129075,1,8
432,216,129289,2,0,B|432:144,2,70,0|0|0
432,264,129825,1,0
432,312,129932,1,8
344,336,130147,1,8
256,192,130361,6,0,B|203:190|154:234|172:307,1,140,4|8
168,280,131004,1,0
112,208,131218,2,0,B|24:208,2,70,0|0|8
224,320,131861,5,0
328,320,132075,1,0
408,256,132289,1,0
424,152,132504,1,8
360,72,132718,1,8
256,56,132932,2,0,B|216:56,2,35
256,144,133361,6,0,B|256:224,1,70,8|0
256,304,133789,1,4
256,304,133897,1,0
256,304,134004,1,0
168,304,134218,2,0,B|112:288|120:200|184:192,1,140,8|0
216,120,134861,1,8
264,120,134968,1,0
296,152,135075,1,8
384,152,135289,6,0,B|472:152,2,70,0|4|0
344,232,135932,1,8
344,232,136147,2,0,B|424:232,2,70,0|0|0
296,232,136682,1,0
248,232,136789,1,8
184,296,137004,2,0,B|104:296,1,70,12|4
152,208,137432,5,0
152,208,137647,1,8
152,208,137861,2,0,B|72:208,2,70
184,296,138504,1,8
184,296,138718,1,0
320,344,138932,5,8
320,256,139147,1,0
256,192,139361,1,8
192,128,139575,1,8
192,40,139789,1,8
256,192,140218,5,8
256,192,140647,1,4
