osu file format v9

[General]
AudioFilename: 01 - Future is Undefined.mp3
AudioLeadIn: 0
PreviewTime: 14802
Countdown: 0
SampleSet: Normal
StackLeniency: 0.7
Mode: 0
LetterboxInBreaks: 1

[Editor]
DistanceSpacing: 1
BeatDivisor: 4
GridSize: 4

[Metadata]
Title:Future is Undefined
Artist:IRON ATTACK!
Creator:Kite
Version:Normal
Source:Touhou
Tags:suraimu suraimu_su_ pheon metal arrange ufo undefined fantastic object seirensen zun

[Difficulty]
HPDrainRate:3
CircleSize:3
OverallDifficulty:4
ApproachRate:5
SliderMultiplier:0.8
SliderTickRate:1

[Events]
//Background and Video events
0,0,"future.jpg"
//Break Periods
2,34192,39992
//Storyboard Layer 0 (Background)
//Storyboard Layer 1 (Fail)
//Storyboard Layer 2 (Pass)
//Storyboard Layer 3 (Foreground)
//Storyboard Sound Samples
//Background Colour Transformations
3,100,163,162,255

[TimingPoints]
392,300,4,1,1,100,1,0
4920,-133.333333333333,4,1,1,100,0,0
14782,-100,4,1,1,100,0,0
15090,-100,4,1,2,100,0,0
15240,-100,4,1,1,100,0,0
17490,-100,4,1,2,100,0,0
17640,-100,4,1,1,100,0,0
19890,-100,4,1,2,100,0,0
20040,-100,4,1,1,100,0,0
21089,-100,4,1,2,100,0,0
21239,-100,4,1,1,100,0,0
24689,-100,4,1,2,100,0,0
24839,-100,4,1,1,100,0,0
27089,-100,4,1,2,100,0,0
27239,-100,4,1,1,100,0,0
29489,-100,4,1,2,100,0,0
29639,-100,4,1,1,100,0,0
43887,-100,4,1,2,100,0,0
45087,-100,4,1,1,100,0,0
45837,-100,4,1,2,100,0,0
47337,-100,4,1,1,100,0,0
51986,-100,4,1,2,100,0,0
52886,-100,4,1,1,100,0,0
53036,-100,4,1,2,100,0,0
53936,-100,4,1,1,100,0,0
54236,-100,4,1,2,100,0,0
55136,-100,4,1,1,100,0,0
56636,-100,4,1,2,100,0,0
57536,-100,4,1,1,100,0,0
60535,-100,4,1,2,100,0,0
61135,-100,4,1,1,100,0,0
72384,-100,4,1,2,100,0,0
73134,-100,4,1,1,100,0,0
73434,-100,4,1,2,100,0,0
74334,-100,4,1,1,100,0,0
74634,-100,4,1,2,100,0,0
75534,-100,4,1,1,100,0,0
75834,-100,4,1,2,100,0,0
76734,-100,4,1,1,100,0,0
80633,-100,4,1,2,100,0,0
81533,-100,4,1,1,100,0,0
83183,-100,4,1,2,100,0,0
83933,-100,4,1,1,100,0,0
85433,-100,4,1,2,100,0,0
86333,-100,4,1,1,100,0,0
90392,-100,4,1,2,100,0,1
90835,-100,4,1,1,100,0,1
92640,-100,4,1,2,100,0,1
93540,-100,4,1,1,100,0,1
95040,-100,4,1,2,100,0,1
95940,-100,4,1,1,100,0,1
99992,-100,4,1,1,100,0,0

[Colours]
Combo1 : 225,90,0
Combo2 : 191,21,21
Combo3 : 231,58,153

[HitObjects]
116,248,5192,6,4,B|91:211|91:171|115:135,3,119.999996423721,4|4|4|0
200,52,7592,2,4,B|236:27|276:27|312:51,3,119.999996423721,4|4|4|0
396,136,9992,2,4,B|420:172|420:212|396:248,3,119.999996423721,4|4|4|0
312,332,12392,2,4,B|275:356|235:356|199:332,3,119.999996423721,4|4|4|0
72,236,14792,6,0,B|140:184|132:92,1,160,4|0
196,44,15692,1,8
212,124,15992,2,0,B|216:168|256:184,1,80,0|8
336,172,16592,2,0,B|332:128|292:112,1,80,0|8
324,40,17192,6,0,B|484:40,1,160
480,120,18092,1,8
476,200,18392,2,0,B|492:244|464:276,1,80,0|8
388,304,18992,2,0,B|372:260|400:228,1,80,0|8
376,152,19592,6,0,B|356:92|300:68|248:88,1,160
224,164,20492,1,8
196,240,20792,2,0,B|176:300|124:320|68:304,1,160
32,232,21692,1,8
76,164,21992,6,0,B|104:88,2,80,0|8|0
144,204,22892,1,8
204,152,23192,2,0,B|272:108,2,80,0|8|0
244,220,24092,1,8
308,268,24392,6,0,B|372:272|432:232|440:152|412:96,1,240,4|8
348,52,25592,2,0,B|304:36|272:64,1,80,0|8
324,128,26192,2,0,B|288:156|244:140,1,80,0|8
192,84,26792,6,0,B|104:76|40:160|72:248,1,240,0|8
128,300,27992,1,0
208,312,28292,1,8
284,284,28592,1,0
324,216,28892,1,8
320,136,29192,6,0,B|296:84|232:68|180:88,1,160
116,136,30092,1,8
84,212,30392,2,0,B|104:288,1,80,0|8
176,252,30992,2,0,B|240:308,1,80,0|8
256,192,31592,12,4,33992
256,192,41192,12,4,42992
308,288,43592,6,0,B|384:244|464:296,2,160,4|0|0
232,316,45092,1,8
152,312,45392,1,0
92,260,45692,1,8
80,180,45992,6,0,B|112:96|48:32,2,160
160,188,47492,1,8
240,188,47792,1,0
308,232,48092,1,8
312,312,48392,6,0,B|388:340,1,80,0|8
388,260,48992,2,0,B|468:252,1,80,0|8
428,180,49592,2,0,B|500:144,1,80,0|8
436,96,50192,2,0,B|492:36,2,80,0|8|0
360,124,51092,5,8
284,148,51392,1,0
204,140,51692,1,8
136,100,51992,2,0,B|44:116|8:212|52:288,1,240,4|8
132,288,53192,6,0,B|212:260|284:308,1,160,4|0
332,244,54092,1,8
268,196,54392,2,0,B|180:193|131:125,1,160
124,44,55292,1,8
204,32,55592,6,0,B|284:24,1,80,0|8
320,96,56192,2,0,B|404:116,1,80,0|8
428,188,56792,2,0,B|476:220|476:296|424:324,1,160,4|0
380,256,57692,1,8
300,272,57992,6,0,B|260:284,3,40,0|0|8|0
224,272,58592,2,0,B|184:276,3,40,0|0|8|0
156,248,59192,2,0,B|116:244,3,40,0|0|8|0
96,208,59792,2,0,B|56:200,3,40,0|0|8|0
40,164,60392,6,0,B|40:104|88:64|152:80,1,160,4|0
216,124,61292,1,8
288,88,61592,2,0,B|368:72,2,80,4|8|8
288,168,62492,1,8
256,192,62792,12,4,65192
180,124,65792,6,4,B|256:80|332:124,2,160,4|4|2
256,192,67592,12,4,69992
331,260,70592,6,4,B|256:304|180:260,2,160,4|4|2
435,134,72392,6,0,B|416:76|360:60|304:74,1,160,4|0
256,140,73292,1,8
207,74,73592,2,0,B|152:60|96:76|76:136,1,160
132,192,74492,1,8
80,256,74792,6,0,B|208:356,1,160,4|0
256,292,75692,1,8
305,354,75992,2,0,B|432:256,1,160
380,192,76892,1,8
256,192,77192,12,4,80192
200,316,80792,6,0,B|148:348|88:336|56:292,1,160,4|0
100,224,81692,1,8
164,176,81992,2,0,B|140:96,1,80,0|8
220,96,82592,2,0,B|248:20,1,80,0|8
316,64,83192,6,0,B|368:32|424:44|456:92,1,160
460,172,84092,1,8
464,252,84392,2,0,B|468:300|428:320,1,80,0|8
348,320,84992,2,0,B|344:272|384:252,1,80,0|8
372,172,85592,6,0,B|348:120|288:104|232:132,1,160
180,188,86492,1,8
184,268,86792,2,0,B|160:304|120:316,1,80,0|8
96,240,87392,2,0,B|100:196|72:164,1,80,0|8
256,192,87992,12,4,89792
304,320,90392,6,0,B|256:256|168:236|84:276,1,240,4|8
48,204,91592,2,0,B|28:128,1,80,0|8
108,128,92192,2,0,B|136:52,1,80,0|8
208,92,92792,6,0,B|260:64|316:68|356:112,1,160
392,184,93692,1,8
364,260,93992,2,0,B|344:300|300:304,1,80,0|8
288,224,94592,2,0,B|260:196|212:192,1,80,0|8
136,208,95192,6,0,B|76:212|40:264|56:324,1,160
136,320,96092,1,8
212,300,96392,2,0,B|268:244,1,80,0|8
324,300,96992,2,0,B|400:280,1,80,0|8
256,192,97592,12,4,99992
