osu file format v9

[General]
AudioFilename: 01 - Future is Undefined.mp3
AudioLeadIn: 0
PreviewTime: 14802
Countdown: 0
SampleSet: Normal
StackLeniency: 0.7
Mode: 0
LetterboxInBreaks: 1

[Editor]
DistanceSpacing: 1
BeatDivisor: 1
GridSize: 4

[Metadata]
Title:Future is Undefined
Artist:IRON ATTACK!
Creator:Kite
Version:Insane
Source:Touhou
Tags:suraimu suraimu_su_ pheon metal arrange ufo undefined fantastic object seirensen zun

[Difficulty]
HPDrainRate:7
CircleSize:4
OverallDifficulty:6
ApproachRate:9
SliderMultiplier:1.6
SliderTickRate:2

[Events]
//Background and Video events
0,0,"future.jpg"
//Break Periods
2,34192,40592
//Storyboard Layer 0 (Background)
//Storyboard Layer 1 (Fail)
//Storyboard Layer 2 (Pass)
//Storyboard Layer 3 (Foreground)
//Storyboard Sound Samples
//Background Colour Transformations
3,100,163,162,255

[TimingPoints]
392,300,4,1,1,80,1,0
4891,-133.333333333333,4,1,1,80,0,0
10441,-133.333333333333,4,2,1,80,0,0
10591,-133.333333333333,4,1,1,80,0,0
11041,-133.333333333333,4,2,1,80,0,0
11191,-133.333333333333,4,1,1,80,0,0
11641,-133.333333333333,4,2,1,80,0,0
11791,-133.333333333333,4,1,1,80,0,0
12841,-133.333333333333,4,2,1,80,0,0
12991,-133.333333333333,4,1,1,80,0,0
13441,-133.333333333333,4,2,1,80,0,0
13591,-133.333333333333,4,1,1,80,0,0
14745,-100,4,1,1,80,0,0
90392,-100,4,1,1,80,0,1
99992,-100,4,1,1,80,0,0

[Colours]
Combo1 : 225,90,0
Combo2 : 191,21,21
Combo3 : 231,58,153

[HitObjects]
112,192,5192,6,4,B|60:236|68:324|152:356|204:316,2,239.999992847443
160,80,6692,1,2
256,156,6992,1,2
352,80,7292,1,2
400,192,7592,6,4,B|452:236|444:324|360:356|308:316,2,239.999992847443
352,80,9092,1,2
256,156,9392,1,2
160,80,9692,1,2
84,172,9992,6,0,B|40:220|56:300|128:316,1,179.999994635582,4|0
168,276,10592,2,0,B|256:244|344:276,1,179.999994635582,4|0
387,315,11192,2,0,B|456:300|472:220|428:172,1,179.999994635582,4|2
372,152,11792,1,2
256,120,12092,1,2
140,152,12392,6,0,B|84:184|76:264|116:312,1,179.999994635582,4|0
256,356,12992,2,0,B|256:176,1,179.999994635582,4|0
372,152,13592,2,0,B|428:184|436:264|396:312,1,179.999994635582,4|8
340,328,14192,1,8
284,304,14342,1,8
224,304,14492,1,8
172,328,14642,1,8
88,320,14792,6,0,B|47:315|27:272,2,80,0|0|8
104,240,15242,1,0
188,176,15392,1,0
188,68,15542,1,0
108,40,15692,6,0,B|92:84|120:120,2,80,8|0|0
188,68,16142,1,0
292,92,16292,1,8
392,60,16442,1,0
400,160,16592,6,0,B|356:228,1,80
112,160,16892,2,0,B|156:228,1,80,8|0
184,304,17192,5,0
328,304,17342,1,0
188,304,17492,1,8
324,304,17642,1,0
256,160,17792,2,0,B|256:240,1,80
152,216,18092,5,8
152,216,18242,1,0
108,104,18392,1,0
108,104,18542,1,0
256,52,18692,5,8
256,52,18842,1,0
404,104,18992,5,0
404,104,19142,1,0
360,216,19292,1,8
360,216,19442,1,0
256,284,19592,6,0,B|248:312|264:340|252:364,1,80
336,332,19892,2,0,B|376:320|400:284,1,80,8|0
176,332,20192,2,0,B|136:320|112:284,1,80
184,224,20492,5,8
328,224,20642,1,0
256,112,20792,1,0
164,68,20942,1,0
256,112,21092,1,8
348,68,21242,1,0
384,152,21392,5,0
384,152,21542,1,0
128,152,21692,1,8
128,152,21842,1,0
96,256,21992,6,0,B|112:304|80:332,2,80,0|0|8
128,152,22442,1,0
256,180,22592,1,0
384,152,22742,1,0
416,256,22892,6,0,B|400:304|432:332,2,80,8|0|0
384,152,23342,1,0
256,72,23492,1,8
128,152,23642,1,0
184,244,23792,5,8
344,320,23942,1,8
168,320,24092,1,8
328,244,24242,1,8
296,144,24392,6,0,B|256:132|216:144,1,80,4|0
216,240,24692,2,0,B|256:252|296:240,1,80,8|0
364,108,24992,2,0,B|340:72|296:72,1,80
148,276,25292,2,0,B|172:312|216:312,1,80,8|0
428,148,25592,2,0,B|444:112|424:68,1,80
84,236,25892,2,0,B|68:272|88:316,1,80,8|0
256,328,26192,5,2
256,152,26342,1,0
256,240,26492,1,8
256,64,26642,1,2
425,70,26792,6,0,B|444:112|428:148,1,80
86,313,27092,2,0,B|68:272|84:236,1,80,8|0
256,192,27392,1,0
256,192,27542,1,0
296,72,27692,6,0,B|340:72|364:108,1,80,8|0
215,311,27992,2,0,B|172:312|148:276,1,80
256,192,28292,1,8
256,192,28442,1,0
336,276,28592,2,0,B|373:254|376:211,1,80,2|0
176,108,28892,2,0,B|138:129|135:172,1,80,8|2
120,312,29192,5,0
24,216,29342,1,0
112,304,29492,1,8
16,208,29642,1,0
156,152,29792,6,0,B|164:196|196:224,1,80
356,152,30092,2,0,B|348:196|316:224,1,80,8|0
392,312,30392,5,0
488,216,30542,1,0
400,304,30692,1,8
496,208,30842,1,0
408,80,30992,6,0,B|384:40|344:36,1,80,2|0
104,80,31292,2,0,B|128:40|168:36,1,80,8|2
188,144,31592,5,0
316,144,31742,1,0
164,224,31892,1,8
348,224,32042,1,0
376,336,32192,6,0,B|332:332|304:296,1,80
136,336,32492,2,0,B|180:332|208:296,1,80,8|0
256,212,32792,5,0
160,140,32942,1,0
256,212,33092,1,8
352,140,33242,1,0
316,36,33392,5,8
196,36,33542,1,8
324,36,33692,1,8
188,36,33842,1,4
256,112,33992,1,8
292,316,41192,5,0
308,272,41342,1,0
320,232,41492,1,8
304,192,41642,1,0
220,68,41792,5,0
204,112,41942,1,0
192,152,42092,1,8
208,192,42242,1,0
158,309,42392,6,0,B|140:276|148:232,1,80,8|0
353,74,42692,2,0,B|372:108|364:152,1,80,8|0
316,252,42992,5,8
312,264,43067,1,0
304,276,43142,1,0
296,284,43217,1,0
284,292,43292,1,8
272,296,43367,1,0
260,296,43442,1,0
248,292,43517,1,0
236,284,43592,6,0,B|208:248|168:248,1,80,4|0
24,280,43892,2,0,B|52:316|92:316,1,80,8|0
88,228,44192,2,0,B|72:172|96:116|88:68,1,160,0|8
164,44,44642,1,0
240,68,44792,1,0
316,88,44942,2,0,B|340:52|384:56,2,80,0|8|0
248,172,45392,2,0,B|224:208|180:204,2,80,0|0|8
184,128,45842,1,0
340,172,45992,6,0,B|384:168|412:196,1,80
464,336,46292,2,0,B|420:340|392:312,1,80,8|0
280,272,46592,1,0
168,320,46742,1,0
172,208,46892,1,8
52,252,47042,2,0,B|8:172|64:100,1,160
144,80,47492,5,8
240,56,47642,1,0
308,124,47792,1,0
212,144,47942,1,0
240,56,48092,1,8
332,36,48242,1,0
412,56,48392,6,0,B|448:76|468:112,1,80
464,256,48692,1,8
464,256,48842,1,0
388,136,48992,6,0,B|399:175|388:215,1,80
283,314,49292,1,8
283,314,49442,1,0
320,180,49592,6,0,B|300:216|264:236,1,80
119,231,49892,1,8
119,231,50042,1,0
244,160,50192,6,0,B|204:171|164:160,1,80
65,53,50492,1,8
65,53,50642,1,0
204,92,50792,6,0,B|164:72|156:24,2,80,0|0|8
256,172,51242,1,0
308,92,51392,2,0,B|348:72|356:24,2,80,0|0|8
256,172,51842,1,0
179,239,51992,2,0,B|236:268|276:268|332:240,1,160,0|8
376,156,52442,1,0
464,216,52592,5,8
468,228,52667,1,0
472,240,52742,1,0
476,252,52817,1,0
480,264,52892,1,8
484,276,52967,1,0
488,288,53042,1,0
492,300,53117,1,0
496,312,53192,6,0,B|476:352|432:352,1,80,4|0
292,336,53492,2,0,B|312:296|356:296,1,80,8|0
392,220,53792,1,0
396,136,53942,1,0
336,72,54092,1,8
256,52,54242,2,0,B|196:36|144:76|144:136,1,160
228,132,54692,5,8
212,216,54842,1,0
148,280,54992,1,0
128,196,55142,1,0
212,216,55292,1,8
296,192,55442,1,0
360,132,55592,6,0,B|404:124|420:84,2,80,0|0|8
256,64,56042,1,0
152,132,56192,2,0,B|108:124|92:84,2,80,0|0|8
256,64,56642,1,0
208,192,56792,2,0,B|168:212|152:264|164:308|192:332,1,160,0|8
256,268,57242,1,0
304,192,57392,2,0,B|344:212|360:264|348:308|320:332,1,160,0|8
364,108,57992,5,2
372,100,58067,1,0
380,92,58142,1,0
300,64,58292,1,8
304,52,58367,1,0
308,40,58442,1,0
212,64,58592,1,2
208,52,58667,1,0
204,40,58742,1,0
148,108,58892,1,8
140,100,58967,1,0
132,92,59042,1,0
152,192,59192,5,2
144,200,59267,1,0
136,208,59342,1,0
216,236,59492,1,8
212,248,59567,1,0
208,260,59642,1,0
304,236,59792,1,2
308,248,59867,1,0
312,260,59942,1,0
368,192,60092,1,8
376,200,60167,1,0
384,208,60242,1,0
256,192,60392,12,4,62492
140,272,62792,5,4
260,320,62942,1,0
256,224,63092,1,8
372,272,63242,1,0
420,160,63392,6,0,B|460:144|476:104,1,80,0|0
364,88,63692,2,0,B|324:104|308:144,1,80,8|0
92,160,63992,2,0,B|52:144|36:104,1,80
148,88,64292,2,0,B|188:104|204:144,1,80,8|0
168,276,64592,5,0
344,276,64742,1,0
192,308,64892,1,8
320,308,65042,1,0
256,192,65192,12,2,67292
176,192,67592,5,4
256,112,67742,1,0
336,192,67892,1,8
256,272,68042,1,0
338,161,68192,5,0
225,109,68342,1,0
173,222,68492,1,8
286,274,68642,1,0
182,253,68792,5,0
194,118,68942,1,0
329,130,69092,1,8
317,265,69242,1,0
308,101,69392,5,0
165,140,69542,1,0
204,282,69692,1,8
346,244,69842,1,0
256,192,69992,12,4,72092
340,340,72392,5,0
352,332,72467,1,0
364,320,72542,1,0
372,304,72617,1,0
372,288,72692,1,8
368,272,72767,1,0
360,260,72842,1,0
348,252,72917,1,0
336,244,72992,2,0,B|316:232|308:216,3,40
312,200,73292,2,0,B|304:184|284:172,3,40,8|0|0|0
268,168,73592,5,0
252,168,73667,1,0
236,172,73742,1,0
224,184,73817,1,0
216,196,73892,1,8
208,208,73967,1,0
196,220,74042,1,0
184,228,74117,1,0
168,236,74192,1,0
152,240,74267,1,0
136,240,74342,1,0
120,236,74417,1,0
108,228,74492,1,8
100,216,74567,1,0
96,200,74642,1,0
100,184,74717,1,0
112,172,74792,6,0,B|128:160|136:140,3,40
128,128,75092,2,0,B|135:108|151:96,3,40,8|0|0|0
168,92,75392,1,0
184,92,75467,1,0
196,100,75542,1,0
208,112,75617,1,0
220,120,75692,1,8
236,124,75767,1,0
252,120,75842,1,0
268,112,75917,1,0
280,100,75992,5,0
292,88,76067,1,0
304,76,76142,1,0
320,68,76217,1,0
336,64,76292,1,8
352,64,76367,1,0
368,68,76442,1,0
384,76,76517,1,0
396,88,76592,1,0
404,100,76667,1,0
408,116,76742,1,0
408,132,76817,1,0
404,148,76892,6,0,B|372:236|428:300,1,160,8|0
352,340,77342,1,0
272,340,77492,1,8
196,316,77642,1,0
124,272,77792,1,0
196,236,77942,1,0
128,192,78092,1,8
56,232,78242,1,0
89,85,78392,5,0
160,44,78542,1,0
240,44,78692,1,8
316,68,78842,1,0
388,112,78992,1,0
316,148,79142,1,0
384,192,79292,1,8
456,152,79442,1,0
256,192,79592,12,4,80492
64,332,80792,5,4
80,256,80942,1,0
140,200,81092,1,8
216,180,81242,1,0
196,256,81392,1,0
140,200,81542,1,0
136,120,81692,1,8
184,56,81842,1,0
264,40,81992,6,0,B|308:36|336:72,1,80
248,344,82292,2,0,B|204:348|176:312,1,80,8|0
408,200,82592,2,0,B|412:244|376:272,1,80,2|0
104,184,82892,2,0,B|100:140|136:112,1,80,8|2
184,176,83192,5,0
244,228,83342,1,0
324,240,83492,1,8
400,220,83642,1,0
460,164,83792,1,0
384,140,83942,1,0
400,220,84092,1,8
380,296,84242,1,0
308,332,84392,6,0,B|268:352|228:332,1,80
204,52,84692,2,0,B|244:32|284:52,1,80,8|0
116,244,84992,2,0,B|96:204|116:164,1,80,2|0
396,140,85292,2,0,B|416:180|396:220,1,80,8|2
324,180,85592,5,0
244,192,85742,1,0
176,236,85892,1,8
132,304,86042,1,0
212,308,86192,1,0
176,236,86342,1,0
168,156,86492,1,8
208,84,86642,1,0
280,48,86792,6,0,B|324:56|348:88,1,80
232,336,87092,2,0,B|188:328|164:296,1,80,8|0
400,216,87392,2,0,B|392:260|360:284,1,80,2|0
112,168,87692,2,0,B|120:124|152:100,1,80,8|2
256,192,87992,12,4,90092
108,328,90392,5,4
48,228,90542,1,0
148,168,90692,1,8
208,264,90842,1,0
256,176,90992,5,0
256,176,91142,1,0
304,264,91292,5,8
364,168,91442,1,0
464,228,91592,1,0
404,328,91742,1,0
256,344,91892,5,8
256,344,92042,1,0
304,264,92192,5,2
208,264,92342,1,0
352,184,92492,1,8
160,184,92642,1,2
256,104,92792,6,0,B|296:92|336:108,1,80
256,280,93092,2,0,B|216:292|176:276,1,80,8|0
256,192,93392,1,0
256,192,93542,1,0
88,148,93692,6,0,B|96:104|132:76,1,80,8|0
424,236,93992,2,0,B|416:280|380:308,1,80
256,192,94292,1,8
256,192,94442,1,0
160,333,94592,6,0,B|124:318|105:277,1,80,2|0
351,50,94892,2,0,B|387:65|406:106,1,80,8|2
328,132,95192,5,0
252,60,95342,1,0
168,168,95492,1,8
72,60,95642,1,0
28,232,95792,1,0
28,232,95942,1,0
184,252,96092,5,8
260,324,96242,1,0
344,216,96392,1,0
440,324,96542,1,0
484,152,96692,1,8
484,152,96842,1,0
328,132,96992,5,2
184,252,97142,1,0
316,120,97292,1,8
195,263,97442,1,2
256,72,97592,6,0,B|220:44|180:52,1,80
256,312,97892,2,0,B|292:340|332:332,1,80,8|0
396,117,98192,2,0,B|404:156|376:191,1,80
116,267,98492,2,0,B|108:228|136:193,1,80,8|0
256,72,98792,5,2
376,192,98942,1,0
256,312,99092,1,8
135,192,99242,1,2
312,136,99392,5,8
200,136,99542,1,10
200,248,99692,1,8
312,248,99842,1,10
256,192,99992,5,4
