osu file format v9

[General]
AudioFilename: 01 - Future is Undefined.mp3
AudioLeadIn: 0
PreviewTime: 14802
Countdown: 0
SampleSet: Normal
StackLeniency: 0.7
Mode: 0
LetterboxInBreaks: 1

[Editor]
DistanceSpacing: 1
BeatDivisor: 4
GridSize: 4

[Metadata]
Title:Future is Undefined
Artist:IRON ATTACK!
Creator:Kite
Version:Easy
Source:Touhou
Tags:suraimu suraimu_su_ pheon metal arrange ufo undefined fantastic object seirensen zun

[Difficulty]
HPDrainRate:1
CircleSize:3
OverallDifficulty:1
ApproachRate:3
SliderMultiplier:0.600000005960464
SliderTickRate:1

[Events]
//Background and Video events
0,0,"future.jpg"
//Break Periods
2,34192,39752
//Storyboard Layer 0 (Background)
//Storyboard Layer 1 (Fail)
//Storyboard Layer 2 (Pass)
//Storyboard Layer 3 (Foreground)
//Storyboard Sound Samples
//Background Colour Transformations
3,100,163,162,255

[TimingPoints]
392,300,4,1,1,100,1,0
4911,-133.333333333333,4,1,1,100,0,0
14790,-100,4,1,1,100,0,0
15089,-100,4,1,2,100,0,0
15239,-100,4,1,1,100,0,0
15689,-100,4,1,2,100,0,0
15839,-100,4,1,1,100,0,0
17489,-100,4,1,2,100,0,0
17639,-100,4,1,1,100,0,0
18089,-100,4,1,2,100,0,0
18239,-100,4,1,1,100,0,0
19889,-100,4,1,2,100,0,0
20039,-100,4,1,1,100,0,0
21088,-100,4,1,2,100,0,0
21238,-100,4,1,1,100,0,0
22288,-100,4,1,2,100,0,0
22438,-100,4,1,1,100,0,0
23488,-100,4,1,2,100,0,0
23638,-100,4,1,1,100,0,0
24688,-100,4,1,2,100,0,0
24838,-100,4,1,1,100,0,0
25288,-100,4,1,2,100,0,0
25438,-100,4,1,1,100,0,0
27088,-100,4,1,2,100,0,0
27238,-100,4,1,1,100,0,0
29488,-100,4,1,2,100,0,0
29638,-100,4,1,1,100,0,0
30687,-100,4,1,2,100,0,0
30837,-100,4,1,1,100,0,0
43886,-100,4,1,2,100,0,0
44036,-100,4,1,1,100,0,0
44486,-100,4,1,2,100,0,0
44636,-100,4,1,1,100,0,0
45086,-100,4,1,1,100,0,0
45836,-100,4,1,2,100,0,0
47111,-100,4,1,1,100,0,0
51985,-100,4,1,2,100,0,0
53560,-100,4,1,1,100,0,0
53935,-100,4,1,1,100,0,0
54235,-100,4,1,2,100,0,0
54910,-100,4,1,1,100,0,0
55810,-100,4,1,2,100,0,0
55960,-100,4,1,1,100,0,0
56635,-100,4,1,2,100,0,0
57310,-100,4,1,1,100,0,0
72458,-100,4,1,2,100,0,0
73133,-100,4,1,1,100,0,0
73658,-100,4,1,2,100,0,0
74333,-100,4,1,1,100,0,0
74858,-100,4,1,2,100,0,0
75533,-100,4,1,1,100,0,0
76058,-100,4,1,2,100,0,0
76733,-100,4,1,1,100,0,0
80632,-100,4,1,2,100,0,0
81907,-100,4,1,1,100,0,0
83182,-100,4,1,2,100,0,0
84307,-100,4,1,1,100,0,0
85432,-100,4,1,2,100,0,0
86707,-100,4,1,1,100,0,0
90392,-100,4,1,2,100,0,1
90840,-100,4,1,1,100,0,1
91815,-100,4,1,2,100,0,1
92040,-100,4,1,1,100,0,1
92640,-100,4,1,2,100,0,1
93915,-100,4,1,1,100,0,1
95040,-100,4,1,2,100,0,1
96240,-100,4,1,1,100,0,1
99992,-100,4,1,1,100,0,0

[Colours]
Combo1 : 225,90,0
Combo2 : 191,21,21
Combo3 : 231,58,153

[HitObjects]
180,320,5192,1,4
256,272,5792,1,4
332,320,6392,1,4
460,192,7592,6,4,B|436:152|452:104,2,89.9999982118607
332,64,9992,5,4
256,112,10592,1,4
180,64,11192,1,4
52,192,12392,6,4,B|76:232|60:280,2,89.9999982118607
256,64,14792,6,0,B|216:84|200:120|216:164,2,120.000001192093,4|0|2
368,104,16592,1,2
380,224,17192,6,0,B|396:268|380:304|340:324,2,120.000001192093,4|0|2
260,232,18992,1,2
144,208,19592,6,0,B|64:120,1,120.000001192093,4|0
156,44,20792,2,0,B|236:132,1,120.000001192093,2|2
356,140,21992,6,0,B|404:192|364:252,1,120.000001192093,4|0
256,296,23192,2,0,B|200:332|144:292,1,120.000001192093,0|8
96,256,24092,1,8
88,196,24392,6,0,B|152:96,2,120.000001192093,4|0|2
200,236,26192,1,2
228,288,26492,1,8
256,340,26792,6,0,B|288:368|332:368|368:340,1,120.000001192093,4|0
332,224,27992,1,2
388,116,28592,1,2
364,60,28892,1,8
308,36,29192,6,0,B|240:40|220:104,1,120.000001192093,4|0
300,196,30392,2,0,B|304:264|240:292,1,120.000001192093,2|2
184,304,31292,1,8
256,192,31592,12,4,33992
256,192,41192,12,4,42992
56,328,43592,6,0,B|124:296|164:232|124:124,1,240.000002384186,4|2
224,60,45392,1,2
344,80,45992,2,0,B|444:148|448:148,2,120.000001192093,0|0|2
292,188,47792,1,2
172,188,48392,6,0,B|108:212|88:272,1,120.000001192093,4|0
196,324,49592,2,0,B|256:324|316:324,1,120.000001192093,2|0
422,269,50792,2,0,B|404:212|340:188,1,120.000001192093,4|0
220,208,51992,2,0,B|128:216|60:168|44:76,1,240.000002384186,0|4
164,52,53792,5,2
256,128,54392,2,0,B|324:140|364:92,1,120.000001192093,0|2
476,136,55592,2,0,B|436:248,1,120.000001192093,4|2
336,316,56792,2,0,B|272:340|220:312,1,120.000001192093,0|2
132,232,57992,6,0,B|76:204,2,60.0000005960464,0|8|0
168,116,59192,2,0,B|160:56,2,60.0000005960464,0|8|0
256,200,60392,2,0,B|244:258,2,60.0000005960464,0|8|0
284,84,61592,2,0,B|360:80|400:112|408:184,1,180.000001788139,4|2
256,192,62792,12,4,65192
364,192,65792,6,0,B|396:248|364:308,2,120.000001192093,4|4|2
256,192,67592,12,4,69992
148,192,70592,6,0,B|116:136|148:76,2,120.000001192093,4|4|2
60,276,72392,6,0,B|80:340|148:348,1,120.000001192093,6|0
256,300,73592,2,0,B|256:180,1,120.000001192093,2|0
316,76,74792,6,0,B|384:52|428:96,1,120.000001192093,2|0
400,212,75992,2,0,B|328:308,1,120.000001192093,2|0
256,192,77192,12,4,79592
392,336,80792,6,0,B|444:296|428:228,2,120.000001192093,4|0|2
272,316,82592,1,2
220,284,82892,1,8
168,252,83192,6,0,B|72:176,2,120.000001192093,0|0|2
256,172,84992,1,2
312,64,85592,6,0,B|256:28|200:64,2,120.000001192093,4|0|2
256,172,87392,1,2
256,192,87992,12,4,89792
64,100,90392,6,0,B|92:220,1,120.000001192093,4|2
204,172,91592,2,0,B|300:248,1,120.000001192093,2|2
356,256,92492,1,8
412,232,92792,6,0,B|468:200|456:128,2,120.000001192093,4|0|2
344,132,94592,1,2
296,96,94892,1,8
236,96,95192,6,0,B|180:128|120:100,2,120.000001192093,4|0|2
256,216,96992,1,2
256,192,97592,12,4,99992
