osu file format v9

[General]
AudioFilename: 05 IRON ATTACK! - Cavalrymaid.mp3
AudioLeadIn: 0
PreviewTime: 47513
Countdown: 1
SampleSet: Normal
StackLeniency: 0.7
Mode: 0
LetterboxInBreaks: 1

[Editor]
DistanceSpacing: 1
BeatDivisor: 4
GridSize: 16

[Metadata]
Title:Cavalrymaid
Artist:IRON ATTACK!
Creator:DoKoLP
Version:Relaxing
Source:Touhou
Tags:TH06 Embodiment of the Scarlet Devil EosD Flowering Night Izayoi Sakuya The Trooper Iron Maiden

[Difficulty]
HPDrainRate:2
CircleSize:3
OverallDifficulty:1
ApproachRate:2
SliderMultiplier:1.4
SliderTickRate:1

[Events]
//Background and Video events
0,0,"bg.jpg"
//Break Periods
2,68889,77012
2,84419,86012
2,90066,91306
2,101360,113718
2,125360,136306
2,157831,176012
2,186066,187130
//Storyboard Layer 0 (Background)
//Storyboard Layer 1 (Fail)
//Storyboard Layer 2 (Pass)
//Storyboard Layer 3 (Foreground)
//Storyboard Sound Samples
//Background Colour Transformations
3,100,163,162,255

[TimingPoints]
1102,352.941176470588,4,1,0,100,1,0
1102,-200,4,1,0,100,0,0
115617,-200,4,1,0,100,0,0

[Colours]
Combo1 : 206,36,36
Combo2 : 119,202,150
Combo3 : 60,58,118

[HitObjects]
80,64,1102,2,0,B|80:208,1,140
80,320,2513,1,0
256,144,4631,5,0
256,48,5160,1,0
256,240,7454,5,0
256,336,7984,1,0
304,192,10278,5,0
400,192,10807,1,0
480,144,11160,2,0,B|480:256,1,105
416,320,12043,1,0
320,320,12396,1,0
256,256,12749,2,0,B|256:80,1,175
160,48,13984,6,0,B|48:48|48:192|160:192,1,245
304,192,15925,2,0,B|416:192,1,105
384,128,16807,6,0,B|496:128|496:256|368:256,1,245
224,256,18749,2,0,B|112:256,1,105
144,320,19631,6,0,B|32:320|32:192|160:192,1,245
304,192,21572,2,0,B|416:192,1,105
384,256,22454,6,0,B|496:256|496:128|368:128,1,245
224,128,24396,2,0,B|112:128,1,105
256,192,25454,12,0,27749
256,192,28278,5,0
256,48,28984,1,0
256,192,29690,1,0
256,336,30396,2,0,B|256:288,1,35
256,192,31101,12,0,33396
256,48,34278,6,0,B|256:192,3,140
256,48,38513,6,0,B|256:160,1,105
256,336,41337,6,0,B|256:224,1,105
400,192,44160,6,0,B|288:192,1,105
176,64,46278,2,0,B|304:64,2,122.5
80,64,47866,5,0
80,112,48043,2,0,B|80:272,1,140
80,336,49101,2,0,B|128:336|128:336|192:272|192:272|192:192,1,210
432,64,50690,5,0
432,112,50866,2,0,B|432:272,1,140
432,336,51925,2,0,B|384:336|384:336|320:272|320:272|320:192,1,210
384,48,53513,5,0
336,48,53690,2,0,B|176:48,1,140
112,48,54749,2,0,B|112:96|112:96|176:160|176:160|256:160,1,210
384,336,56337,5,0
336,336,56513,2,0,B|176:336,1,140
112,336,57572,2,0,B|112:288|112:288|176:224|176:224|256:224,1,210
288,224,58807,1,0
176,112,59337,5,0
176,112,59690,1,0
112,192,60043,2,0,B|112:208|112:240,1,35
336,112,60749,5,0
336,112,61101,1,0
400,192,61454,2,0,B|400:208|400:240,1,35
176,272,62160,5,0
176,272,62513,1,0
112,192,62866,2,0,B|112:176|112:144,1,35
336,272,63572,5,0
336,272,63925,1,0
400,192,64278,2,0,B|400:176|400:144,1,35
256,96,64984,5,0
160,96,65337,1,0
160,192,65690,2,0,B|160:240,1,35
256,320,66396,5,0
256,240,66749,1,0
256,160,67102,2,0,B|256:112,1,35
256,160,67807,2,0,B|304:160,1,35
256,160,68513,2,0,B|208:160,1,35
256,192,78572,12,0,81395
176,192,81925,5,0
176,192,82278,1,0
176,112,82631,1,0
176,112,82984,1,0
256,112,83337,1,0
256,112,83690,1,0
256,192,84043,1,0
256,192,84219,1,0
336,192,87572,5,0
336,192,87925,1,0
336,112,88278,1,0
336,112,88631,1,0
256,112,88984,1,0
256,112,89337,1,0
256,192,89690,1,0
256,192,89866,1,0
256,192,92866,12,0,95513
256,192,95866,12,0,98337
256,192,98690,12,0,101160
192,48,115278,5,0
128,48,115631,1,0
96,48,115807,2,0,B|96:224,1,175
96,336,117043,5,0
128,336,117219,2,0,B|128:160,1,175
160,48,118454,5,0
192,48,118631,2,0,B|192:224,1,175
224,336,119866,5,0
256,336,120043,2,0,B|256:160,1,175
256,48,121454,5,0
192,48,121807,1,0
192,112,122160,1,0
192,144,122337,1,0
128,240,122866,5,0
128,144,123219,2,0,B|128:96,3,35
320,48,124278,5,0
320,48,124454,1,0
432,48,124984,5,0
432,48,125160,1,0
304,48,137866,6,0,B|336:80|304:112|272:144|304:176|336:208|304:240|304:256,1,210
272,272,139102,2,0,B|224:272,1,35
192,250,139454,6,0,B|160:218|192:186|224:154|192:122|160:90|192:58|192:42,1,210
256,48,140690,2,0,B|256:224,1,175
256,336,141925,5,0
320,336,142278,2,0,B|400:336,3,70
224,160,144396,6,0,B|224:112|176:112,1,70,0|0
128,160,145101,2,0,B|80:160|80:112,1,70
128,64,145807,2,0,B|128:16|176:16,1,70
256,16,146513,2,0,B|256:160,1,140
256,320,147925,5,0
192,320,148278,1,0
128,320,148631,1,0
256,192,149337,12,0,153572
256,192,154278,5,0
304,112,154631,1,0
352,192,154984,1,0
400,112,155337,1,0
448,192,155690,1,0
256,192,155866,12,0,157631
256,192,177572,12,0,181807
256,48,183043,6,0,B|256:128,1,70
256,160,183572,2,0,B|256:240,2,70
192,160,184631,2,0,B|192:240,2,70
128,160,185690,1,0
128,160,185866,1,0
256,48,188690,6,0,B|256:128,1,70
256,160,189219,2,0,B|256:240,2,70
320,160,190278,6,0,B|320:240,2,70
384,160,191337,1,0
384,160,191513,1,0
256,192,194690,12,0,197160
256,192,197337,12,0,199984
256,192,200160,12,0,202807
160,96,203160,6,0,B|224:64|272:64,1,105
352,64,204043,1,0
432,128,204396,1,0
432,224,204749,1,0
368,304,205102,2,0,B|320:336|256:304,1,105
