osu file format v9

[General]
AudioFilename: 05 IRON ATTACK! - Cavalrymaid.mp3
AudioLeadIn: 989
PreviewTime: 47513
Countdown: 1
SampleSet: Normal
StackLeniency: 0.7
Mode: 0
LetterboxInBreaks: 1

[Editor]
DistanceSpacing: 0.8
BeatDivisor: 4
GridSize: 16

[Metadata]
Title:Cavalrymaid
Artist:IRON ATTACK!
Creator:DoKoLP
Version:Lunatic
Source:Touhou
Tags:TH06 Embodiment of the Scarlet Devil EosD Flowering Night Izayoi Sakuya

[Difficulty]
HPDrainRate:8
CircleSize:4
OverallDifficulty:7
ApproachRate:8
SliderMultiplier:1.59999990463257
SliderTickRate:1

[Events]
//Background and Video events
0,0,"bg.jpg"
//Break Periods
2,126771,137116
2,155889,182293
//Storyboard Layer 0 (Background)
//Storyboard Layer 1 (Fail)
//Storyboard Layer 2 (Pass)
//Storyboard Layer 3 (Foreground)
//Storyboard Sound Samples
//Background Colour Transformations
3,100,163,162,255

[TimingPoints]
1102,352.941176470588,4,1,0,100,1,0
5160,-66.6666666666667,4,1,0,100,0,0
58801,-133.333333333333,4,1,0,100,0,0
59330,-66.6666666666667,4,1,0,100,0,0
60212,-133.333333333333,4,1,0,100,0,0
60742,-66.6666666666667,4,1,0,100,0,0
68682,-50,4,1,0,100,0,0
71505,-133.333333333333,4,1,0,100,0,0
75034,-66.6666666666667,4,1,0,100,0,0
75740,-133.333333333333,4,1,0,100,0,0
78034,-66.6666666666667,4,1,0,100,0,0
84209,-133.333333333333,4,1,0,100,0,0
85268,-66.6666666666667,4,1,0,100,0,0
103984,-50,4,1,0,100,0,0
116676,-100,4,1,0,100,0,0
117205,-50,4,1,0,100,0,0
118088,-100,4,1,0,100,0,0
118794,-50,4,1,0,100,0,0
122323,-100,4,1,0,100,0,0
123734,-50,4,1,0,100,0,0
137850,-66.6666666666667,4,1,0,100,0,0
143320,-57.1428571428571,4,1,0,100,0,0
144026,-66.6666666666667,4,1,0,100,0,0
153554,-50,4,1,0,100,0,0
183021,-66.6666666666667,4,1,0,100,0,0

[Colours]
Combo1 : 206,36,36
Combo2 : 119,202,150
Combo3 : 60,58,118

[HitObjects]
48,192,1101,1,4
256,48,1454,1,4
464,192,1807,1,4
256,336,2160,1,4
128,192,2513,5,0
128,112,2690,1,0
128,32,2866,1,0
160,32,2954,1,0
192,32,3043,1,0
272,32,3219,2,0,B|352:32,2,79.9999952316283
272,64,3660,5,0
272,96,3749,1,0
272,176,3925,2,0,B|272:256,2,79.9999952316283
304,176,4366,1,0
336,176,4454,1,0
416,176,4631,1,0
416,256,4807,2,0,B|416:304,2,39.9999976158142
416,176,5160,6,0,B|416:32|272:32,1,209.999993741512,0|0
224,64,5690,1,0
160,112,5866,1,0
128,128,5954,1,0
96,144,6043,2,0,B|96:256,2,104.999996870756
96,64,6572,6,0,B|96:0,2,52.4999984353781,0|0|0
96,144,6925,1,0
96,224,7101,2,0,B|32:224,2,52.4999984353781
176,224,7454,1,0
208,224,7543,1,0
240,224,7631,1,0
240,192,7719,1,0
240,160,7807,1,0
240,80,7984,6,0,B|352:80|352:80|352:192,1,209.999993741512,0|0
352,256,8513,2,0,B|352:320,4,52.4999984353781
272,304,9043,1,0
192,256,9219,2,0,B|192:320,4,52.4999984353781
112,304,9749,5,0
48,256,9925,1,0
48,224,10013,1,0
48,192,10101,1,0
64,160,10190,1,0
96,128,10278,1,0
160,80,10454,5,0
240,48,10631,1,0
320,48,10807,2,0,B|320:160,1,104.999996870756
320,224,11160,1,0
400,80,11337,5,0
400,112,11425,1,0
400,144,11513,1,0
400,176,11601,1,0
400,208,11690,1,0
400,288,11866,1,0
192,288,12043,5,0
224,288,12131,1,0
256,288,12219,1,0
288,288,12307,1,0
320,288,12396,1,0
400,288,12572,1,0
304,192,12749,5,0
272,160,12837,1,0
240,128,12925,1,0
208,96,13013,1,0
176,64,13101,1,0
96,64,13278,2,0,B|96:176,2,104.999996870756
48,320,13984,5,0
128,320,14160,1,0
160,288,14249,1,0
192,320,14337,1,0
224,288,14425,1,0
256,320,14513,2,0,B|320:320|352:272,1,104.999996870756
400,224,14866,6,0,B|432:192|432:160,4,52.4999984353781,0|0|0|0|0
464,112,15396,1,0
416,48,15572,2,0,B|384:0|304:32,1,104.999996870756
272,80,15925,1,0
224,144,16101,5,0
176,208,16278,1,0
176,288,16454,1,0
48,48,16807,5,0
48,48,16984,2,0,B|112:96,4,52.4999984353781
256,192,17513,1,0
464,336,17690,6,0,B|400:288,4,52.4999984353781,0|0|0|0|0
256,192,18219,1,0
256,48,18396,5,0
256,48,18484,1,0
256,48,18572,1,0
256,48,18660,1,0
256,48,18749,1,0
256,192,18925,1,0
256,192,19101,2,0,B|256:304,1,104.999996870756
176,288,19631,5,0
112,256,19807,1,0
80,240,19896,1,0
48,224,19984,1,0
48,192,20072,1,0
48,160,20160,1,0
48,80,20337,1,0
192,208,20513,5,0
224,192,20601,1,0
256,176,20690,1,0
288,160,20778,1,0
320,144,20866,1,0
320,64,21043,1,0
400,64,21219,6,0,B|400:176,1,104.999996870756,0|0
400,240,21572,1,0
256,336,21749,1,0
96,240,21925,1,0
256,192,22101,1,0
208,32,22454,5,0
208,32,22631,2,0,B|144:32,4,52.4999984353781
80,32,23160,1,0
304,32,23337,6,0,B|368:32,4,52.4999984353781
432,32,23866,1,0
256,96,24043,5,0
256,128,24131,1,0
256,160,24219,1,0
256,192,24307,1,0
256,224,24396,1,0
256,304,24572,1,0
128,192,24749,1,0
384,192,24925,1,0
352,64,25278,5,0
352,144,25454,1,0
352,176,25543,1,0
336,208,25631,1,0
304,240,25719,1,0
272,256,25807,1,0
256,176,25984,1,0
256,176,26160,5,0
224,192,26249,1,0
192,192,26337,1,0
160,176,26425,1,0
144,144,26513,1,0
208,96,26690,1,0
208,96,26866,5,0
224,64,26954,1,0
256,48,27043,1,0
288,48,27131,1,0
320,64,27219,1,0
384,112,27396,1,0
384,112,27572,2,0,B|384:176|336:208,1,104.999996870756
192,256,28101,5,0
192,256,28278,2,0,B|144:304,4,52.4999984353781
256,192,28807,1,0
320,128,28984,6,0,B|368:80,4,52.4999984353781,0|0|0|0|0
256,192,29513,1,0
160,96,29690,6,0,B|208:144,4,52.4999984353781,0|0|0|0|0
256,192,30219,1,0
320,240,30396,2,0,B|416:320,1,104.999996870756
464,176,30925,5,0
464,96,31101,1,0
448,64,31190,1,0
416,48,31278,1,0
384,48,31366,1,0
352,64,31454,1,0
304,128,31631,1,0
256,64,31807,6,0,B|256:0,4,52.4999984353781,0|0|0|0|0
208,128,32337,1,0
160,64,32513,1,0
128,48,32601,1,0
96,48,32690,1,0
64,64,32778,1,0
48,96,32866,1,0
48,176,33043,2,0,B|48:240|112:272,1,104.999996870756
160,304,33396,1,0
272,240,33749,5,0
352,240,33925,1,0
384,208,34013,1,0
416,240,34101,1,0
448,208,34190,1,0
448,160,34278,2,0,B|448:96|416:64,1,104.999996870756
336,48,34631,5,0
304,48,34719,1,0
272,48,34807,1,0
240,48,34896,1,0
208,48,34984,1,0
416,48,35160,1,0
416,256,35337,5,0
416,224,35425,1,0
416,192,35513,1,0
416,160,35602,1,0
416,128,35690,1,0
416,48,35866,2,0,B|320:128,2,104.999996870756,0|0|2
64,48,38513,5,0
64,48,38690,1,2
64,48,38778,1,2
64,48,38866,1,2
64,48,39043,1,0
448,48,41337,5,0
448,48,41513,1,2
448,48,41602,1,2
448,48,41690,1,2
448,48,41866,1,0
64,336,44160,5,0
64,336,44337,1,2
64,336,44425,1,2
64,336,44513,1,2
64,336,44690,1,0
352,336,46278,5,0
384,336,46366,1,0
416,336,46454,1,0
448,336,46543,1,0
448,304,46631,5,0
448,272,46719,1,0
448,240,46807,1,0
448,208,46896,1,0
448,176,46984,2,0,B|448:112,4,52.4999984353781
448,48,47513,5,4
256,48,47866,5,0
256,128,48043,1,0
256,160,48131,1,0
240,192,48219,1,0
272,192,48307,1,0
256,224,48396,1,0
256,304,48572,1,0
256,224,48749,5,0
240,192,48837,1,0
272,192,48925,1,0
256,160,49013,1,0
256,128,49102,1,0
256,48,49278,1,0
336,48,49454,6,0,B|400:48,4,52.4999984353781,0|0|0|0|0
464,48,49984,1,0
464,128,50160,1,0
464,128,50337,1,0
304,240,50690,5,0
208,144,50866,2,0,B|160:96,4,52.4999984353781
304,144,51396,5,0
208,240,51572,2,0,B|160:288,4,52.4999984353781
208,144,52102,5,0
304,240,52278,2,0,B|352:288,4,52.4999984353781
208,144,52807,5,0
304,144,52984,1,0
208,240,53160,1,0
80,64,53513,6,0,B|128:112|176:64,1,104.999996870756
256,64,53866,2,0,B|304:112|352:64,1,104.999996870756,0|0
432,64,54219,1,0
432,144,54396,6,0,B|384:192|432:240,1,104.999996870756
432,320,54749,1,0
352,320,54925,2,0,B|304:272|256:320,1,104.999996870756
176,320,55278,2,0,B|128:272|80:320,1,104.999996870756
80,240,55631,5,0
80,160,55807,1,0
80,80,55984,1,0
256,48,56337,5,0
192,192,56513,1,0
192,160,56602,1,0
192,128,56690,1,0
256,272,56866,1,0
256,272,57043,1,0
320,128,57219,1,0
320,160,57307,1,0
320,192,57396,1,0
400,192,57572,1,0
400,272,57749,5,0
400,272,57837,1,0
400,272,57925,1,8
256,272,58102,5,0
256,272,58190,1,0
256,272,58278,1,0
256,272,58366,1,0
256,272,58454,1,8
128,272,58631,5,0
128,272,58719,1,0
128,272,58807,2,0,B|128:160,1,104.999996870756,8|0
128,96,59337,2,0,B|128:48|208:32,1,104.999996870756,8|0
240,96,59690,2,0,B|272:128|336:80,1,104.999996870756,8|0
400,32,60043,1,0
448,96,60219,2,0,B|448:208,1,104.999996870756,8|0
384,240,60749,6,0,B|352:272|288:272,1,104.999996870756,8|0
208,272,61102,1,0
144,320,61278,1,0
64,320,61454,2,8,B|32:272|32:208,1,104.999996870756
32,48,61984,5,0
96,96,62160,2,0,B|128:128|192:128,1,104.999996870756,8|0
256,80,62513,2,0,B|288:128|240:192,1,104.999996870756
448,96,62866,2,0,B|416:128|352:128,1,104.999996870756,8|0
256,272,63396,5,0
176,288,63572,2,0,B|128:240|144:192,1,104.999996870756,8|0
224,208,63925,2,0,B|256:160|224:96,1,104.999996870756,8|0
144,112,64278,2,0,B|144:32|208:32,1,104.999996870756,8|0
352,96,64807,5,0
384,96,64896,1,0
416,112,64984,1,8
480,192,65160,1,0
480,224,65249,1,0
464,256,65337,1,8
384,320,65513,1,0
352,304,65602,1,0
336,272,65690,1,8
320,192,65866,6,0,B|288:144|288:144|288:224|288:224|256:144,1,209.999993741512,0|0
224,80,66396,1,0
160,176,66572,1,0
96,80,66749,1,0
32,176,66925,1,0
32,208,67013,1,0
48,240,67102,1,8
112,288,67278,6,0,B|160:336|208:336|256:336|320:336|368:304|416:272,1,314.999990612269
400,96,67984,2,0,B|352:48|304:48|256:48|192:48|144:80|96:112,1,314.999990612269
64,192,68690,2,0,B|80:208|80:208|80:176|80:176|96:208|96:208|96:176|96:176|112:208|112:208|112:176|112:176|128:208|128:208|128:176|128:176|144:208|144:208|144:176|144:176|160:208|160:208|160:176|160:176|176:208|176:208|176:176|176:176|192:208|192:208|192:176|192:176|208:208|208:208|208:176|208:176|224:208|224:208|224:176|224:176|240:208|240:208|240:176|240:176|256:208|256:208|256:176|256:176|272:208|272:208|272:176|272:176|288:208|288:208|288:176|288:176|304:208|304:208|304:176|304:176|320:208|320:208|320:176|320:176|336:208|336:208|336:176|336:176|352:192|352:192,1,1120,0|2
464,48,70454,5,0
464,192,70631,1,0
400,304,70807,1,0
256,336,70984,1,0
112,304,71160,1,0
48,192,71337,1,0
64,48,71513,2,0,B|128:80|224:80,1,157.499995306134
320,48,72219,5,0
400,112,72396,1,0
320,192,72572,1,0
256,112,72749,1,0
192,192,72925,2,0,B|160:288|288:304,1,157.499995306134
352,336,73631,1,0
416,240,73807,1,0
480,336,73984,1,0
416,240,74160,1,0
480,144,74337,2,0,B|480:48|368:32,1,157.499995306134
336,96,75043,6,0,B|304:144|240:144,1,104.999996870756
336,256,75396,2,0,B|304:208|240:208,1,104.999996870756
176,176,75749,2,0,B|128:80|96:240|48:176,1,157.499995306134
48,96,76454,1,0
48,288,76631,1,0
112,336,76807,1,0
176,288,76984,1,0
240,336,77160,2,0,B|288:336|336:304|288:272|240:304|304:336|352:336,1,157.499995306134
416,304,77866,5,0
464,240,78043,2,0,B|496:192|464:128,1,104.999996870756
432,64,78396,1,0
352,64,78572,2,0,B|352:288,1,209.999993741512
272,64,79102,5,0
192,64,79278,2,0,B|192:272,1,209.999993741512
112,64,79807,5,0
32,64,79984,2,0,B|32:112|32:112|64:128|64:128|0:128|0:128|32:144|32:144|32:288,1,314.999990612269
176,336,80778,5,0
176,336,80866,1,0
256,336,81043,1,0
256,336,81131,1,0
256,336,81219,1,0
336,336,81396,2,0,B|432:288|432:192|400:112,1,209.999993741512
368,96,81925,5,0
336,128,82013,1,0
304,160,82102,1,0
256,48,82278,1,0
256,48,82454,1,0
208,160,82631,1,0
160,48,82807,5,0
128,64,82896,1,0
112,96,82984,1,0
96,176,83160,1,0
112,256,83337,5,0
176,320,83513,1,0
208,336,83602,1,0
240,320,83690,1,0
304,272,83866,1,0
432,192,84043,1,0
304,96,84219,2,0,B|256:48|352:48,1,104.999996870756
432,48,84749,5,0
432,80,84837,1,0
432,112,84925,1,0
432,192,85102,1,0
432,272,85278,1,0
432,352,85454,2,0,B|320:352,1,104.999996870756
256,352,85807,2,0,B|256:240,1,104.999996870756
256,160,86160,2,0,B|256:48,1,104.999996870756
176,32,86513,5,0
144,32,86602,1,0
112,48,86690,1,0
96,80,86778,1,0
96,112,86866,1,0
96,192,87043,1,0
176,336,87396,6,0,B|256:336|288:272,1,104.999996870756,0|0
336,240,87749,1,0
368,208,87837,1,0
384,176,87925,2,0,B|384:112|352:80,1,104.999996870756
272,48,88278,5,0
208,144,88454,1,0
144,48,88631,1,0
112,144,88807,1,0
144,256,88984,1,0
208,144,89160,1,0
304,144,89337,1,0
384,96,89513,2,0,B|400:144|384:208,2,104.999996870756
464,336,90219,5,0
384,336,90396,2,0,B|336:288|288:336,3,104.999996870756
208,336,91102,2,0,B|160:304|240:240,1,104.999996870756
288,192,91454,5,0
368,112,91631,1,0
256,48,91807,1,0
144,112,91984,1,0
224,192,92160,1,0
320,64,92337,1,0
192,64,92513,1,0
256,128,92690,1,0
256,288,93043,6,0,B|224:336|160:352,1,104.999996870756
96,352,93396,1,0
64,336,93484,1,0
48,304,93572,1,0
48,224,93749,1,0
48,144,93925,1,0
80,80,94102,5,0
112,64,94190,1,0
144,64,94278,1,0
224,64,94454,1,0
304,64,94631,5,0
336,64,94719,1,0
368,64,94807,1,0
368,96,94896,1,0
368,128,94984,1,0
368,208,95160,1,0
448,208,95337,1,0
448,128,95513,1,4
48,48,95866,5,0
48,128,96043,1,0
96,128,96131,1,0
144,128,96219,1,0
208,80,96396,1,0
256,144,96572,1,0
304,208,96749,5,0
304,256,96837,1,0
304,304,96925,1,0
224,336,97102,2,0,B|176:288|128:336,1,104.999996870756
48,336,97454,5,0
48,288,97543,1,0
64,240,97631,1,0
96,192,97719,1,0
144,176,97807,1,0
224,176,97984,2,0,B|336:176,2,104.999996870756
464,336,98690,5,0
384,336,98866,1,0
336,336,98954,1,0
288,336,99043,1,0
208,336,99219,1,0
48,192,99396,5,0
128,192,99572,1,0
176,192,99660,1,0
224,192,99749,1,0
304,192,99925,1,0
464,48,100102,5,0
384,48,100278,1,0
336,48,100366,1,0
288,48,100454,1,0
208,48,100631,5,0
384,192,100807,1,0
208,336,100984,1,0
208,192,101160,1,0
48,192,101513,5,0
48,272,101690,2,0,B|64:320|128:336,1,104.999996870756
208,336,102043,1,0
288,336,102219,1,0
368,304,102396,5,0
288,240,102572,1,0
368,176,102749,1,0
288,112,102925,1,0
208,176,103102,5,0
144,96,103278,1,0
144,96,103366,1,0
144,96,103454,1,0
144,256,103631,1,0
144,256,103719,1,0
144,256,103807,1,0
288,176,103984,2,0,B|368:176,4,70
336,336,104513,5,0
304,320,104602,1,0
272,304,104690,1,0
240,288,104778,1,0
208,272,104866,1,0
128,240,105043,5,0
128,160,105219,1,2
160,144,105307,1,0
192,128,105396,1,0
224,112,105484,1,0
256,96,105572,1,0
336,80,105749,5,0
416,80,105925,1,2
448,96,106013,1,0
464,128,106102,1,0
464,176,106190,1,0
448,208,106278,2,0,B|400:256|320:256,1,140
240,256,106631,2,0,B|160:256|96:208,1,140
256,48,107160,5,0
224,176,107337,2,0,B|224:256,4,70,2|2|2|2|2
256,336,107866,1,0
288,208,108043,6,0,B|288:128,4,70,2|0|2|0|2
256,48,108572,1,0
256,48,108749,1,2
256,48,108837,1,2
256,48,108925,1,2
256,48,109013,1,2
256,48,109102,1,2
176,192,109278,1,0
256,336,109454,1,0
352,192,109631,1,4
256,192,109984,5,0
256,80,110160,1,0
256,80,110249,1,0
256,80,110337,1,0
256,80,110425,1,0
256,80,110513,1,0
256,192,110690,1,0
256,304,110866,5,0
256,304,110954,1,0
256,304,111043,1,0
256,304,111131,1,0
256,304,111219,1,0
256,192,111396,1,0
128,192,111572,5,0
144,160,111660,1,0
176,128,111749,1,0
336,128,111925,1,0
368,160,112013,1,0
384,192,112102,1,0
256,192,112278,2,0,B|256:336,1,140
288,64,112807,6,0,B|352:32|432:64,1,140
224,64,113160,6,0,B|160:32|80:64,1,140
256,112,113513,5,0
288,176,113690,6,0,B|352:144|432:176,1,140
224,176,114043,6,0,B|160:144|80:176,1,140
256,224,114396,5,0
256,304,114572,1,0
256,384,114749,1,0
256,384,114925,1,0
256,384,115013,1,0
256,384,115102,1,0
256,384,115278,1,0
64,192,115631,5,0
64,112,115807,2,0,B|64:48|64:48|144:32,1,140
192,96,116160,2,0,B|208:160|208:160|288:160,1,140
336,112,116513,1,0
384,48,116690,2,0,B|432:80|432:80|432:176,1,140
416,240,117219,6,0,B|464:272|464:272|416:368,1,140,0|0
352,320,117572,2,0,B|320:256|320:256|240:304,1,140
192,336,117925,1,0
112,336,118102,2,0,B|112:192,1,140
176,160,118631,5,0
112,112,118807,2,0,B|112:48|112:48|192:32,1,140
224,96,119160,2,0,B|304:96|304:96|352:48,1,140
432,32,119513,2,0,B|464:80|464:80|416:144|416:144|464:192|464:192|432:240|432:240|480:304|480:304|400:352,1,420
336,352,120219,5,0
336,352,120307,1,0
336,352,120396,1,0
256,224,120572,1,0
160,352,120749,1,0
80,352,120925,2,0,B|48:304|48:304|96:240|96:240|48:192|48:192|80:144|80:144|32:80|32:80|112:32,1,420
176,32,121631,5,0
224,96,121807,1,0
304,64,121984,1,0
336,144,122160,1,0
416,128,122337,2,0,B|464:176|416:272,1,140
368,320,122866,5,0
304,272,123043,1,0
240,320,123219,1,0
176,272,123396,1,0
112,224,123572,1,0
48,176,123749,2,0,B|48:96,4,70
128,112,124278,5,0
208,112,124454,2,0,B|208:32,4,70
288,48,124984,5,0
368,48,125160,2,0,B|368:128,16,70
448,240,137866,6,0,B|400:304|336:336|256:336|160:320|112:288|64:224|48:160|80:96,1,524.999984353781
112,48,138925,1,0
176,96,139102,1,0
176,128,139190,1,0
176,160,139278,1,0
240,48,139454,2,0,B|320:48|368:64|432:128|464:192|448:256|400:320|336:352,1,419.999987483025
208,336,140513,5,0
128,336,140690,2,0,B|32:288|32:288|144:288|144:288|240:288|240:288|128:240|128:240,1,419.999987483025
80,208,141572,2,0,B|32:176|32:112|80:64|160:64,1,209.999993741512
208,112,142102,1,0
272,48,142278,1,0
320,112,142454,1,0
368,176,142631,5,0
352,208,142719,1,0
368,240,142807,1,0
352,272,142896,1,0
368,304,142984,1,0
352,336,143072,1,0
368,368,143160,1,0
448,368,143337,2,0,B|416:336|416:336|448:304|448:304|416:272|416:272|448:240|448:240|416:208|416:208|448:176|448:176,1,244.999989047647
480,144,143866,5,0
480,64,144043,2,0,B|432:16|384:64,1,104.999996870756
336,112,144396,1,0
304,112,144484,1,0
272,112,144572,1,0
320,192,144749,5,0
288,192,144837,1,0
256,192,144925,1,0
304,272,145102,5,0
272,272,145190,1,0
240,272,145278,1,0
288,352,145454,5,0
256,352,145543,1,0
224,352,145631,1,0
192,352,145719,1,0
160,352,145807,1,0
128,352,145896,1,0
96,352,145984,1,0
112,320,146072,1,0
128,288,146160,1,0
144,256,146249,1,0
112,256,146337,1,0
80,256,146425,1,0
48,256,146513,2,0,B|96:160|96:160|208:160,1,209.999993741512
272,160,147043,5,0
352,160,147219,1,0
384,144,147307,1,0
416,160,147396,1,0
464,224,147572,1,0
480,256,147660,1,0
464,288,147749,1,0
432,320,147837,1,0
400,352,147925,2,0,B|336:352|336:352|272:288,1,104.999996870756
256,272,148278,5,0
224,272,148366,1,0
192,272,148454,2,0,B|192:160,2,104.999996870756
112,272,148984,2,0,B|16:192|96:80,1,209.999993741512
160,48,149513,2,0,B|208:32,6,52.4999984353781
209,31,150043,2,0,B|272:32,6,52.4999984353781
256,32,150572,2,0,B|304:48,6,52.4999984353781
304,48,151101,2,0,B|352:80,6,52.4999984353781
347,78,151631,2,0,B|347:142,6,52.4999984353781
348,131,152160,2,0,B|348:195,6,52.4999984353781
348,184,152690,2,0,B|348:248,8,52.4999984353781
256,176,153572,2,0,B|224:144|224:144|192:176|192:176|160:128|160:128|128:160|128:160|96:112|96:112|64:144|64:144,1,280
384,272,154278,6,0,B|416:240|416:240|384:224|384:224|416:192|416:192|400:176,1,140,0|0
400,96,154631,2,0,B|368:64|368:64|352:96|352:96|320:64|320:64|304:80,1,140
240,80,154984,2,0,B|176:32|176:32|112:32|112:32|48:80|48:80|48:144|48:144|48:208|48:208|96:256|96:256|176:256|176:256|240:192|240:192,1,560
256,48,183043,6,0,B|192:48|144:80|112:128|112:176,1,209.999993741512
112,256,183572,1,0
128,288,183660,1,0
160,304,183749,1,0
192,304,183837,1,0
224,304,183925,2,0,B|272:288|288:224,1,104.999996870756
320,160,184278,5,0
336,128,184366,1,0
368,112,184454,1,0
400,112,184543,1,0
432,128,184631,1,0
480,192,184807,1,0
480,272,184984,5,0
464,304,185072,1,0
432,320,185160,1,0
400,320,185249,1,0
368,304,185337,1,0
304,256,185513,2,0,B|272:224|256:176|288:128,1,104.999996870756
304,80,185866,1,0
144,48,186219,5,0
96,112,186396,2,0,B|32:112,4,52.4999984353781
192,112,186925,1,0
192,192,187102,6,0,B|256:192,4,52.4999984353781,0|0|0|0|0
96,192,187631,1,0
144,256,187807,6,0,B|144:320,4,52.4999984353781,0|0|0|0|0
208,336,188337,2,0,B|272:352|320:304,1,104.999996870756
368,256,188690,1,0
464,96,189043,5,0
384,48,189219,1,0
384,48,189307,1,0
384,48,189396,1,0
384,48,189484,1,0
384,48,189572,1,0
384,144,189749,1,0
304,144,189925,5,0
304,144,190013,1,0
304,144,190102,1,0
304,144,190190,1,0
304,144,190278,1,0
304,48,190454,1,0
240,96,190631,5,0
240,96,190719,1,0
240,96,190807,1,0
240,96,190896,1,0
240,96,190984,1,0
160,96,191160,2,0,B|48:96,2,104.999996870756
160,176,191866,5,0
96,224,192043,2,0,B|48:256|96:320,1,104.999996870756
160,352,192396,2,0,B|208:320|272:352,1,104.999996870756
336,352,192749,2,0,B|400:320|384:256,1,104.999996870756
320,224,193102,2,0,B|304:176|384:128,1,104.999996870756
432,96,193454,1,0
368,48,193631,1,0
288,48,193807,1,0
224,96,193984,2,0,B|176:144|128:96,1,104.999996870756
64,64,194337,1,0
48,240,194690,5,0
128,240,194866,1,0
160,240,194954,1,0
192,240,195043,1,0
224,240,195131,1,0
256,240,195219,1,0
208,320,195396,1,0
288,320,195572,5,0
320,320,195660,1,0
352,320,195749,1,0
384,320,195837,1,0
416,320,195925,1,0
416,240,196102,1,0
416,160,196278,5,0
416,128,196366,1,0
416,96,196454,1,0
416,64,196543,1,0
416,32,196631,1,0
336,32,196807,1,0
256,32,196984,2,0,B|144:32,1,104.999996870756
256,192,197513,5,0
352,96,197690,2,0,B|304:144,4,52.4999984353781
256,192,198219,1,0
160,288,198396,6,0,B|208:240,4,52.4999984353781,0|0|0|0|0
256,192,198925,1,0
352,288,199102,6,0,B|304:240,4,52.4999984353781,0|0|0|0|0
160,96,199631,2,0,B|208:144,2,52.4999984353781
256,192,199984,1,0
464,48,200337,5,0
400,96,200513,2,0,B|304:176,1,104.999996870756
320,240,200866,2,0,B|432:240,1,104.999996870756
480,320,201219,2,0,B|368:320,1,104.999996870756
304,320,201572,1,0
224,320,201749,1,0
160,272,201925,1,0
112,208,202102,1,0
112,128,202278,2,0,B|112:64|112:64|160:64,1,104.999996870756
224,64,202631,2,0,B|336:64,1,104.999996870756
464,192,203160,5,0
384,192,203337,2,0,B|352:144|352:144|320:192,1,104.999996870756
304,256,203690,2,0,B|272:304|272:304|240:256,1,104.999996870756
224,192,204043,2,0,B|192:144|192:144|160:192,1,104.999996870756
128,256,204396,1,0
128,256,204484,1,0
128,256,204572,1,0
128,256,204660,1,0
128,256,204749,1,0
128,176,204925,1,0
128,96,205102,1,0
128,96,205190,1,0
128,96,205278,1,0
192,48,205454,2,0,B|256:48|256:48|256:96,1,104.999996870756
