osu file format v9

[General]
AudioFilename: 05 IRON ATTACK! - Cavalrymaid.mp3
AudioLeadIn: 1000
PreviewTime: 47513
Countdown: 1
SampleSet: Normal
StackLeniency: 0.7
Mode: 0
LetterboxInBreaks: 1

[Editor]
DistanceSpacing: 0.8
BeatDivisor: 4
GridSize: 16

[Metadata]
Title:Cavalrymaid
Artist:IRON ATTACK!
Creator:DoKoLP
Version:Insane
Source:Touhou
Tags:TH06 Embodiment of the Scarlet Devil EosD Flowering Night Izayoi Sakuya

[Difficulty]
HPDrainRate:5
CircleSize:4
OverallDifficulty:6
ApproachRate:8
SliderMultiplier:1.4
SliderTickRate:1

[Events]
//Background and Video events
0,0,"bg.jpg"
//Break Periods
2,92889,103234
2,126772,137116
2,155889,182293
//Storyboard Layer 0 (Background)
//Storyboard Layer 1 (Fail)
//Storyboard Layer 2 (Pass)
//Storyboard Layer 3 (Foreground)
//Storyboard Sound Samples
//Background Colour Transformations
3,100,163,162,255

[TimingPoints]
1102,352.941176470588,4,1,0,100,1,0
13982,-50,4,1,0,100,0,0
38509,-100,4,1,0,100,0,0
46273,-50,4,1,0,100,0,0
58801,-133.333333333333,4,1,0,100,0,0
59330,-66.6666666666667,4,1,0,100,0,0
60212,-133.333333333333,4,1,0,100,0,0
60742,-66.6666666666667,4,1,0,100,0,0
68682,-50,4,1,0,100,0,0
70093,-133.333333333333,4,1,0,100,0,0
71505,-133.333333333333,4,1,0,100,0,0
75740,-133.333333333333,4,1,0,100,0,0
78034,-66.6666666666667,4,1,0,100,0,0
81386,-133.333333333333,4,1,0,100,0,0
83680,-66.6666666666667,4,1,0,100,0,0
84209,-133.333333333333,4,1,0,100,0,0
84562,-50,4,1,0,100,0,0
85268,-66.6666666666667,4,1,0,100,0,0
116676,-100,4,1,0,100,0,0
117205,-50,4,1,0,100,0,0
118088,-100,4,1,0,100,0,0
118617,-66.6666666666667,4,1,0,100,0,0
120911,-133.333333333333,4,1,0,100,0,0
121440,-66.6666666666667,4,1,0,100,0,0
122323,-100,4,1,0,100,0,0
123734,-50,4,1,0,100,0,0
137850,-57.1428571428571,4,1,0,100,0,0
143320,-57.1428571428571,4,1,0,100,0,0
144026,-66.6666666666667,4,1,0,100,0,0
148966,-133.333333333333,4,1,0,100,0,0
149496,-66.6666666666667,4,1,0,100,0,0
153554,-50,4,1,0,100,0,0
154966,-100,4,1,0,100,0,0
155848,-66.6666666666667,4,1,0,100,0,0
183021,-66.6666666666667,4,1,0,100,0,0
200490,-100,4,1,0,100,0,0

[Colours]
Combo1 : 206,36,36
Combo2 : 119,202,150
Combo3 : 60,58,118

[HitObjects]
256,192,1101,1,4
256,192,1454,1,4
256,192,1807,1,4
256,192,2160,1,4
256,192,2513,6,0,B|256:112,1,70,0|0
256,48,2866,1,0
336,48,3043,1,0
416,48,3219,2,0,B|416:128,1,70
416,192,3572,1,0
416,272,3749,1,0
336,272,3925,2,0,B|256:272,1,70
192,272,4278,2,0,B|112:272,3,70
48,272,4984,2,0,B|48:192,1,70,0|0
128,48,5513,5,0
192,96,5690,2,0,B|224:128|256:96,3,70
336,96,6396,2,0,B|368:128|400:96,3,70
464,144,7101,1,0
400,192,7278,1,0
464,240,7454,1,0
400,288,7631,2,0,B|368:320|336:288,1,70
256,288,7984,1,0
160,192,8337,6,0,B|192:128,1,70,0|0
224,64,8690,1,0
272,128,8866,1,0
320,64,9043,1,0
368,128,9219,2,0,B|400:160|400:160|400:192,1,70
400,256,9572,1,0
400,336,9749,1,0
320,336,9925,5,0
288,336,10013,1,0
256,336,10101,1,0
224,336,10190,1,0
192,336,10278,1,0
112,336,10454,2,0,B|112:192,1,140
112,48,11160,5,0
192,48,11337,1,0
304,48,11601,1,0
336,48,11690,1,0
416,48,11866,5,0
416,128,12043,1,0
416,208,12219,1,0
416,240,12307,1,0
416,272,12396,1,0
368,336,12572,1,0
288,336,12749,5,0
224,288,12925,1,0
192,256,13013,1,0
192,224,13101,1,0
192,144,13278,1,0
240,80,13454,1,0
288,144,13631,1,0
384,352,13984,6,0,B|336:288|384:224,1,140
448,160,14337,2,0,B|496:96|432:32,1,140
352,32,14690,1,0
288,96,14866,5,0
256,112,14954,1,0
224,96,15043,1,0
160,32,15219,1,0
80,32,15396,6,0,B|32:64|32:176,1,140
32,240,15749,1,0
80,304,15925,1,0
160,320,16101,1,0
240,320,16278,2,0,B|384:320,1,140
464,112,16807,6,0,B|352:224,1,140
400,144,17160,2,0,B|288:32,1,140
336,112,17513,2,0,B|224:224,1,140
272,144,17866,2,0,B|160:32,1,140
208,112,18219,2,0,B|96:224,1,140
48,256,18572,2,0,B|112:320|176:272|176:240|176:240,1,140
256,256,18925,1,0
336,256,19101,1,0
416,256,19278,1,0
256,160,19631,6,0,B|256:16,4,140
256,224,20513,6,0,B|256:368,4,140
256,144,21396,1,0
304,80,21572,1,0
384,48,21749,1,0
464,64,21925,1,0
464,64,22101,1,0
384,192,22454,6,0,B|352:256|352:256|320:192,1,140
288,128,22807,2,0,B|256:64|256:64|224:128,1,140
192,192,23160,2,0,B|160:256|160:256|128:192,1,140
96,128,23513,1,0
96,48,23690,1,0
16,48,23866,1,0
16,128,24043,6,0,B|16:272,1,140
16,352,24396,1,0
96,352,24572,1,0
176,352,24749,1,0
256,352,24925,2,0,B|256:64,1,280
336,48,25454,6,0,B|480:48,2,140
256,112,25984,1,0
176,192,26160,6,0,B|32:192,2,140
256,272,26690,1,0
336,336,26866,6,0,B|480:336,2,140
256,336,27396,1,0
176,336,27572,2,0,B|32:336,1,140
64,192,28101,5,0
128,112,28278,1,0
208,48,28454,1,0
304,48,28631,1,0
384,112,28807,1,0
448,192,28984,5,0
448,272,29160,2,0,B|448:352|352:352,1,140
256,336,29513,2,0,B|256:192,4,140
64,272,30396,2,0,B|64:352|160:352,1,140
256,112,30925,5,0
384,112,31101,1,0
320,272,31278,1,0
256,112,31454,1,0
176,272,31631,1,0
128,112,31807,1,0
256,192,31984,1,0
256,192,32160,1,0
256,112,32337,1,0
256,272,32513,1,0
256,112,32690,1,0
256,272,32866,1,0
256,112,33043,1,0
256,192,33219,1,0
256,192,33396,1,0
176,192,33749,6,0,B|32:192,1,140,0|0
32,112,34101,2,0,B|176:112,1,140
192,32,34454,2,0,B|336:32,1,140
336,112,34807,2,0,B|480:112,1,140
480,192,35160,2,0,B|336:192,1,140
256,272,35513,1,0
256,192,35690,1,0
256,112,35866,1,0
256,192,36043,1,0
256,272,36219,1,0
256,64,38513,6,0,B|256:208,1,140,0|0
256,288,39043,1,0
256,320,41337,6,0,B|256:176,1,140,0|0
256,96,41866,1,0
256,192,44160,5,0
256,192,44337,1,0
256,192,44513,1,0
256,192,44690,1,0
96,192,46278,6,0,B|176:192,3,70,0|0|0|0
166,192,46631,2,0,B|256:144,3,70
227,159,46984,2,0,B|304:192,3,70
293,186,47337,2,0,B|425:186,2,70
416,48,47866,5,0
416,144,48043,1,2
336,48,48219,1,0
336,176,48396,1,0
256,48,48572,1,0
256,208,48749,5,2
176,48,48925,1,0
176,176,49102,1,0
96,48,49278,1,0
96,144,49454,5,2
96,224,49631,2,0,B|96:304|192:304,1,140
256,352,49984,1,0
320,304,50160,2,0,B|400:304|400:208,1,140
416,336,50690,5,0
416,240,50866,1,2
336,336,51043,1,0
336,208,51219,1,0
256,336,51396,1,0
256,176,51572,5,2
176,336,51749,1,0
176,208,51925,1,0
96,336,52102,1,0
96,240,52278,5,2
96,160,52454,2,0,B|96:80|192:80,1,140
256,32,52807,1,0
320,80,52984,2,0,B|400:80|400:176,1,140
256,128,53513,5,0
256,208,53690,2,0,B|256:288,4,70
256,128,54219,1,2
176,128,54396,2,0,B|96:128,4,70
256,128,54925,1,2
336,128,55102,2,0,B|416:128,4,70
256,128,55631,1,2
256,48,55807,1,2
256,128,55984,1,2
80,48,56337,6,0,B|48:112|48:192,1,140
64,256,56690,1,0
112,320,56866,1,2
192,336,57043,1,0
272,336,57219,2,0,B|352:336|416:288,1,140
464,240,57572,2,0,B|480:176|464:96,1,140,2|0
400,48,57925,5,0
352,112,58102,1,0
304,48,58278,1,2
256,112,58454,1,0
208,48,58631,1,0
128,48,58807,6,0,B|80:96|64:144,1,104.999996870756,0|0
32,208,59337,2,0,B|32:272|64:304,1,104.999996870756
128,256,59690,1,0
192,208,59866,1,0
128,160,60043,1,0
192,112,60219,2,0,B|256:64|304:96,1,104.999996870756
320,160,60749,6,0,B|368:176|432:128,1,104.999996870756,0|0
464,80,61102,1,0
384,48,61278,1,0
464,80,61454,1,0
480,160,61631,2,0,B|496:208|480:288|416:304|352:272,1,209.999993741512
288,256,62160,6,0,B|256:224|224:256|176:192,1,104.999996870756,0|0
128,240,62513,2,0,B|192:240|224:176,1,104.999996870756
256,128,62866,1,0
176,144,63043,2,0,B|192:192|240:224|320:224|352:176,1,209.999993741512
368,112,63572,6,0,B|320:192|416:208,1,104.999996870756,0|0
464,208,63925,2,0,B|400:208|352:272,1,104.999996870756
368,320,64278,2,0,B|368:256|288:224,1,104.999996870756
64,48,64984,5,0
112,112,65160,1,0
160,176,65337,1,0
208,112,65513,1,0
256,48,65690,1,0
304,112,65866,1,0
64,336,66396,5,0
112,272,66572,1,0
160,208,66749,1,0
208,272,66925,1,0
256,336,67102,1,0
304,272,67278,1,0
464,192,67807,6,0,B|464:80,1,104.999996870756,0|0
48,192,68513,6,0,B|48:304,1,104.999996870756
256,48,70102,6,0,B|256:160,1,104.999996870756,0|0
256,224,70631,1,0
336,160,70807,1,0
176,160,70984,1,0
256,304,71160,1,0
256,304,71337,1,0
256,224,71513,6,0,B|256:112,1,104.999996870756,0|0
176,48,72043,1,0
112,96,72219,1,0
48,160,72396,1,0
96,224,72572,1,0
144,288,72749,1,0
208,336,72925,6,0,B|320:336,1,104.999996870756,0|0
384,304,73454,1,0
464,240,73631,1,0
304,240,73807,1,0
384,176,73984,1,0
384,96,74160,1,0
384,16,74337,6,0,B|272:16,1,104.999996870756,0|0
208,48,74866,1,0
144,96,75043,1,0
208,144,75219,1,0
288,144,75396,1,0
368,144,75572,1,0
448,144,75749,6,0,B|448:256,1,104.999996870756,0|0
384,288,76278,1,0
320,240,76454,1,0
256,288,76631,1,0
192,240,76807,1,0
144,176,76984,1,0
64,176,77160,6,0,B|128:176|144:112,1,104.999996870756,0|0
96,64,77690,2,0,B|128:112|192:112,1,104.999996870756
256,128,78219,1,0
304,64,78396,1,0
384,32,78572,6,0,B|480:80|304:128|480:176,1,209.999993741512
480,256,79102,5,0
480,256,79278,2,0,B|368:256|352:176|256:288,1,209.999993741512
208,304,79807,5,0
208,304,79984,2,0,B|96:256|240:208|128:128,1,209.999993741512
64,80,80513,1,0
128,32,80690,1,0
208,32,80866,1,0
288,32,81043,1,0
368,32,81219,1,0
448,32,81396,6,0,B|448:96|448:96|416:144,1,104.999996870756,0|0
368,176,81925,1,0
288,240,82102,1,0
208,176,82278,1,0
288,128,82454,1,0
208,176,82631,5,0
112,176,82807,1,0
160,112,82984,1,0
208,48,83160,1,0
288,48,83337,5,0
368,48,83513,1,0
464,48,83690,2,0,B|432:96|432:96|464:144,1,104.999996870756
480,208,84043,2,0,B|496:256|496:256|448:320,1,104.999996870756
304,272,84572,6,0,B|256:320|160:288,1,140,0|0
112,336,84925,2,0,B|224:288|160:192,1,140
144,160,85278,1,0
80,208,85454,2,0,B|128:256|208:224|208:208,1,104.999996870756
240,176,85807,1,0
288,112,85984,2,0,B|320:64|384:64,1,104.999996870756
448,64,86337,1,0
448,144,86513,1,0
448,224,86690,1,0
448,304,86866,1,0
448,304,87043,1,0
288,176,87396,5,0
240,112,87572,2,0,B|208:64|128:64,1,104.999996870756
80,48,87925,1,0
32,112,88102,1,0
48,192,88278,2,0,B|96:240|144:192,1,104.999996870756
224,192,88631,2,0,B|272:240|336:176,1,104.999996870756
400,192,88984,5,0
368,112,89160,1,0
400,192,89337,1,0
384,272,89513,1,0
400,192,89690,1,0
480,192,89866,1,0
256,336,90219,5,0
176,320,90396,1,0
112,272,90572,1,0
64,208,90749,1,0
64,128,90925,1,0
112,64,91102,5,0
192,32,91278,1,0
272,32,91454,1,0
352,48,91631,1,0
400,112,91807,5,0
416,192,91984,1,0
416,272,92160,2,0,B|416:336|352:352,3,104.999996870756
256,192,103984,5,0
256,32,104337,1,0
256,112,104513,2,0,B|256:176,4,52.4999984353781
256,352,105043,1,0
256,272,105219,2,0,B|256:208,4,52.4999984353781
80,192,105749,1,0
160,192,105925,2,0,B|224:192,4,52.4999984353781
432,192,106454,1,0
352,192,106631,2,0,B|288:192,2,52.4999984353781
142,305,107160,5,0
199,248,107337,2,0,B|244:203,4,52.4999984353781
369,78,107866,1,0
312,135,108043,2,0,B|267:180,4,52.4999984353781
380,316,108572,1,0
323,259,108749,2,0,B|278:214,4,52.4999984353781
131,67,109278,1,0
188,124,109454,2,0,B|233:169,2,52.4999984353781
256,352,109984,5,0
256,272,110160,2,0,B|256:208,4,52.4999984353781
256,32,110690,1,0
256,112,110866,2,0,B|256:176,4,52.4999984353781
80,192,111396,1,0
160,192,111572,2,0,B|224:192,4,52.4999984353781
432,192,112102,1,0
352,192,112278,2,0,B|288:192,2,52.4999984353781
256,192,112807,5,0
304,128,112984,1,0
208,128,113160,1,0
352,64,113337,1,0
160,64,113513,1,0
256,32,113690,1,0
256,112,113866,1,0
256,192,114043,1,0
256,272,114219,2,0,B|256:336,12,52.4999984353781
256,48,115631,5,0
176,48,115807,2,0,B|48:48,1,104.999996870756
32,112,116160,2,0,B|32:224,1,104.999996870756
80,272,116513,1,0
160,272,116690,2,0,B|304:272,1,140
368,224,117219,6,0,B|368:80,1,140
448,48,117572,2,0,B|448:192,1,140
448,272,117925,1,0
448,352,118102,2,0,B|288:352,1,140
224,352,118631,6,0,B|224:144,1,209.999993741512
176,80,119160,1,0
272,80,119337,1,0
336,32,119513,2,0,B|448:32,2,104.999996870756
272,80,120043,5,0
176,80,120219,1,0
112,32,120396,2,0,B|0:32,2,104.999996870756,0|0|0
112,112,120925,2,0,B|112:224,1,104.999996870756
112,288,121454,6,0,B|224:224,1,104.999996870756,0|0
208,160,121807,2,0,B|320:224,1,104.999996870756
304,288,122160,1,0
384,288,122337,2,0,B|384:144,1,140
384,64,122866,6,0,B|320:16|256:64,1,140
208,128,123396,2,0,B|144:192,1,70
112,240,123749,2,0,B|176:304|256:304|336:304|400:240,1,280
448,224,124278,5,0
400,288,124454,2,0,B|336:352|256:352|176:352|112:288,1,280
80,272,124984,5,0
32,208,125160,2,0,B|32:128|32:128|96:128|96:128|96:64|96:64|176:64|176:64|176:128|176:128|256:128,1,420
448,80,126043,6,0,B|496:144|496:208|448:288|384:320,1,280,0|0
320,352,126572,1,0
256,48,137866,6,0,B|128:48|128:48|128:176|128:176|256:176|256:176|256:304|256:304|112:304|112:304,1,612.499972619118
80,304,138925,2,0,B|16:304|16:304|16:240,1,122.499994523824
16,160,139278,1,0
16,80,139454,2,0,B|16:16|16:16|128:16|128:16|128:208|128:208|256:208|256:208|256:192,1,489.999978095294
256,16,140513,5,0
256,96,140690,2,0,B|256:144|256:144|320:144|320:144|320:192|320:192|256:192|256:192|192:192|192:192|192:240|192:240|256:240|256:240|256:352,1,489.999978095294
336,304,141572,1,0
448,160,141925,1,0
432,80,142102,1,0
368,32,142278,2,0,B|240:32,1,122.499994523824
176,80,142631,2,0,B|128:128,3,61.2499972619118
132,123,142984,2,0,B|176:176,3,61.2499972619118
171,170,143337,2,0,B|224:224|224:304,1,122.499994523824
448,320,143866,5,0
448,240,144043,2,0,B|448:112,1,104.999996870756
448,48,144396,2,0,B|384:48,3,52.4999984353781
395,48,144749,2,0,B|352:80,3,52.4999984353781
353,79,145102,2,0,B|288:80,3,52.4999984353781
300,79,145454,2,0,B|256:48,3,52.4999984353781
257,49,145807,2,0,B|192:96,3,52.4999984353781
215,79,146160,2,0,B|176:112,3,52.4999984353781
174,113,146513,2,0,B|64:112|64:112|64:224|64:224|160:224,1,314.999990612269
240,224,147219,6,0,B|304:224,2,52.4999984353781,0|0|0
352,272,147572,1,0
400,336,147749,2,0,B|464:336|480:272,1,104.999996870756
480,192,148102,2,0,B|480:128,3,52.4999984353781
480,139,148454,2,0,B|480:32|320:32,1,209.999993741512
256,32,148984,2,0,B|256:160,1,104.999996870756
256,224,149513,6,0,B|256:288,5,52.4999984353781,0|0|0|0|0|0
240,272,150043,2,0,B|192:336,5,52.4999984353781
192,304,150572,2,0,B|128:320,5,52.4999984353781
144,304,151102,2,0,B|80:272,5,52.4999984353781
112,272,151631,2,0,B|80:192,5,52.4999984353781
112,208,152160,2,0,B|112:144,5,52.4999984353781
128,144,152690,2,0,B|128:80,5,52.4999984353781
144,80,153219,2,0,B|201:28,3,52.4999984353781
208,48,153572,6,0,B|272:0|368:0|448:16|480:80|496:144,1,350
480,256,154278,2,0,B|448:304|368:320|336:320,1,140
352,224,154631,2,0,B|288:176|208:192,1,140
208,272,154984,2,0,B|128:288|48:240|32:160|128:96,1,280
176,128,183043,6,0,B|352:272,1,209.999993741512
400,304,183572,2,0,B|464:352,3,52.4999984353781
442,335,183925,2,0,B|442:230,1,104.999996870756
480,160,184278,6,0,B|480:96,3,52.4999984353781,0|0|0|0
480,160,184631,2,0,B|352:160,1,104.999996870756
240,160,184984,6,0,B|304:160,3,52.4999984353781,0|0|0|0
240,160,185337,2,0,B|240:48,1,104.999996870756
160,32,185690,1,0
80,32,185866,1,0
32,192,186219,5,0
32,272,186396,1,0
64,272,186484,1,0
96,272,186572,1,0
176,272,186749,2,0,B|288:272,1,104.999996870756
368,272,187102,5,0
400,272,187190,1,0
432,272,187278,1,0
480,208,187454,2,0,B|480:96,1,104.999996870756
432,48,187807,1,0
400,48,187896,1,0
368,48,187984,1,0
288,48,188160,1,0
288,160,188337,1,0
208,96,188513,1,0
208,224,188690,1,0
64,336,189043,5,0
160,336,189219,1,0
256,336,189396,1,0
256,336,189572,2,0,B|352:272,1,104.999996870756
432,224,189925,5,0
464,128,190101,1,0
464,128,190278,2,0,B|384:48,1,104.999996870756
272,48,190631,1,0
160,64,190807,1,0
160,64,190984,2,0,B|160:192,1,104.999996870756
160,240,191337,1,0
160,240,191513,1,0
256,192,191690,12,0,194337
64,48,194690,5,0
144,48,194866,1,0
208,112,195043,1,0
272,48,195219,1,0
336,112,195396,1,0
416,48,195572,1,0
480,112,195749,1,0
416,256,195925,1,0
336,112,196102,1,0
272,256,196278,1,0
208,112,196454,1,0
128,256,196631,1,0
64,112,196807,1,0
256,16,196984,1,0
480,112,197160,1,0
256,192,197513,12,0,199984
80,288,200337,5,0
144,336,200513,2,0,B|224:336,3,70
288,336,201219,2,0,B|368:336,3,70
432,336,201925,2,0,B|432:256,3,70
432,192,202631,1,0
432,112,202807,1,0
256,96,203160,5,0
256,208,203337,1,0
256,320,203513,1,0
304,224,203690,1,0
208,304,203866,1,0
320,256,204043,1,0
192,272,204219,1,0
304,304,204396,1,0
208,224,204572,1,0
256,320,204749,1,0
256,208,204925,1,0
208,304,205102,1,0
304,224,205278,1,0
192,272,205454,1,0
320,256,205631,1,0
