osu file format v9

[General]
AudioFilename: 05 IRON ATTACK! - Cavalrymaid.mp3
AudioLeadIn: 1000
PreviewTime: 47513
Countdown: 1
SampleSet: Normal
StackLeniency: 0.7
Mode: 0
LetterboxInBreaks: 1

[Editor]
DistanceSpacing: 1.2
BeatDivisor: 4
GridSize: 16

[Metadata]
Title:Cavalrymaid
Artist:IRON ATTACK!
Creator:DoKoLP
Version:Hard
Source:Touhou
Tags:TH06 Embodiment of the Scarlet Devil EosD Flowering Night Izayoi Sakuya

[Difficulty]
HPDrainRate:5
CircleSize:4
OverallDifficulty:6
ApproachRate:8
SliderMultiplier:1.4
SliderTickRate:1

[Events]
//Background and Video events
0,0,"bg.jpg"
//Break Periods
2,68889,79234
2,104184,114528
2,155184,182293
//Storyboard Layer 0 (Background)
//Storyboard Layer 1 (Fail)
//Storyboard Layer 2 (Pass)
//Storyboard Layer 3 (Foreground)
//Storyboard Sound Samples
//Background Colour Transformations
3,100,163,162,255

[TimingPoints]
1102,352.941176470588,4,1,0,100,1,0
1102,-133.333333333333,4,1,0,100,0,0
115794,-133.333333333333,4,1,0,100,0,0
196984,-66.6666666666667,4,1,0,100,0,0
200337,-133.333333333333,4,1,0,100,0,0

[Colours]
Combo1 : 206,36,36
Combo2 : 119,202,150
Combo3 : 60,58,118

[HitObjects]
256,144,1102,2,4,B|256:16,1,104.999996870756
320,176,1807,2,4,B|432:176,1,104.999996870756
256,224,2513,6,0,B|256:336,1,104.999996870756
176,352,3219,2,0,B|64:352,1,104.999996870756
32,288,3925,2,0,B|32:176,1,104.999996870756
80,112,4631,1,0
256,112,5160,1,0
368,112,5513,6,0,B|432:112,4,52.4999984353781
400,192,6396,2,0,B|464:192,3,52.4999984353781
480,272,7101,2,0,B|416:272,5,52.4999984353781
256,272,8337,5,0
176,272,8513,2,0,B|112:272|80:208,1,104.999996870756
64,144,9219,2,0,B|64:80|128:48,1,104.999996870756
192,32,9925,2,0,B|256:16|304:48,1,104.999996870756
384,176,10807,1,0
336,320,11160,5,0
256,336,11337,2,0,B|256:224,3,104.999996870756
256,144,12749,1,0
256,48,13101,1,0
448,48,13631,1,0
448,192,13984,5,0
448,256,14160,2,0,B|400:304|352:288,2,104.999996870756
448,128,15219,6,0,B|336:128,1,104.999996870756
272,128,15925,2,0,B|160:128,1,104.999996870756
112,96,16454,1,0
256,32,17337,5,0
464,176,18043,1,0
256,336,18749,2,0,B|256:160,1,157.499995306134
256,32,19631,5,0
256,32,19807,1,0
48,192,20160,2,0,B|160:192,1,104.999996870756
480,192,20866,2,0,B|368:192,1,104.999996870756
256,192,21572,1,0
256,192,21749,1,0
256,32,22101,1,0
320,112,22454,6,0,B|432:112|448:192,1,157.499995306134
384,224,23337,2,0,B|352:256|400:288|320:288,1,104.999996870756
240,288,24043,2,0,B|208:272|176:320|144:240,1,104.999996870756
112,128,24749,1,0
96,64,24925,1,0
256,192,25278,12,0,27749
256,48,28101,5,0
256,112,28278,2,0,B|256:176,3,52.4999984353781
256,224,28984,2,0,B|256:288,3,52.4999984353781
256,336,29690,1,0
256,192,30043,1,0
256,48,30396,1,0
256,48,30572,1,0
144,96,30925,5,0
96,144,31101,2,0,B|64:192|112:256,1,104.999996870756
192,304,31807,1,0
192,304,32160,2,0,B|256:304|288:256,1,104.999996870756
368,176,32866,2,0,B|416:128,1,52.4999984353781
448,96,33219,2,0,B|496:144,1,52.4999984353781
480,288,33749,5,0
432,336,33925,1,0
320,336,34278,1,0
256,336,34454,1,0
192,336,34631,1,0
80,336,34984,2,0,B|32:288|80:240,1,104.999996870756
144,160,35690,2,0,B|192:112|144:64,1,104.999996870756
80,48,36219,1,0
256,160,38513,6,0,B|256:224,3,52.4999984353781
256,224,41337,6,0,B|256:160,3,52.4999984353781
256,160,44160,6,0,B|256:224,3,52.4999984353781
224,160,46278,6,0,B|192:160,2,26.2499992176891
224,224,46631,2,0,B|224:256,2,26.2499992176891
288,224,46984,2,0,B|320:224,2,26.2499992176891
288,160,47337,2,0,B|288:128,2,26.2499992176891
256,192,48043,12,0,50337
256,192,50690,5,0
256,192,50866,12,0,53160
256,192,53513,5,0
256,192,53690,12,0,55984
256,192,56337,5,0
256,128,56513,2,0,B|256:64,3,52.4999984353781
208,32,57219,1,0
144,32,57396,1,0
96,80,57572,2,0,B|96:144,7,52.4999984353781
256,48,59160,5,0
256,48,59337,2,0,B|256:112,1,52.4999984353781
256,176,59690,2,0,B|256:240,1,52.4999984353781
256,304,60043,1,0
256,304,60219,2,0,B|256:352|256:352|320:352|320:352|352:304,1,157.499995306134
400,224,61102,6,0,B|416:192|416:192|416:160,3,52.4999984353781
384,64,62160,1,0
256,64,62513,1,0
128,64,62866,2,0,B|64:64,1,52.4999984353781
80,192,63572,5,0
192,192,63925,2,0,B|256:192,1,52.4999984353781
320,192,64278,2,0,B|384:192,1,52.4999984353781
400,288,64984,5,0
256,352,65337,1,0
96,288,65690,2,0,B|96:224,1,52.4999984353781
96,112,66396,5,0
176,64,66749,2,0,B|224:32,1,52.4999984353781
288,32,67102,2,0,B|336:64,1,52.4999984353781
448,192,67807,2,0,B|448:256,1,52.4999984353781
64,192,68513,2,0,B|64:128,1,52.4999984353781
256,192,79984,12,0,81396
384,64,81749,1,0
384,128,81925,2,0,B|384:192,3,52.4999984353781
384,240,82631,1,0
352,288,82807,1,0
304,240,82984,2,0,B|304:304,2,52.4999984353781
272,192,83513,1,0
240,144,83690,2,0,B|192:96,3,52.4999984353781
48,208,84572,5,0
64,272,84749,2,0,B|80:320,1,52.4999984353781
144,336,85102,1,0
208,336,85278,1,0
272,336,85454,2,0,B|320:320,1,52.4999984353781
384,304,85807,1,0
432,256,85984,1,0
448,192,86160,2,0,B|448:128,5,52.4999984353781
256,192,87219,12,0,89866
160,128,93043,5,0
224,128,93219,2,0,B|224:80,2,26.2499992176891
288,144,93572,2,0,B|304:112,2,26.2499992176891
336,192,93925,2,0,B|368:176,2,26.2499992176891
352,256,94278,2,0,B|384:256,2,26.2499992176891
336,320,94631,2,0,B|368:336,6,26.2499992176891
272,288,95337,1,0
256,224,95513,1,0
80,48,95866,5,0
144,48,96043,1,0
256,48,96396,1,0
352,48,96749,2,0,B|416:48,2,52.4999984353781
256,192,97454,2,0,B|256:256,5,52.4999984353781
112,288,98690,5,0
112,224,98866,2,0,B|128:224|160:176,1,52.4999984353781
192,144,99219,1,0
384,112,99572,5,0
384,176,99749,2,0,B|352:224,1,52.4999984353781
320,272,100102,1,0
256,272,100278,1,0
192,288,100454,1,0
128,272,100631,1,0
128,208,100807,1,0
128,144,100984,2,0,B|128:80,1,52.4999984353781
256,192,101337,12,0,103984
208,192,115278,5,0
256,64,115631,1,0
336,64,115807,2,0,B|400:64|432:112,1,104.999996870756
464,192,116513,2,0,B|464:256,1,52.4999984353781
176,320,117219,6,0,B|112:320|80:272,1,104.999996870756
48,240,117749,1,0
48,192,117925,2,0,B|48:160|64:144,1,52.4999984353781
256,48,118631,5,0
256,128,118984,2,0,B|256:192,1,52.4999984353781
256,224,119337,2,0,B|256:288,1,52.4999984353781
416,272,120043,5,0
464,208,120396,2,0,B|496:160|496:96|448:64,1,157.499995306134
256,48,121454,1,0
256,128,121807,1,0
256,208,122160,1,0
256,256,122337,1,0
112,192,122866,5,0
176,192,123219,2,0,B|240:192,3,52.4999984353781
320,192,124278,2,0,B|384:192,1,52.4999984353781
256,32,124984,2,0,B|256:96,1,52.4999984353781
128,48,126572,5,0
64,144,127102,2,0,B|16:176|16:176|64:208|64:208|112:176|112:176|160:208|160:208|192:176|192:176,1,262.499992176891
448,144,128513,6,0,B|496:176|496:176|448:208|448:208|400:176|400:176|352:208|352:208|320:176|320:176,1,262.499992176891
256,32,129925,6,0,B|272:64|272:64|240:112|240:112|272:160|272:160|240:208|240:208|272:256|272:256,1,262.499992176891
256,336,131337,1,0
256,240,131690,1,0
256,144,132043,2,0,B|256:80,1,52.4999984353781
192,96,132749,6,0,B|192:32|192:32|304:32|304:32|352:80|400:80,1,262.499992176891
320,288,134160,2,0,B|320:352|320:352|208:352|208:352|160:304|112:304,1,262.499992176891
256,192,135572,2,0,B|256:128,1,52.4999984353781
256,48,136102,1,0
256,112,136278,1,0
256,176,136454,2,0,B|256:240|256:240|320:272|352:240,1,157.499995306134
400,208,137160,1,0
224,64,137866,2,0,B|144:32|64:112,1,157.499995306134
32,160,138572,1,0
32,240,138748,1,0
32,320,138925,1,0
112,320,139101,2,0,B|176:320|208:272,1,104.999996870756
256,48,140513,5,0
256,48,140690,2,0,B|256:208,1,157.499995306134
256,336,141572,1,0
256,336,141925,1,0
336,336,142101,1,0
416,336,142278,2,0,B|416:272,1,52.4999984353781
416,208,142631,1,0
368,144,142807,1,0
304,96,142984,1,0
224,96,143160,1,0
160,144,143337,1,0
256,192,143690,12,0,148631
256,192,149337,5,0
128,192,149690,1,0
192,80,150043,1,0
320,80,150396,1,0
384,192,150749,5,0
256,192,151101,1,0
320,304,151454,1,0
192,304,151807,1,0
144,192,152160,5,0
256,192,152513,1,0
384,192,152866,1,0
256,192,153219,1,0
256,192,153572,5,0
256,192,154278,1,0
256,192,154543,1,0
256,192,154807,1,0
256,192,154984,1,0
256,48,183043,6,0,B|256:160,1,104.999996870756
240,208,183572,2,0,B|240:256|208:272,1,52.4999984353781
272,208,183925,2,0,B|272:256|304:272,1,52.4999984353781
240,304,184278,2,0,B|240:352|208:368,1,52.4999984353781
272,304,184631,2,0,B|272:352|304:368,1,52.4999984353781
240,240,184984,2,0,B|240:192|208:176,1,52.4999984353781
272,240,185337,2,0,B|272:192|304:176,1,52.4999984353781
256,128,185690,1,0
256,64,185866,1,0
144,48,186396,5,0
64,128,186749,1,0
144,208,187102,1,0
224,128,187454,1,0
304,48,187807,1,0
384,128,188160,1,0
304,208,188513,1,0
304,208,188690,1,0
208,304,189043,5,0
176,272,189219,2,0,B|128:224,3,52.4999984353781
112,208,189925,1,0
80,176,190102,2,0,B|32:128,4,52.4999984353781
112,208,190984,1,0
144,240,191160,2,0,B|192:288,1,52.4999984353781
208,304,191513,1,0
304,304,191866,5,0
336,272,192043,2,0,B|384:224,3,52.4999984353781
400,208,192749,1,0
432,176,192925,2,0,B|480:128,4,52.4999984353781
400,208,193807,1,0
368,240,193984,2,0,B|320:288,1,52.4999984353781
304,304,194337,1,0
256,224,194690,5,0
256,144,194866,2,0,B|256:80|208:48,1,104.999996870756
304,192,195572,2,0,B|368:192|400:144,1,104.999996870756
256,240,196278,2,0,B|256:304|304:336,1,104.999996870756
208,192,196984,2,0,B|144:192|112:240,1,104.999996870756
256,192,197513,12,0,199984
256,112,200337,5,0
320,112,200513,2,0,B|384:112,1,52.4999984353781
416,144,200866,2,0,B|464:192,1,52.4999984353781
432,224,201219,2,0,B|384:272,1,52.4999984353781
352,288,201572,2,0,B|304:272,1,52.4999984353781
256,272,201925,2,0,B|192:272,1,52.4999984353781
160,256,202278,2,0,B|112:208,1,52.4999984353781
128,176,202631,2,0,B|176:144,1,52.4999984353781
256,192,203160,5,0
256,192,203337,12,0,205631
