osu file format v9

[General]
AudioFilename: 07-Main Title (IRIS OST).mp3
AudioLeadIn: 0
PreviewTime: 17826
Countdown: 0
SampleSet: Soft
StackLeniency: 0.7
Mode: 0
LetterboxInBreaks: 1

[Editor]
DistanceSpacing: 1.8
BeatDivisor: 4
GridSize: 8

[Metadata]
Title:Main Title
Artist:IRIS
Creator:taNa_Coppola
Version:NSS
Source:
Tags:

[Difficulty]
HPDrainRate:9
CircleSize:5
OverallDifficulty:6
ApproachRate:7
SliderMultiplier:1.1
SliderTickRate:2

[Events]
//Background and Video events
0,0,"IRIS_BG.jpg"
//Break Periods
2,31986,43060
2,63399,69147
2,75030,84799
2,103291,103930
//Storyboard Layer 0 (Background)
//Storyboard Layer 1 (Fail)
//Storyboard Layer 2 (Pass)
//Storyboard Layer 3 (Foreground)
//Storyboard Sound Samples
//Background Colour Transformations
3,100,163,162,255

[TimingPoints]
700,434.782608695652,4,2,0,60,1,0
3830,-200,4,2,0,50,0,0
7308,-100,4,2,0,50,0,0
9917,-200,4,2,0,50,0,0
12526,-100,4,2,0,50,0,0
16873,-200,4,2,0,50,0,0
17526,-100,4,2,0,50,0,0
22960,-50,4,2,0,50,0,0
24699,-100,4,2,0,50,0,0
26439,-100,4,2,0,50,0,0
27330,-100,4,2,0,50,0,0
28178,-50,4,1,0,22,0,1
29047,-50,4,1,0,48,0,1
29917,-50,4,1,0,77,0,1
30786,-50,4,1,0,100,0,1
31873,-100,4,2,0,59,0,0
45569,-200,4,2,0,59,0,0
46113,-50,4,2,0,59,0,0
52526,-50,4,1,0,0,0,1
52960,-50,4,1,0,15,0,1
53395,-50,4,1,0,28,0,1
53830,-50,4,1,0,42,0,1
54265,-50,4,1,0,56,0,1
54699,-50,4,1,0,69,0,1
55134,-50,4,1,0,85,0,1
55569,-50,4,1,0,100,0,1
56004,-50,4,2,0,61,0,0
58939,-50,4,2,0,61,0,1
59482,-50,4,1,0,40,0,1
60352,-50,4,1,0,71,0,1
61221,-50,4,2,0,61,0,0
62091,-50,4,2,0,31,0,0
62308,-50,4,2,0,77,0,0
62743,-100,4,2,0,77,0,0
69917,-50,4,2,0,59,0,0
71221,-100,4,2,0,59,0,0
72091,-50,4,2,0,59,0,0
85569,-100,4,2,0,59,0,0
87308,-50,4,2,0,59,0,0
92547,-100,4,2,0,59,0,0
93395,-50,4,1,0,15,0,0
93613,-50,4,1,0,27,0,0
93721,-50,4,1,0,54,0,0
93830,-50,4,1,0,61,0,0
93939,-50,4,1,0,67,0,0
94047,-50,4,1,0,76,0,0
94156,-50,4,1,0,82,0,0
94265,-50,4,1,0,93,0,0
94373,-50,4,1,0,100,0,0
96004,-100,4,1,0,100,0,0
104699,-50,4,2,0,60,0,0
108178,-100,4,2,0,60,0,0
109917,-50,4,2,0,60,0,0
111439,-100,4,2,0,60,0,0
115156,-50,4,1,0,60,0,0
115917,-50,4,1,0,60,0,0
116678,-50,4,1,0,60,0,0
118417,-100,4,1,0,60,0,0
122091,-50,4,1,0,60,0,1
134917,-200,4,1,0,60,0,1
135134,-50,4,1,0,10,0,0
135460,-50,4,1,0,36,0,0
135678,-50,4,1,0,37,0,0
135895,-50,4,1,0,72,0,0
136113,-50,4,1,0,100,0,0

[Colours]
Combo1 : 0,128,0
Combo2 : 0,128,255
Combo3 : 255,0,255

[HitObjects]
256,192,917,12,0,3525
80,48,3960,5,0
176,96,4395,1,0
80,144,4830,2,0,B|80:176|128:192,1,55
172,100,5699,1,0
264,48,6134,1,0
312,144,6569,2,0,B|312:176|264:192,1,55
80,240,7439,6,0,B|48:176|96:128,1,110
424,144,8308,2,0,B|456:208|408:256,1,110
256,304,9178,1,0
256,144,9613,1,0
432,240,10047,2,0,B|432:264|432:280|408:296,1,55
256,312,10917,5,0
152,288,11352,1,0
88,208,11786,2,0,B|72:184|72:144,1,55
224,64,12656,6,0,B|288:32|336:80,1,110
112,232,13526,2,0,B|80:168|128:120,1,110
312,328,14395,2,0,B|248:360|200:312,1,110
104,192,15265,1,0
416,192,15700,1,0
56,192,16134,1,0
176,272,16569,1,0
176,112,17004,2,0,B|176:80|224:64,1,55
256,80,17656,6,0,B|256:112,3,18.3333333333333
400,88,18308,1,0
408,232,18743,1,0
368,296,18960,1,0
296,304,19178,1,0
288,160,19613,1,0
144,160,20047,1,0
288,296,20482,1,0
384,296,20700,5,0
192,296,20917,1,0
296,192,21352,2,0,B|344:192|392:128,1,110
288,312,22221,2,0,B|336:312|384:248,1,110
368,88,23091,2,0,B|256:56|144:104,3,220
72,224,24830,6,0,B|72:336,1,110
200,224,25699,2,0,B|200:112,1,110
328,224,26569,2,0,B|328:336,1,110
464,224,27439,2,8,B|464:112,1,110
464,112,27982,1,8
464,112,28091,1,8
192,104,28308,1,8
200,216,28526,1,8
104,168,28743,1,8
384,128,29178,5,8
384,224,29395,1,8
384,320,29613,1,8
136,320,30047,1,8
136,224,30265,1,8
136,128,30482,1,8
384,192,30917,5,8
224,48,31352,1,8
80,192,31786,5,4
144,80,43960,6,0,B|368:80,1,220
368,176,45265,1,0
272,176,45699,2,4,B|240:176,6,27.5
256,192,49178,5,0
392,192,49613,1,0
256,192,50047,1,4
120,192,50482,1,0
256,192,50917,5,0
448,192,51352,1,4
64,192,51786,1,0
160,192,52004,1,0
256,192,52221,1,0
256,96,52656,5,8
256,192,52873,1,8
336,112,53091,1,8
256,192,53308,1,8
352,192,53526,1,8
256,192,53743,1,8
336,272,53960,1,8
256,192,54178,1,8
256,288,54395,1,8
256,192,54613,5,8
176,272,54830,1,8
256,192,55047,1,8
160,192,55265,1,8
256,192,55482,1,8
192,112,55699,1,8
256,192,55917,5,4
64,192,56134,1,0
448,192,56569,1,0
128,192,57004,1,0
392,192,57439,1,4
256,192,57873,1,0
256,48,58308,1,0
256,336,58743,1,0
256,192,59178,5,4
80,96,59613,1,8
80,192,59830,1,8
80,288,60047,1,8
256,192,60482,1,8
352,192,60699,1,8
448,192,60917,1,8
448,80,61352,6,0,B|224:80,1,220
64,80,62221,1,8
208,144,62439,1,8
64,208,62656,1,8
208,272,62873,2,4,B|256:272,3,27.5
64,336,70047,5,0
32,240,70265,1,0
64,144,70482,1,0
144,208,70699,1,0
208,128,70917,1,0
304,80,71134,1,0
304,176,71352,5,8
340,140,71569,1,8
400,112,71786,1,8
480,112,72004,1,8
432,224,72221,2,8,B|432:336,1,110
336,288,72656,2,8,B|336:176,1,110
240,224,73091,2,8,B|240:336,1,110
256,192,73526,12,0,74830
256,128,85699,6,0,B|256:240,2,110
112,216,87438,5,0
64,144,87655,1,0
80,56,87872,1,8
152,104,88091,1,0
320,200,88308,5,0
392,248,88525,1,0
480,232,88742,1,8
432,160,88961,1,0
272,48,89177,5,0
192,56,89394,1,0
136,104,89612,1,8
184,160,89830,1,0
320,304,90047,5,0
408,288,90264,1,0
384,200,90482,1,8
328,136,90699,1,0
208,256,90916,5,0
208,256,91025,1,0
208,256,91133,1,0
128,256,91351,1,8
128,136,91785,1,0
128,136,91894,1,0
128,136,92003,1,0
208,136,92220,1,8
352,256,92655,2,10,B|352:304,2,27.5
400,160,93090,1,0
336,80,93307,1,0
144,64,93525,5,8
144,96,93633,1,8
144,128,93742,1,8
144,160,93851,1,8
144,192,93959,1,8
144,224,94068,1,12
144,256,94177,1,12
144,288,94285,1,12
144,320,94394,1,12
96,112,96134,5,0
288,112,97004,1,0
96,112,97873,2,0,B|96:288|96:288|368:288,1,440
352,96,100482,5,0
160,96,101352,2,0,B|160:128|160:128|112:128|112:128|112:160,4,110
144,96,104830,6,0,B|368:96,1,220
368,288,105700,6,0,B|144:288,1,220
176,96,106569,6,0,B|176:208,2,110
336,208,107439,6,0,B|336:96,2,110
216,288,108308,2,10,B|152:288,1,55
304,288,108743,2,10,B|240:288,1,55
368,240,109178,2,10,B|304:240,1,55
464,240,109613,2,10,B|384:240,1,55
480,208,110047,6,10,B|480:96|480:96|368:96,1,220
272,96,110700,2,10,B|160:96,1,110
176,192,111134,2,10,B|64:192,1,110
32,288,111569,6,10,B|112:288,1,55
224,288,112221,1,0
272,208,112439,1,0
320,288,112656,1,8
320,160,113091,1,8
416,224,113308,1,8
416,112,113526,1,8
320,224,113743,1,8
320,64,113960,1,8
208,240,114178,1,8
192,96,114395,2,12,B|80:96,1,110
80,192,115265,5,8
232,264,115482,1,0
80,192,115699,1,0
248,192,115917,1,0
80,192,116134,1,0
232,120,116352,1,0
80,192,116569,1,0
248,192,116786,1,0
416,280,117004,5,8
440,192,117221,1,8
408,112,117439,1,8
320,112,117656,1,8
248,64,117873,5,8
216,144,118090,1,8
128,144,118308,1,8
136,240,118526,1,8
232,264,118743,1,8
232,264,118852,1,8
232,264,118960,2,8,B|280:256|288:280,5,55
256,192,120265,12,12,121569
176,112,122221,6,2,B|368:112,2,165
176,112,122982,1,2
176,112,123091,1,2
176,304,123526,1,8
368,304,123960,1,8
368,304,124069,1,8
368,304,124178,1,8
304,224,124395,1,0
240,144,124613,1,0
176,64,124830,1,8
176,64,124939,1,8
176,64,125047,1,8
176,64,125156,1,8
176,64,125265,1,8
176,272,125700,6,2,B|368:272,2,165
176,272,126460,1,2
176,272,126569,1,2
176,80,127004,1,8
368,80,127439,1,8
368,80,127547,1,8
368,80,127656,1,8
304,160,127873,1,0
240,240,128091,1,0
176,304,128308,2,10,B|176:240,4,55
176,112,129178,6,2,B|400:112|400:112|400:224,1,330
400,272,129939,2,2,B|336:272,1,55
144,272,130482,1,8
144,80,130917,1,8
144,80,131026,1,8
144,80,131134,1,8
48,80,131352,1,0
144,80,131569,1,0
96,160,131786,1,0
96,160,131895,1,0
192,144,132113,1,0
192,144,132221,1,0
208,240,132656,6,2,B|432:240|432:240|432:128,1,330
432,80,133417,2,2,B|368:80,1,55
176,80,133960,1,0
176,272,134395,1,0
176,272,134504,1,0
176,272,134613,1,0
208,176,134830,1,0
384,96,135265,5,14
360,116,135373,1,14
336,140,135482,1,14
312,164,135591,1,14
288,184,135700,1,14
264,204,135808,1,14
240,224,135917,1,14
216,248,136026,1,14
188,268,136134,1,14
