osu file format v9

[General]
AudioFilename: 07-Main Title (IRIS OST).mp3
AudioLeadIn: 0
PreviewTime: 17826
Countdown: 0
SampleSet: Soft
StackLeniency: 0.7
Mode: 0
LetterboxInBreaks: 1

[Editor]
DistanceSpacing: 0.8
BeatDivisor: 4
GridSize: 8

[Metadata]
Title:Main Title
Artist:IRIS
Creator:taNa_Coppola
Version:Hard
Source:
Tags:

[Difficulty]
HPDrainRate:9
CircleSize:5
OverallDifficulty:4
ApproachRate:8
SliderMultiplier:1.1
SliderTickRate:2

[Events]
//Background and Video events
0,0,"IRIS_BG.jpg"
//Break Periods
2,31986,43210
2,47204,48428
2,63291,69297
2,78508,86689
2,99812,100602
//Storyboard Layer 0 (Background)
//Storyboard Layer 1 (Fail)
//Storyboard Layer 2 (Pass)
//Storyboard Layer 3 (Foreground)
//Storyboard Sound Samples
//Background Colour Transformations
3,100,163,162,255

[TimingPoints]
700,434.782608695652,4,2,0,60,1,0
7308,-50,4,2,0,60,0,0
10786,-100,4,2,0,60,0,0
16873,-200,4,2,0,60,0,0
17526,-100,4,2,0,60,0,0
17743,-50,4,2,0,60,0,0
19482,-100,4,2,0,60,0,0
27308,-200,4,2,0,60,0,0
27960,-100,4,2,0,60,0,0
29047,-50,4,2,0,60,0,0
29917,-50,4,1,0,71,0,0
30352,-50,4,1,0,81,0,0
30786,-50,4,1,0,87,0,0
31221,-50,4,1,0,100,0,0
59482,-100,4,2,0,60,0,0
69917,-200,4,2,0,60,0,0
73395,-100,4,2,0,60,0,0
87308,-100,4,2,0,60,0,0
107366,-100,4,2,0,60,0,0
108178,-200,4,2,0,60,0,0
109047,-100,4,2,0,60,0,0
122091,-50,4,1,0,100,0,1
134373,-200,4,1,0,100,0,0
134699,-100,4,1,0,100,0,0
135134,-50,4,2,0,20,0,0
135243,-50,4,2,0,21,0,0
135352,-50,4,2,0,39,0,0
135460,-50,4,2,0,41,0,0
135569,-50,4,2,0,41,0,0
135678,-100,4,2,0,64,0,0
135786,-100,4,2,0,67,0,0
135895,-100,4,2,0,73,0,0
136004,-100,4,2,0,81,0,0
136113,-100,4,2,0,91,0,0

[Colours]
Combo1 : 0,128,0
Combo2 : 0,128,255
Combo3 : 255,0,255

[HitObjects]
256,192,700,12,0,3308
128,80,3960,5,0
48,192,4395,1,0
128,304,4830,2,0,B|256:304,1,110
368,304,5699,1,0
448,192,6134,1,0
368,80,6569,2,0,B|240:80,1,110
384,320,7439,5,8
128,192,7873,1,8
128,320,8308,1,8
384,192,8743,1,8
128,64,9178,2,8,B|392:64,1,220
384,192,10047,2,8,B|160:192,1,220
184,64,10917,5,0
48,64,11352,1,0
48,200,11786,2,8,B|72:248|160:256,1,110
168,128,12656,2,0,B|232:112|288:144,1,110
248,264,13526,2,0,B|272:312|360:320,1,110
376,192,14395,2,8,B|376:128|312:96,1,110
192,80,15265,5,0
136,112,15482,1,0
104,168,15700,1,0
232,176,16134,2,8,B|176:208|168:272,1,110
232,288,16786,1,0
296,304,17004,2,8,B|328:288|328:256,1,55
368,240,17873,6,8,B|144:240,1,220
144,160,18743,2,0,B|368:160,1,220
304,240,19613,2,8,B|176:240,1,110
192,160,20482,2,0,B|304:160,1,110
416,96,21352,1,8
464,144,21569,1,0
480,208,21786,1,0
448,264,22004,1,0
400,304,22221,2,8,B|352:328|280:312,1,110
160,304,23091,2,0,B|160:192,1,110
296,192,23960,2,8,B|296:312,1,110
160,304,24830,5,8
160,240,25047,1,0
160,176,25265,1,0
296,176,25699,1,8
376,112,25917,1,0
296,48,26134,1,0
168,48,26569,1,8
80,104,26786,1,8
80,208,27004,1,8
176,240,27221,1,8
248,168,27439,2,8,B|248:200|280:216,1,55
216,248,28308,6,2,B|216:208,4,27.5
440,112,29178,1,0
176,112,29613,1,0
440,112,30047,5,8
176,176,30482,1,8
440,176,30917,1,8
176,240,31352,1,8
440,240,31786,5,4
256,192,43960,12,0,45265
256,192,45699,12,0,47004
128,96,49178,6,0,B|80:72|136:40|160:40|136:104,1,110
392,96,50047,6,0,B|440:72|384:40|360:40|384:104,1,110
120,288,50917,6,0,B|72:312|128:344|152:344|128:280,1,110
392,288,51786,6,0,B|440:312|384:344|360:344|384:280,1,110
128,288,52656,5,0
256,192,53091,1,0
384,96,53526,5,0
256,192,53960,1,0
128,96,54395,5,0
256,192,54830,1,0
384,288,55265,5,0
256,192,55699,1,0
160,96,56134,6,0,B|352:96|352:96|352:144,1,220
352,288,57004,6,0,B|160:288|160:288|160:240,1,220
160,96,57873,6,0,B|352:96|352:96|352:144,1,220
352,288,58743,6,0,B|160:288|160:288|160:240,1,220
160,128,59613,5,8
48,192,60047,1,0
160,272,60482,1,0
288,272,60917,1,0
432,192,61352,5,8
256,64,61786,1,0
80,192,62221,1,0
256,304,62656,1,10
256,192,62873,1,10
256,64,63091,1,10
160,224,70047,6,0,B|160:160,1,55
352,176,70917,2,0,B|352:240,1,55
240,64,71786,2,0,B|272:64,2,27.5
272,256,72656,2,0,B|240:256,2,27.5
400,256,73526,5,8
432,192,73743,1,0
400,128,73960,1,0
272,128,74395,1,8
240,192,74613,1,0
256,256,74830,1,0
368,192,75265,2,8,B|368:256|288:288,1,110
176,272,76134,2,8,B|176:208|256:176,1,110
256,192,77004,12,0,78308
96,96,87439,5,0
224,96,87873,1,0
160,208,88308,2,8,B|288:208,1,110
352,96,89178,1,0
416,96,89395,1,0
352,96,89613,1,0
416,208,90047,2,8,B|288:208,1,110
320,320,90917,5,0
160,184,91352,1,0
368,224,91786,1,8
176,304,92221,1,0
312,144,92656,1,8
104,160,93091,1,0
256,304,93526,1,8
256,96,93960,1,4
256,136,94069,1,4
256,176,94178,1,4
256,216,94286,1,4
256,256,94395,1,6
256,96,96134,5,0
256,312,97004,1,0
32,312,97873,2,0,B|32:144|32:144|304:144|304:144|304:152,1,440
360,136,101352,6,8,B|352:184|352:184|384:184|384:184|376:232,4,110
128,88,104830,6,0,B|112:88|104:64|136:56|152:72|144:88,2,55
384,296,105700,6,0,B|400:296|408:320|376:328|360:312|368:296,2,55
368,176,106569,1,8
272,104,107004,1,8
144,104,107439,2,4,B|144:136,11,18.3333333333333
144,128,108308,6,8,B|128:152|128:152|144:176,1,55
216,280,109178,1,0
352,280,109613,1,0
416,168,110047,1,0
384,112,110265,1,0
328,72,110482,1,0
192,72,110917,2,8,B|144:72|128:96|120:120|128:144,1,110
256,152,111786,5,0
384,152,112221,1,0
320,272,112656,1,8
256,272,112873,1,8
256,208,113091,1,8
256,72,113526,2,0,B|128:72,1,110
144,208,114395,1,8
80,208,114613,1,8
80,272,114830,1,8
80,144,115265,6,0,B|80:64|80:64|128:64,1,110
240,64,116134,1,0
104,64,116569,1,0
168,176,117004,1,0
296,136,117439,1,8
240,168,117656,1,8
184,136,117873,1,8
240,256,118308,1,0
256,192,118743,12,0,120047
64,176,122221,6,10,B|160:80|272:80|368:80|384:80,1,330
400,80,122982,1,10
432,80,123091,1,10
432,208,123526,1,8
304,208,123960,1,8
304,208,124069,1,8
304,208,124178,1,8
160,80,124830,1,10
96,192,125265,1,10
32,80,125700,6,10,B|240:48|336:96|336:176|352:176,1,330
352,176,126460,1,2
352,176,126569,1,2
352,304,127004,1,8
224,304,127439,1,8
224,304,127547,1,8
224,304,127656,1,8
224,112,128308,1,10
352,112,128743,1,10
352,240,129178,6,2,B|352:208|352:208|256:208|256:208|256:112|256:112|128:112,1,330
112,112,129939,2,2,B|112:176,1,55
112,304,130482,1,8
240,304,130917,2,2,B|240:240,2,55
432,304,131786,1,10
432,304,132221,1,10
448,184,132656,6,10,B|448:144|448:144|440:144|440:144|440:184|440:184|432:184|432:184|432:144|432:144|424:144|424:144|424:184|424:184|264:184,1,330
256,176,133417,2,10,B|256:96,1,55
128,112,133960,1,8
128,256,134395,2,10,B|128:288|128:288,1,27.5
256,128,135265,5,14
256,152,135373,1,14
256,176,135482,1,14
256,200,135591,1,14
256,224,135699,2,14,B|256:264,4,27.5
