osu file format v14

[General]
AudioFilename: IOSYS - Star River.mp3
AudioLeadIn: 1500
PreviewTime: 7723
Countdown: 0
SampleSet: Soft
StackLeniency: 0.7
Mode: 0
LetterboxInBreaks: 0
WidescreenStoryboard: 0

[Editor]
DistanceSpacing: 1
BeatDivisor: 2
GridSize: 4
TimelineZoom: 0.6000009

[Metadata]
Title:star river
TitleUnicode:star river
Artist:IOSYS feat. Asana
ArtistUnicode:IOSYS feat. Asana
Creator:MokouSmoke
Version:Easy
Source:東方Project
Tags:touhou UFO Undefined Fantastic Object Reitaisai Emotional Skyscraper Cosmic Mind Hijiri Byakuren 聖 白蓮 Toho Crystallized Ocean 東方銀晶天獄 ARM D.watt あさな
BeatmapID:732836
BeatmapSetID:330673

[Difficulty]
HPDrainRate:2
CircleSize:3
OverallDifficulty:3
ApproachRate:2
SliderMultiplier:0.8
SliderTickRate:1

[Events]
//Background and Video events
Video,-28,"PV - Star River.avi"
0,0,"Undefined_Fantastic_Object_full_1146047.jpg",0,0
//Break Periods
2,52922,53975
//Storyboard Layer 0 (Background)
//Storyboard Layer 1 (Fail)
//Storyboard Layer 2 (Pass)
//Storyboard Layer 3 (Foreground)
//Storyboard Sound Samples

[TimingPoints]
223,468.75,4,2,1,20,1,0
21316,-100,4,2,1,25,0,0
21785,-100,4,2,1,35,0,0
22254,-100,4,2,1,45,0,0
23191,-100,4,2,1,40,0,0
29285,-100,4,2,1,50,0,0
29754,-100,4,2,1,60,0,0
30691,-100,4,2,1,45,0,0
31629,-100,4,2,1,30,0,0
32566,-100,4,2,1,15,0,0
35379,-100,4,2,1,5,0,0
35848,-100,4,2,1,10,0,0
37254,-100,4,2,1,20,0,0
37723,-100,4,2,2,60,0,0
48973,-100,4,2,2,40,0,0
50848,-100,4,2,2,45,0,0
51316,-100,4,2,2,50,0,0
51785,-100,4,2,2,60,0,0
52723,-100,4,2,1,70,0,0
55535,-100,4,2,1,70,0,0
56473,-100,4,2,1,70,0,1
73816,-100,4,2,2,70,0,1
75223,-100,4,2,1,70,0,0
90223,-100,4,2,1,60,0,0
90457,-100,4,2,1,50,0,0
93504,-100,4,2,1,40,0,0
93973,508.474576271186,4,2,1,30,1,0
93973,-125,4,2,1,30,0,0
94800,508.474576271186,4,2,1,20,1,0
95877,631.578947368421,4,2,1,20,1,0
95877,-125,4,2,1,20,0,0
96258,882.352941176471,4,2,1,20,1,0
97140,-100,4,2,1,15,0,0
97910,952.380952380952,4,2,1,15,1,0
98862,-100,4,2,1,10,0,0
99410,835.654596100279,4,2,1,10,1,0
99410,-111.111111111111,4,2,1,10,0,0
102334,-111.111111111111,4,2,1,5,0,0

[Colours]
Combo1 : 90,136,79
Combo2 : 148,50,52
Combo3 : 113,154,159
Combo4 : 123,92,146

[HitObjects]
155,134,223,5,10,0:0:0:0:
276,232,1160,2,0,B|241:211|241:211|223:176,1,80
226,96,2098,1,10,0:0:0:0:
388,96,3035,2,0,B|388:144|388:144|356:180,1,80
308,220,3973,5,10,0:0:0:0:
200,104,4910,2,0,B|164:92|164:92|116:108,1,80
84,175,5848,2,0,B|84:219|84:219|120:263,1,80,10|0,0:0|0:0,0:0:0:0:
164,191,6785,1,0,0:0:0:0:
244,191,7254,2,0,B|280:191|280:191|336:219,1,80,0|10,0:0|0:0,0:0:0:0:
356,283,8191,6,0,P|320:291|268:275,2,80,0|2|0,0:0|0:0|0:0,0:0:0:0:
403,218,9598,2,0,L|403:130,1,80,10|0,0:0|0:0,0:0:0:0:
376,63,10535,2,0,B|332:75|320:127,1,80
313,277,11941,5,0,0:0:0:0:
284,353,12410,2,0,P|248:324|232:281,1,80,2|0,0:0|0:0,0:0:0:0:
229,215,13348,2,0,B|170:222|157:266|156:292|156:292|99:270,1,160,10|0,0:0|0:0,0:0:0:0:
40,248,14754,1,0,0:0:0:0:
56,89,15691,5,0,0:0:0:0:
134,77,16160,2,0,P|173:83|204:109,1,80,10|0,0:0|0:0,0:0:0:0:
140,157,17098,2,0,P|133:195|147:232,1,80,10|0,0:0|0:0,0:0:0:0:
213,187,18035,2,0,P|253:180|292:188,1,80
252,260,18973,6,0,P|216:320|128:332,1,160,10|0,0:0|0:0,0:0:0:0:
72,280,20379,1,0,0:0:0:0:
76,200,20848,2,0,L|144:144,1,80,10|0,0:0|0:0,0:0:0:0:
208,112,21785,2,0,P|216:160|204:192,1,80
168,260,22723,5,10,0:0:0:0:
124,191,23191,1,0,0:0:0:0:
86,262,23660,2,0,B|93:308|93:308|139:341,1,80,2|0,0:0|0:0,0:0:0:0:
168,260,24598,2,0,B|191:236|191:236|238:236,1,80,8|0,0:0|0:0,0:0:0:0:
313,260,25535,2,0,P|352:266|390:257,1,80
418,100,26941,6,0,P|365:88|323:103,1,80,0|2,0:0|0:0,0:0:0:0:
264,120,27879,1,0,0:0:0:0:
197,165,28348,2,0,P|154:176|112:166,1,80,10|0,0:0|0:0,0:0:0:0:
47,134,29285,2,0,L|47:46,1,80
126,33,30223,6,0,L|126:113,1,80,10|0,0:0|0:0,0:0:0:0:
206,111,31160,2,0,L|206:203,1,80
229,267,32098,2,0,L|309:267,1,80,10|0,0:0|0:0,0:0:0:0:
297,346,33035,2,0,L|377:346,1,80
456,352,33973,6,0,B|454:283|469:220|469:220|429:258|370:252,1,240,10|8,0:0|0:0,0:0:0:0:
290,251,35848,2,0,B|276:133|276:133|330:174|386:129,1,240,0|8,0:0|0:0,0:0:0:0:
437,67,37723,6,4,P|379:48|323:77,2,120,12|4|4,0:0|0:0|0:0,0:0:0:0:
386,129,39598,2,4,P|444:148|500:119,2,120,12|4|4,0:0|0:0|0:0,0:0:0:0:
330,71,41473,6,4,P|272:52|216:81,2,120,12|4|4,0:0|0:0|0:0,0:0:0:0:
279,133,43348,2,0,B|254:162|254:162|257:214,1,80,12|0,0:0|0:0,0:0:0:0:
336,196,44285,2,0,B|337:234|337:234|304:273,1,80,8|0,0:0|0:0,0:0:0:0:
235,292,45223,6,12,B|202:255|202:255|112:255,1,120,12|4,0:0|0:0,0:0:0:0:
0,104,47098,2,12,B|33:67|33:67|125:67,1,120,12|4,0:0|0:0,0:0:0:0:
304,76,48973,6,0,B|304:120|304:120|276:144,1,80,4|2,0:0|0:0,0:0:0:0:
224,84,49910,2,0,B|186:74|186:74|147:87,1,80,4|2,0:0|0:0,0:0:0:0:
72,115,50848,1,4,0:0:0:0:
72,194,51316,1,2,0:0:0:0:
73,275,51785,2,0,P|140:237|144:161,1,160,4|8,0:0|0:0,0:0:0:0:
176,192,55535,5,0,0:0:0:0:
256,192,56004,1,0,0:0:0:0:
336,192,56473,6,0,P|324:236|296:262,1,80,10|4,0:0|0:0,0:0:0:0:
224,284,57410,2,0,P|184:276|140:284,1,80,0|4,0:0|0:0,0:0:0:0:
72,248,58348,2,0,P|64:204|76:160,1,80,10|4,0:0|0:0,0:0:0:0:
128,112,59285,2,0,P|168:120|224:108,1,80,0|4,0:0|0:0,0:0:0:0:
288,108,60223,6,0,P|318:176|254:179,1,160,10|0,0:0|0:0,0:0:0:0:
180,152,61629,1,4,0:0:0:0:
100,156,62098,2,0,P|58:179|40:224,1,80,10|4,0:0|0:0,0:0:0:0:
61,284,63035,1,0,0:0:0:0:
124,333,63504,1,4,0:0:0:0:
200,356,63973,6,0,P|287:359|357:342,1,160,10|0,0:0|0:0,0:0:0:0:
422,295,65379,1,4,0:0:0:0:
373,231,65848,2,0,P|333:219|289:219,1,80,10|4,0:0|0:0,0:0:0:0:
215,234,66785,2,0,P|229:268|257:287,2,60,8|0|8,0:0|0:0|0:0,0:0:0:0:
211,111,68191,5,6,0:0:0:0:
285,137,68660,2,0,P|327:153|375:159,1,80,0|4,0:0|0:0,0:0:0:0:
442,151,69598,2,0,B|444:184|444:184|404:235,1,80,8|4,0:0|0:0,0:0:0:0:
335,229,70535,2,0,B|333:196|333:196|373:145,1,80,0|4,0:0|0:0,0:0:0:0:
292,116,71473,6,0,L|202:116,1,80,10|4,0:0|0:0,0:0:0:0:
145,75,72410,2,0,B|129:115|129:115|145:159,1,80,0|4,0:0|0:0,0:0:0:0:
209,195,73348,1,10,0:0:0:0:
141,239,73816,1,8,0:0:0:0:
73,195,74285,1,8,0:0:0:0:
5,239,74754,1,8,0:0:0:0:
5,155,75223,6,0,B|37:117|37:117|119:117,1,120,10|0,0:0|0:0,0:0:0:0:
140,232,76629,2,0,B|140:308|140:308|176:348,1,120,10|0,0:0|0:0,0:0:0:0:
260,260,78035,1,0,0:0:0:0:
212,196,78504,1,0,0:0:0:0:
260,132,78973,6,0,P|340:120|416:144,1,160,10|0,0:0|0:0,0:0:0:0:
287,240,80848,2,8,P|211:260|135:238,1,160,10|0,0:0|0:0,0:0:0:0:
110,80,82723,6,0,B|151:77|151:77|186:94,1,80,10|4,0:0|0:0,0:0:0:0:
246,146,83660,1,0,0:0:0:0:
246,226,84129,1,4,0:0:0:0:
246,306,84598,6,0,B|285:313|285:313|350:303,1,80,10|4,0:0|0:0,0:0:0:0:
389,260,85535,1,0,0:0:0:0:
410,182,86004,1,4,0:0:0:0:
432,104,86473,6,8,P|348:64|272:64,1,160,10|0,0:0|0:0,0:0:0:0:
140,136,88348,2,8,P|224:176|296:172,1,160,8|0,0:0|0:0,0:0:0:0:
432,104,90223,5,10,0:0:0:0:
364,60,90691,2,0,B|348:100|348:100|364:156,1,80,4|0,0:0|0:0,0:0:0:0:
384,212,91629,1,4,0:0:0:0:
409,288,92098,5,0,0:0:0:0:
333,313,92566,1,4,0:0:0:0:
256,288,93035,2,0,P|235:242|231:201,1,80,0|4,0:0|0:0,0:0:0:0:
232,133,93973,6,0,B|292:100|292:156|354:132,1,128,10|0,0:0|0:0,0:0:0:0:
483,71,95877,6,8,P|494:132|476:196,1,128
376,259,97910,6,8,P|364:221|372:182,1,80,8|8,0:0|0:0,0:3:0:0:
416,113,99410,6,8,B|348:82|304:139|304:139|260:82|192:113,1,251.999992309571
