osu file format v9

[General]
AudioFilename: miracle.mp3
AudioLeadIn: 1650
PreviewTime: 37349
Countdown: 0
SampleSet: Soft
StackLeniency: 0.6
Mode: 0
LetterboxInBreaks: 0

[Editor]
DistanceSpacing: 1
BeatDivisor: 4
GridSize: 8

[Metadata]
Title:Miracle-Hinacle
Artist:IOSYS feat. 3L
Creator:_lolipop
Version:_loliplus+
Source:Touhou
Tags:0989596108 ignorethis Impossiblexu Ex Boy dksslqj Kagiyama Hina Yakujinsama no toori michi Dark Road

[Difficulty]
HPDrainRate:7
CircleSize:4
OverallDifficulty:7
ApproachRate:8
SliderMultiplier:1.6
SliderTickRate:2

[Events]
//Background and Video events
0,0,"bg1.jpg" _F,0,0,,0
//Break Periods
2,62305,67355
//Storyboard Layer 0 (Background)
//Storyboard Layer 1 (Fail)
//Storyboard Layer 2 (Pass)
//Storyboard Layer 3 (Foreground)
//Storyboard Sound Samples
//Background Colour Transformations
3,100,255,255,255

[TimingPoints]
605,375,4,1,0,64,1,0
1636,-100,4,2,1,45,0,0
12886,-100,4,1,0,60,0,0
13448,-100,4,2,1,60,0,0
15136,-100,4,1,1,60,0,0
15323,-100,4,2,1,60,0,0
25636,-100,4,2,1,40,0,0
26198,-100,4,2,1,60,0,0
37261,-100,4,2,1,20,0,0
38011,-100,4,2,1,60,0,0
49308,-100,4,2,1,30,0,0
50011,-100,4,2,1,60,0,0
56011,-100,4,2,1,0,0,0
56808,-100,4,2,1,60,0,0
61308,-100,4,2,1,30,0,0
62011,-100,4,1,0,60,0,0
68198,-100,4,2,1,60,0,0
71205,-100,4,2,1,60,0,0
72886,-100,4,1,0,60,0,0
73448,-100,4,2,1,60,0,0
75136,-100,4,1,1,60,0,0
75323,-100,4,2,1,60,0,0
85636,-100,4,2,1,40,0,0
86198,-100,4,2,1,60,0,0
94917,-100,4,2,1,55,0,0
96511,-100,4,2,1,65,0,0
96886,-100,4,2,1,75,0,0
97261,-100,4,2,1,37,0,0
98011,-100,4,2,1,70,0,0
109308,-100,4,2,1,30,0,0
110011,-100,4,2,1,60,0,0
116011,-100,4,2,1,0,0,0
116808,-100,4,2,1,60,0,0
121308,-100,4,2,1,30,0,0
122011,-100,4,1,0,60,0,0
122292,-100,4,2,1,54,0,0
134151,-100,4,2,1,0,0,0
136683,-100,4,1,0,60,0,0

[Colours]
Combo1 : 255,255,255
Combo2 : 244,0,0
Combo3 : 255,255,255
Combo4 : 0,244,62

[HitObjects]
120,96,605,1,4
200,72,792,2,0,B|248:56|304:88,1,80,0|0
352,104,1167,1,4
424,64,1355,2,0,B|456:96|448:152,1,80,0|0
436,211,1730,5,8
436,230,1823,1,8
433,249,1917,1,8
427,268,2011,1,8
418,286,2105,2,0,B|368:344|264:339,1,160,4|8
232,272,2667,5,0
184,336,2855,2,0,B|104:344|80:256,1,120
88,240,3230,1,8
152,184,3417,2,0,B|248:144|304:240,1,160
304,304,3980,1,8
232,272,4167,1,0
256,192,4355,2,0,B|296:160|344:160,2,80,0|0|8
272,272,4917,1,0
336,232,5105,6,0,B|288:168|184:184,1,160,0|2
112,192,5667,1,0
128,296,5855,5,2
200,264,6042,1,2
256,208,6230,1,10
280,136,6417,1,2
112,64,6792,6,2,B|112:112|144:144,1,80,2|10
184,200,7167,1,2
248,248,7355,2,0,B|296:296|288:352,2,80,2|2|10
304,192,7917,6,0,B|336:200|336:232,2,40,8|8|4
224,168,8292,1,0
152,136,8480,2,0,B|96:112|104:48,2,80,8|0|0
232,136,9042,2,0,B|272:128|296:152,2,40,0|0|8
288,72,9417,2,0,B|368:136|336:248,1,160
360,296,9980,1,8
296,344,10167,1,0
224,312,10355,2,0,B|144:328|120:312,1,80
160,240,10730,2,0,B|232:224|264:240,1,80,8|0
304,280,11105,5,0
360,224,11292,2,0,B|400:200|464:224,2,80,10|10|0
288,192,11855,5,10
208,208,12042,5,10
128,200,12230,5,10
120,200,12323,1,8
112,200,12417,1,10
104,200,12511,1,0
96,200,12605,1,0
56,264,12792,5,8
112,320,12980,1,0
184,288,13167,1,0
176,208,13355,2,0,B|168:168|120:136,2,80,0|0|8
176,248,13823,1,8
200,280,13917,1,8
240,288,14011,1,8
280,280,14105,6,0,B|328:280|376:336,2,80,4|0|8
248,208,14667,2,0,B|312:200|352:160,1,80
344,256,15042,2,0,B|416:208|408:88,1,160
392,40,15605,1,0
320,72,15792,1,0
352,144,15980,2,0,B|320:200|256:208,1,80,8|0
216,200,16355,1,0
136,208,16542,2,0,B|64:216|56:200,1,80,0|8
80,128,16917,2,0,B|160:128|176:144,1,80
216,200,17292,5,0
216,280,17480,2,0,B|216:328|272:360,2,80,8|0|0
256,208,18042,1,0
336,192,18230,1,8
392,248,18417,2,0,B|472:248|488:296,2,80
312,240,18980,1,10
232,248,19167,1,2
168,296,19355,1,2
64,200,19730,5,10
96,216,19823,1,8
136,224,19917,1,8
176,224,20011,1,8
216,224,20105,2,0,B|280:224|320:192,2,80,4|0|8
152,176,20667,1,0
176,104,20855,1,0
256,104,21042,1,0
280,176,21230,1,8
216,224,21417,6,0,B|152:288|56:248,1,160
104,184,21980,1,8
72,112,22167,2,0,B|112:80|176:112,1,80
208,152,22542,1,0
216,72,22730,1,8
288,40,22917,1,0
360,80,23105,6,0,B|384:120|360:160,1,80
288,200,23480,1,8
344,256,23667,2,0,B|328:304|376:344,2,80
288,200,24230,1,8
280,280,24417,2,0,B|208:328|112:280,1,160,4|2
136,208,24980,1,10
216,200,25167,2,0,B|256:232|232:288,2,80,6|0|0
136,208,25730,5,10
96,208,25823,1,2
64,184,25917,1,2
40,152,26011,1,2
40,112,26105,2,0,B|35:38|75:30,1,80,4|2
136,32,26480,1,8
208,64,26667,1,0
248,48,26761,1,0
288,40,26855,2,0,B|336:32|395:81,1,80,0|2
416,120,27230,2,0,B|448:160|430:231,2,80,8|0|0
336,112,27792,5,2
264,136,27980,1,8
195,176,28167,1,0
192,192,28261,1,0
192,208,28355,2,0,B|176:248|200:288,2,80,0|2|8
256,160,28917,1,0
320,112,29105,6,0,B|344:72|320:32,1,80,0|2
240,32,29480,1,8
192,96,29667,1,0
224,128,29761,1,0
264,128,29855,1,0
344,128,30042,2,0,B|392:136|424:208,1,80,2|8
328,192,30417,2,0,B|400:240|416:336,1,160,0|2
336,328,30980,5,10
176,328,31167,1,2
256,328,31355,1,2
96,328,31542,1,2
176,328,31730,5,8
256,304,31917,1,8
296,296,32011,1,8
336,280,32105,2,0,B|400:280|424:216,1,80,4|2
352,192,32480,1,8
280,224,32667,2,0,B|232:216|216:160,1,80
296,144,33042,1,2
352,192,33230,2,0,B|400:192|424:128,2,80,8|0|0
264,168,33792,5,2
216,224,33980,1,8
200,136,34167,1,2
160,272,34355,1,0
136,104,34542,1,2
104,312,34730,5,10
264,344,35105,2,0,B|360:336,1,80,10|0
280,288,35480,2,0,B|368:232,1,80,10|2
272,232,35855,2,0,B|344:136,1,80,10|0
240,192,36230,2,0,B|304:40,1,160,10|2
302,44,36980,1,2
144,168,37355,6,0,B|56:168,2,80,2|0|2
224,168,37917,1,0
304,168,38105,2,0,B|368:176|360:248,2,80,4|0|8
240,216,38667,1,0
288,280,38855,1,0
352,232,39042,1,0
352,232,39136,1,0
352,232,39230,1,8
304,168,39417,1,0
240,216,39605,1,0
40,112,39980,6,0,B|104:104|128:144,1,80,10|2
176,184,40355,1,0
232,240,40542,2,0,B|280:272|344:240,2,80,2|8|2
136,224,41105,6,0,B|88:208|48:240,2,80,0|0|8
216,232,41667,1,0
280,280,41855,1,0
360,296,42042,1,0
400,288,42136,1,0
432,272,42230,1,8
464,200,42417,1,0
448,120,42605,1,0
166,189,42980,5,10
87,202,43167,1,2
100,281,43355,1,2
179,268,43542,1,2
124,180,43730,5,8
77,244,43917,1,8
144,288,44105,2,0,B|227:324|323:260,2,160,4|8|0
224,80,45230,6,0,B|232:136|312:144,1,80,8|0
352,152,45605,2,0,B|400:176|400:240,1,80,2|0
400,256,45886,1,0
376,288,45980,1,10
304,328,46167,1,0
232,304,46355,1,2
96,120,46730,5,10
168,88,46917,1,0
168,168,47105,2,0,B|264:192|320:112,2,160,2|8|0
208,96,48042,1,2
264,152,48230,1,10
232,224,48417,2,0,B|192:248|128:216,2,80,2|0|0
312,208,48980,1,8
384,176,49167,1,0
416,144,49261,1,0
424,104,49355,5,2
328,48,49542,1,2
144,64,49730,1,10
112,240,49917,1,2
272,352,50105,6,0,B|320:352|368:336,2,80,4|2|8
312,288,50667,2,0,B|352:280|400:216,1,80,2|0
312,200,51042,1,2
328,168,51136,1,0
328,128,51230,1,8
256,88,51417,1,2
256,88,51605,1,0
461,172,51980,5,8
384,154,52167,1,2
324,210,52355,1,0
346,291,52542,1,2
423,309,52730,1,8
483,253,52917,1,2
240,352,53105,6,0,B|192:352|144:336,2,80,0|2|8
200,288,53667,2,0,B|160:280|112:216,1,80,2|0
200,200,54042,1,2
184,168,54136,1,0
192,128,54230,1,8
256,80,54417,1,2
256,80,54605,1,0
80,192,54980,5,10
160,304,55167,1,2
128,192,55355,1,2
112,304,55542,1,2
176,200,55730,5,8
64,296,55917,1,8
256,192,56105,12,2,56855
104,160,57230,5,8
176,192,57417,1,0
256,200,57605,1,2
328,168,57792,1,0
368,152,57886,1,0
408,160,57980,1,10
464,216,58167,1,0
464,216,58355,1,2
464,216,58542,2,0,B|440:264|376:248,1,80,0|10
320,224,58917,5,0
240,200,59105,2,0,B|136:184|48:216,2,160,0|8|0
296,256,60042,1,2
216,272,60230,1,2
168,208,60417,2,0,B|200:120|304:96,1,160,2|0
280,102,60980,5,8
136,80,61167,6,8,B|96:64,2,40,8|8|2
224,112,61542,1,2
280,192,61730,1,10
320,280,61917,1,2
320,280,62105,1,4
256,192,68105,5,4
336,208,68292,2,0,B|384:208|440:184,2,80
256,192,68855,2,0,B|184:176|112:208,2,120
440,288,69792,6,0,B|472:320|440:360,1,80
392,224,70167,1,0
336,56,70355,2,0,B|280:56|272:184|360:184,1,160
152,160,71292,6,0,B|104:152|48:176,2,80,10|10|0
224,192,71855,5,10
304,176,72042,5,10
384,184,72230,5,10
392,184,72323,1,8
400,184,72417,1,10
408,184,72511,1,0
416,184,72605,1,0
456,120,72792,5,8
400,64,72980,1,0
328,96,73167,1,0
336,176,73355,2,0,B|352:224|400:248,2,80,0|0|8
312,144,73823,1,8
288,112,73917,1,8
256,96,74011,1,8
216,80,74105,6,0,B|176:48|104:56,2,80,4|0|8
240,160,74667,2,0,B|176:168|136:208,1,80
88,152,75042,2,0,B|16:208|32:328,1,160
88,344,75605,1,0
168,328,75792,1,0
248,352,75980,2,0,B|296:352|344:304,1,80,8|0
352,248,76355,1,0
392,176,76542,2,0,B|424:152|480:144,1,80,0|8
456,224,76917,2,0,B|416:256|360:248,1,80
328,184,77292,5,0
296,112,77480,2,0,B|312:72|296:24,2,80,8|0|0
256,176,78042,1,0
208,240,78230,1,8
160,304,78417,2,0,B|128:336|128:384,2,80
192,232,78980,1,10
176,152,79167,1,2
136,80,79355,1,2
448,184,79730,5,10
416,168,79823,1,8
376,160,79917,1,8
336,160,80011,1,8
296,160,80105,2,0,B|232:160|192:192,2,80,4|0|8
344,224,80667,1,0
392,288,80855,2,0,B|400:336|472:336,1,80
464,256,81230,1,8
424,184,81417,6,0,B|320:176|312:280,1,160
392,288,81980,1,8
328,240,82167,2,0,B|272:232|240:264,1,80
184,312,82542,1,0
264,336,82730,1,8
251,254,82917,1,0
184,312,83105,6,0,B|216:272|168:232,1,80
128,184,83480,1,8
80,128,83667,2,0,B|64:80|120:48,2,80
128,184,84230,1,8
264,120,84417,6,0,B|320:152|320:232|248:264,1,160,4|2
224,184,84980,1,10
304,184,85167,2,0,B|360:216|360:296|288:328,1,160,4|0
376,184,85730,5,10
416,184,85823,1,2
448,200,85917,1,2
472,232,86011,1,2
472,272,86105,2,0,B|488:328|437:354,1,80,4|2
376,352,86480,1,8
304,320,86667,1,0
264,336,86761,1,0
224,344,86855,2,0,B|165:351|117:303,1,80,0|2
96,264,87230,2,0,B|64:224|82:153,2,80,8|0|0
176,272,87792,5,2
248,248,87980,1,8
317,208,88167,1,0
320,192,88261,1,0
320,176,88355,2,0,B|336:136|312:96,2,80,0|2|8
256,224,88917,1,0
192,272,89105,6,0,B|168:312|192:352,1,80,0|2
272,352,89480,1,8
320,288,89667,1,0
288,256,89761,1,0
248,256,89855,1,0
168,256,90042,2,0,B|120:248|80:184,1,80,2|8
176,192,90417,2,0,B|112:144|88:48,1,160,0|2
224,40,90980,5,10
275,194,91167,1,2
141,101,91355,1,2
306,101,91542,1,2
172,194,91730,5,8
224,120,91917,5,8
184,104,92011,1,8
144,112,92105,2,0,B|96:128|88:176,1,80,4|2
168,200,92480,1,8
88,256,92667,2,0,B|96:299|152:320,1,80,0|0
192,248,93042,1,2
248,312,93230,2,0,B|299:306|312:256,1,80,8|0
344,192,93605,1,2
416,168,93792,5,2
408,248,93980,1,8
336,272,94167,1,2
272,232,94355,1,0
280,152,94542,1,2
352,112,94730,5,10
224,40,95105,2,0,B|128:48,1,80,14|0
320,128,95480,2,0,B|424:144,1,80,14|2
144,200,95855,2,0,B|40:224,1,80,14|0
368,264,96230,2,0,B|472:288,1,80,14|0
368,264,96605,5,4
144,200,96792,1,4
320,128,96980,1,4
224,40,97167,1,4
368,216,97355,6,0,B|456:216,2,80,2|0|2
288,216,97917,1,0
208,216,98105,2,0,B|160:192|160:128,2,80,4|0|8
272,168,98667,1,0
224,104,98855,1,0
160,152,99042,1,0
160,152,99136,1,0
160,152,99230,1,8
208,216,99417,1,0
272,168,99605,1,0
472,272,99980,6,0,B|408:280|384:240,1,80,10|2
336,200,100355,1,0
280,144,100542,2,0,B|232:112|168:144,2,80,2|8|2
376,160,101105,6,0,B|424:176|464:144,2,80,0|0|8
320,104,101667,1,0
240,80,101855,1,0
160,88,102042,1,0
120,96,102136,1,0
88,120,102230,1,8
48,192,102417,1,0
48,272,102605,1,0
346,195,102980,5,10
425,182,103167,1,2
412,103,103355,1,2
333,116,103542,1,2
388,204,103730,5,8
435,140,103917,1,8
368,96,104105,2,0,B|285:60|189:124,2,160,4|8|0
304,336,105230,6,0,B|296:280|216:272,1,80,8|0
176,264,105605,2,0,B|128:240|128:176,1,80,2|0
120,160,105886,1,0
128,120,105980,1,10
168,56,106167,1,0
240,32,106355,1,2
472,272,106730,5,10
408,224,106917,1,0
328,216,107105,2,0,B|232:192|176:272,2,160,2|8|0
304,296,108042,1,2
248,240,108230,1,10
280,168,108417,2,0,B|320:144|384:176,2,80,2|0|0
200,176,108980,1,8
128,208,109167,1,0
112,248,109261,1,0
120,288,109355,5,2
208,352,109542,1,2
360,312,109730,1,10
400,136,109917,1,2
240,32,110105,6,0,B|192:32|144:48,2,80,4|2|8
200,96,110667,2,0,B|160:104|112:168,1,80,2|0
200,184,111042,1,2
184,216,111136,1,0
184,256,111230,1,8
256,296,111417,1,2
256,296,111605,1,0
51,212,111980,5,8
128,230,112167,1,2
188,174,112355,1,0
166,93,112542,1,2
88,72,112730,1,8
32,136,112917,1,2
272,32,113105,6,0,B|320:32|368:48,2,80,0|2|8
312,96,113667,2,0,B|352:104|400:168,1,80,2|0
312,184,114042,1,2
328,216,114136,1,0
320,256,114230,1,8
256,304,114417,1,2
256,304,114605,1,0
432,192,114980,5,10
352,80,115167,1,2
384,192,115355,1,2
400,80,115542,1,2
336,184,115730,5,8
448,88,115917,1,8
256,192,116105,12,2,116855
408,224,117230,5,8
336,192,117417,1,0
256,184,117605,1,2
184,216,117792,1,0
144,232,117886,1,0
104,224,117980,1,10
48,168,118167,1,0
48,168,118355,1,2
48,168,118542,2,0,B|72:120|136:136,1,80,0|10
192,160,118917,5,0
272,184,119105,2,0,B|352:224|464:168,2,160,0|8|0
216,128,120042,1,2
296,112,120230,1,2
344,176,120417,2,0,B|352:272|264:312,1,160,2|0
248,224,120980,5,8
136,304,121167,6,10,B|96:320,2,40,8|8|4
96,208,121542,1,2
128,112,121730,1,10
216,56,121917,1,2
216,56,122105,5,4
424,176,122480,6,0,B|424:232|368:272,1,80,8|0
320,304,122855,2,0,B|256:336|176:304,1,120
152,304,123230,2,0,B|112:288|88:248,1,80,8|0
96,64,123792,1,0
192,80,123980,2,0,B|226:105|240:168,1,80,8|0
256,240,124355,2,0,B|270:326|360:360,1,160,0|10
32,136,125292,5,2
64,40,125480,1,2
448,40,125855,5,2
480,136,126042,1,2
480,232,126230,1,2
448,328,126417,1,2
64,328,126792,5,2
32,232,126980,1,2
32,136,127167,1,2
64,40,127355,1,2
256,192,127730,5,12
192,264,127917,5,8
200,272,128011,1,8
208,280,128105,2,0,B|280:312|368:272,1,160,4|8
456,296,128667,1,0
472,200,128855,2,0,B|400:192|392:88,1,120
433,88,129230,1,8
336,96,129417,6,0,B|256:40|176:104,1,160
96,136,129980,1,8
104,232,130167,1,0
200,256,130355,2,0,B|264:216|240:152,1,120
208,176,130730,2,0,B|200:240|224:288|288:312,1,160,8|0
276,307,131292,5,10
276,307,131480,1,10
453,337,131855,5,2
485,241,132042,1,2
485,145,132230,1,10
453,49,132417,1,2
48,48,132792,5,8
16,144,132980,1,2
16,240,133167,1,2
48,336,133355,1,2
152,344,133542,2,0,B|196:353|240:348,1,80,2|8
256,192,134105,5,4
256,192,134198,12,0,136823
