osu file format v7

[General]
AudioFilename: Utage wa Eien ni.mp3
AudioLeadIn: 0
PreviewTime: 19438
Countdown: 0
SampleSet: Normal
StackLeniency: 0.2
Mode: 0
LetterboxInBreaks: 1

[Editor]
Bookmarks: 2673,12556,19438,30732,42203,53497,64791,76085,90026,101320,112791,124438,141026,152320,163614,177556,188850,200320
DistanceSpacing: 2
BeatDivisor: 2
GridSize: 32

[Metadata]
Title:Utage wa Eien ni ~SHD~
Artist:IOSYS
Creator:DJPop
Version:SOLO
Source:Touhou Suisui Suusuu
Tags:utage wa eien ni iosys touhou suisui suusuu

[Difficulty]
HPDrainRate:4
CircleSize:5
OverallDifficulty:8
ApproachRate:8
SliderMultiplier:1.6
SliderTickRate:2

[Events]
//Background and Video events
0,0,"Utage wa Eien ni.png"
Video,-2250,"Utage wa Eien ni.avi"
//Break Periods
2,53696,63974
2,141226,151502
//Storyboard Layer 0 (Background)
//Storyboard Layer 1 (Fail)
//Storyboard Layer 2 (Pass)
//Storyboard Layer 3 (Foreground)
//Storyboard Sound Samples
//Background Colour Transformations
3,100,255,128,0

[TimingPoints]
556,352.941176470588,4,1,0,80,1,0
19438,-100,4,1,0,100,0,0
85966,-100,4,1,0,25,0,0
86142,-100,4,1,0,30,0,0
86318,-100,4,1,0,35,0,0
86494,-100,4,1,0,40,0,0
86670,-100,4,1,0,45,0,0
86846,-100,4,1,0,50,0,0
87022,-100,4,1,0,55,0,0
87198,-100,4,1,0,60,0,0
87374,-100,4,1,0,65,0,0
87550,-100,4,1,0,70,0,0
87726,-100,4,1,0,75,0,0
87902,-100,4,1,0,80,0,0
88078,-100,4,1,0,85,0,0
88254,-100,4,1,0,90,0,0
88430,-100,4,1,0,95,0,0
88606,-100,4,1,0,100,0,0
101319,-50,4,1,0,100,0,0
102730,-100,4,1,0,100,0,0
173494,-100,4,1,0,25,0,0
173670,-100,4,1,0,30,0,0
173846,-100,4,1,0,35,0,0
174022,-100,4,1,0,40,0,0
174198,-100,4,1,0,45,0,0
174374,-100,4,1,0,50,0,0
174550,-100,4,1,0,55,0,0
174726,-100,4,1,0,60,0,0
174902,-100,4,1,0,65,0,0
175078,-100,4,1,0,70,0,0
175254,-100,4,1,0,75,0,0
175430,-100,4,1,0,80,0,0
175606,-100,4,1,0,85,0,0
175782,-100,4,1,0,90,0,0
175958,-100,4,1,0,95,0,0
176134,-100,4,1,0,100,0,0
188847,-50,4,1,0,100,0,0
190258,-100,4,1,0,100,0,0

[Colours]
Combo1 : 255,255,0
Combo2 : 0,255,0
Combo3 : 0,0,255
Combo4 : 255,0,0

[HitObjects]
256,192,2673,5,0
192,160,2850,1,0
160,224,3026,2,0,C|129:318|176:352,1,160,0|2
304,288,3732,1,0
312,280,3820,1,0
320,272,3908,1,0
328,264,3997,1,0
400,288,4261,1,0
464,256,4438,2,0,C|499:225|448:128,1,160,0|2
320,64,5144,1,0
312,72,5232,1,0
304,80,5320,1,0
296,88,5408,1,0
288,96,5497,5,0
224,128,5673,1,0
160,256,6026,1,0
192,320,6203,1,2
256,352,6379,1,0
320,320,6555,1,0
328,312,6644,1,0
336,304,6732,1,0
344,296,6820,1,0
352,288,6908,1,0
360,280,6997,1,0
368,272,7085,1,0
376,264,7173,1,0
384,256,7261,1,0
392,248,7350,1,0
400,240,7438,1,0
408,232,7526,1,0
416,224,7614,1,2
424,216,7703,1,0
432,208,7791,1,0
440,200,7879,1,0
448,192,7967,1,0
456,184,8055,1,0
464,176,8144,1,0
472,168,8232,1,0
480,160,8320,5,0
448,96,8497,1,0
416,32,8673,2,0,C|349:61|368:144,1,160,0|2
240,208,9379,1,0
232,200,9467,1,0
224,192,9555,1,0
216,184,9644,1,0
240,112,9908,1,0
208,48,10085,2,0,C|125:101|128:160,1,160,0|2
64,288,10791,1,0
72,296,10879,1,0
80,304,10967,1,0
88,312,11055,1,0
96,320,11144,5,0
160,352,11320,1,0
288,256,11673,1,0
320,320,11850,1,2
384,352,12026,1,0
448,320,12203,1,0
456,312,12291,1,0
464,304,12379,1,0
472,296,12467,1,0
480,288,12555,5,0
464,256,12673,1,0
432,240,12791,1,0
400,256,12908,1,0
368,240,13026,1,0
352,208,13144,1,0
368,176,13261,1,0
400,160,13379,1,0
416,128,13497,1,0
400,96,13614,5,0
368,80,13732,1,0
336,96,13850,1,0
320,128,13967,1,0
288,144,14085,1,0
256,128,14203,1,0
224,144,14320,1,0
208,176,14438,1,0
224,208,14555,1,0
256,224,14673,5,0
272,256,14791,1,0
256,288,14908,1,0
224,304,15026,1,0
192,288,15144,1,0
176,256,15261,1,0
144,240,15379,1,0
112,256,15497,1,0
96,288,15614,1,0
64,304,15732,5,0
32,288,15850,1,0
16,256,15967,1,0
32,224,16085,1,0
64,208,16203,1,0
80,176,16320,1,0
64,144,16438,1,0
32,128,16555,1,0
16,96,16673,1,0
256,192,16791,12,4,18203
480,352,19438,6,0,C|441:352|416:320,1,80,4|0
480,288,19791,1,0
448,224,19967,1,0
352,96,20320,1,0
336,64,20408,1,0
320,32,20497,1,0
256,64,20673,1,0
192,32,20850,1,0
128,64,21026,1,0
96,128,21203,1,0
128,192,21379,1,0
144,224,21467,1,0
160,256,21555,1,0
192,192,21732,1,2
224,128,21908,2,2,C|256:104|288:128,1,80
320,192,22261,6,0,C|351:216|352:256,1,80
384,320,22614,1,0
416,256,22791,1,0
480,224,22967,1,0
448,160,23144,1,0
432,128,23232,1,0
416,96,23320,1,0
480,64,23497,1,0
416,32,23673,1,0
352,64,23850,1,2
288,32,24026,2,2,C|264:61|288:96,1,80
352,128,24379,2,2,C|376:157|352:192,1,80
288,224,24732,2,2,C|264:253|288:288,1,80
352,320,25085,6,0,C|326:352|288:352,1,80
224,320,25438,1,0
160,352,25614,1,0
96,224,25967,1,0
112,192,26055,1,0
128,160,26144,1,0
192,128,26320,1,0
160,64,26497,1,0
96,32,26673,1,0
32,64,26850,1,0
64,128,27026,1,0
48,160,27114,1,0
32,192,27203,1,0
64,256,27379,1,2
128,288,27555,2,2,C|167:288|192:256,1,80
160,192,27908,6,0,C|137:160|160:128,1,80
192,64,28261,1,0
256,32,28438,1,0
320,64,28614,1,0
352,128,28791,1,0
368,160,28879,1,0
384,192,28967,1,0
352,256,29144,1,0
288,288,29320,1,0
224,256,29497,1,2
192,192,29673,2,2,C|192:147|224:160,1,80
287,191,30026,2,2,C|318:204|318:159,1,80
256,128,30379,2,2,C|256:83|288:96,1,80
320,32,30732,6,0,C|352:56|384:32,1,80,4|0
448,64,31085,1,0
480,128,31261,2,0,C|480:166|448:192,1,80,0|4
384,160,31614,1,0
352,224,31791,1,0
416,256,31967,1,0
448,272,32055,1,0
480,288,32144,1,4
448,352,32320,1,0
384,320,32497,1,0
320,352,32673,1,0
288,336,32761,1,0
256,320,32850,1,0
288,256,33026,1,2
256,192,33203,2,2,C|217:192|192:224,1,80
160,288,33555,6,0,C|160:327|128:352,1,80
96,288,33908,1,0
64,352,34085,1,0
32,288,34261,1,0
64,224,34438,1,0
96,208,34526,1,0
128,192,34614,1,0
96,128,34791,1,0
32,96,34967,1,0
64,32,35144,1,2
128,64,35320,2,2,C|160:88|192:64,1,80
256,96,35673,2,2,C|288:72|320:96,1,80
384,64,36026,2,2,C|416:88|448:64,1,80
480,128,36379,6,0,C|448:153|448:192,1,80
480,256,36732,1,0
416,288,36908,1,0
352,160,37261,1,0
336,192,37350,1,0
320,224,37438,1,0
256,256,37614,1,0
288,320,37791,1,0
224,352,37967,1,0
160,320,38144,1,0
192,256,38320,1,0
160,240,38408,1,0
128,224,38497,1,0
96,288,38673,1,2
32,256,38850,2,2,C|32:218|64:192,1,80
128,160,39203,6,0,C|160:134|160:96,1,80
192,32,39556,1,0
256,64,39732,1,0
320,32,39908,1,0
352,96,40085,1,0
368,128,40173,1,0
384,160,40261,1,0
448,192,40438,1,0
480,256,40614,1,0
448,320,40791,2,0,L|351:332|256:352|224:320,1,240
208,336,41408,1,0
192,352,41497,1,0
176,336,41585,1,0
160,320,41673,1,0
144,336,41761,1,0
128,352,41850,1,0
112,336,41938,1,0
96,320,42026,1,0
80,336,42114,1,0
64,352,42203,5,4
32,288,42379,1,0
64,224,42556,1,0
72,216,42644,1,0
80,208,42732,1,0
88,200,42820,1,0
96,192,42908,1,0
64,128,43085,1,0
96,64,43261,1,0
160,32,43438,1,0
224,64,43614,1,0
256,128,43791,1,0
224,192,43967,1,0
232,200,44056,1,0
240,208,44144,1,0
248,216,44232,1,0
256,224,44320,1,0
320,192,44497,1,0
352,128,44673,1,0
320,64,44850,1,0
384,32,45026,5,0
448,64,45203,1,0
480,128,45379,1,2
416,160,45556,1,2
448,224,45732,2,0,C|480:249|480:288,1,80
448,352,46085,2,0,C|416:327|416:288,1,80
352,256,46438,1,0
320,320,46614,1,0
256,288,46791,1,2
224,352,46967,1,2
160,320,47144,2,0,C|128:295|128:256,1,80
160,192,47497,2,0,C|192:218|192:256,1,80
256,224,47850,5,0
288,160,48026,1,0
224,128,48203,1,0
208,96,48291,1,0
192,64,48379,1,0
128,32,48556,1,0
64,64,48732,1,0
32,128,48908,1,0
64,192,49085,1,0
32,256,49261,1,0
64,320,49438,1,0
128,352,49614,1,0
160,336,49703,1,0
192,320,49791,1,0
224,256,49967,1,0
192,192,50144,1,0
224,128,50320,1,0
288,96,50497,1,0
352,128,50673,5,0
384,192,50850,1,0
352,256,51026,1,2
384,320,51203,1,2
448,352,51379,1,0
480,288,51556,1,0
448,224,51732,2,2,C|472:192|448:160,1,80,2|0
480,96,52085,1,0
416,64,52261,1,0
384,128,52438,1,0
320,160,52614,1,0
256,192,52791,1,0
192,224,52967,1,0
128,256,53144,2,2,C|32:301|32:352,1,160,0|4
480,32,64791,5,4
480,32,64879,1,0
480,32,64967,1,0
416,96,65144,2,0,C|384:71|384:32,1,80
320,96,65497,2,0,C|352:122|352:160,1,80
288,224,65850,2,0,C|250:224|224:192,1,80
160,256,66203,1,0
160,256,66291,1,0
160,256,66379,1,0
96,192,66556,2,0,C|96:153|128:128,1,80
192,192,66908,2,0,C|224:166|224:128,1,80
160,64,67261,2,0,C|134:32|96:32,1,80
32,96,67614,5,0
32,96,67703,1,0
32,96,67791,1,0
96,160,67967,2,0,C|71:192|32:192,1,80
96,256,68320,2,0,C|96:294|128:320,1,80
192,256,68673,2,0,C|192:218|224:192,1,80
288,256,69026,1,0
288,256,69114,1,0
288,256,69203,1,0
352,320,69379,1,0
352,320,69467,1,0
352,320,69556,1,0
416,256,69732,1,0
424,240,69820,1,0
432,224,69908,1,0
424,208,69997,1,0
416,192,70085,1,0
424,176,70173,1,0
432,160,70261,1,0
424,144,70350,1,0
416,128,70438,5,4
416,128,70526,1,0
416,128,70614,1,0
352,64,70791,2,0,C|314:64|288:32,1,80
224,96,71144,2,0,C|224:134|256:160,1,80
320,224,71497,2,0,C|294:256|256:256,1,80
192,320,71850,1,0
192,320,71938,1,0
192,320,72026,1,0
128,256,72203,2,0,C|154:224|192:224,1,80
128,160,72556,2,0,C|102:128|64:128,1,80
128,64,72908,2,0,C|154:32|192:32,1,80
256,96,73261,5,0
256,96,73350,1,0
256,96,73438,1,0
192,160,73614,2,0,C|166:192|128:192,1,80
64,128,73967,2,0,C|32:153|32:192,1,80
96,256,74320,1,0
160,320,74497,1,0
224,256,74673,1,0
240,264,74761,1,0
256,272,74850,1,0
272,264,74938,1,0
288,256,75026,1,0
304,264,75114,1,0
320,272,75203,1,0
336,264,75291,1,0
352,256,75379,1,0
368,264,75467,1,0
384,272,75556,1,0
400,264,75644,1,0
416,256,75732,1,0
432,264,75820,1,0
448,272,75908,1,0
464,264,75997,1,0
480,256,76085,6,0,C|503:225|480:192,1,80,4|0
416,128,76438,2,0,C|384:105|352:128,1,80
288,192,76791,2,0,C|264:223|288:256,1,80
224,320,77144,2,0,C|192:343|160:320,1,80
96,256,77497,2,0,C|32:192|96:133|160:192|128:224,1,320
192,320,78467,1,2
192,320,78556,1,0
256,256,78732,1,2
320,192,78908,6,0,C|344:160|320:128,1,80
256,64,79261,2,0,C|224:41|192:64,1,80
128,128,79614,2,0,C|104:160|128:192,1,80
64,256,79967,2,0,C|41:287|64:320,1,80
128,256,80320,2,0,C|160:352|224:257|256:352,1,320
320,288,81291,1,2
320,288,81379,1,0
384,352,81556,1,2
448,288,81732,5,4
384,96,82085,1,0
192,32,82438,1,0
128,224,82791,1,0
320,160,83144,1,4
384,352,83497,1,0
192,288,83850,1,0
0,224,84203,1,0
64,32,84556,5,4
256,96,84908,1,4
448,160,85261,1,4
512,224,85438,1,4
448,288,85614,1,4
384,352,85791,1,4
288,320,85967,1,0
272,312,86056,1,0
256,304,86144,1,0
240,296,86232,1,0
224,288,86320,1,0
240,280,86408,1,0
256,272,86497,1,0
272,264,86585,1,0
288,256,86673,1,0
272,248,86761,1,0
256,240,86850,1,0
240,232,86938,1,0
224,224,87026,1,0
240,216,87114,1,0
256,208,87203,1,0
272,200,87291,1,0
288,192,87379,1,0
272,184,87467,1,0
256,176,87556,1,0
240,168,87644,1,0
224,160,87732,1,0
240,152,87820,1,0
256,144,87908,1,0
272,136,87997,1,0
288,128,88085,1,0
272,120,88173,1,0
256,112,88261,1,0
240,104,88350,1,0
224,96,88438,1,0
240,88,88526,1,0
256,80,88614,1,0
272,72,88703,1,0
288,64,88791,1,4
480,32,90026,6,0,C|448:57|448:96,1,80,4|0
480,160,90379,1,0
448,224,90556,1,0
320,160,90908,1,0
304,128,90997,1,0
288,96,91085,1,0
224,64,91261,1,0
192,128,91438,1,0
160,64,91614,1,0
96,32,91791,1,0
64,96,91967,1,0
32,112,92056,1,0
0,128,92144,1,0
64,160,92320,1,2
0,192,92497,2,2,C|26:224|64:224,1,80
96,288,92850,6,0,C|96:326|128:352,1,80
192,320,93203,1,0
256,352,93379,1,0
288,288,93556,1,0
224,256,93732,1,0
208,224,93820,1,0
192,192,93908,1,0
128,160,94085,1,0
160,96,94261,1,0
224,64,94438,1,2
256,128,94614,2,2,C|288:153|288:192,1,80
320,256,94967,2,2,C|352:230|352:192,1,80
384,128,95320,2,2,C|416:153|416:192,1,80
448,256,95673,6,0,C|486:256|512:288,1,80
480,352,96026,1,0
416,320,96203,1,0
352,192,96556,1,0
320,208,96644,1,0
288,224,96732,1,0
320,288,96908,1,0
288,352,97085,1,0
224,320,97261,1,0
192,256,97438,1,0
224,192,97614,1,0
208,160,97703,1,0
192,128,97791,1,0
160,192,97967,1,2
128,256,98144,2,2,C|160:281|160:320,1,80
96,352,98497,6,0,C|57:352|32:320,1,80
64,256,98850,1,0
32,192,99026,1,0
96,160,99203,1,0
64,96,99379,1,0
80,64,99467,1,0
96,32,99556,1,0
160,64,99732,1,0
192,128,99908,1,0
256,96,100085,1,2
288,32,100261,2,2,C|326:32|352:64,1,80
416,96,100614,2,2,C|390:128|352:128,1,80
288,160,100967,2,2,C|256:185|256:224,1,80
224,288,101320,6,6,B|17:303|32:96,1,320,6|2
160,32,102026,2,6,B|367:17|352:224,1,320,6|2
288,352,102732,2,0,C|320:375|352:352,1,80,4|0
416,320,103085,1,0
448,256,103261,1,0
416,192,103438,1,0
480,160,103614,1,2
448,96,103791,2,2,C|471:62|448:32,1,80
384,64,104144,6,0,C|352:40|320:64,1,80
352,128,104497,1,0
288,160,104673,1,0
224,128,104850,1,0
256,64,105026,1,0
224,48,105114,1,0
192,32,105203,1,0
128,64,105379,1,0
96,128,105556,1,0
32,160,105732,1,2
64,224,105908,2,2,C|41:256|64:288,1,80
128,256,106261,2,2,C|160:224|128:192,1,80
192,160,106614,2,2,C|224:137|256:160,1,80
320,128,106967,6,0,C|343:96|320:64,1,80
352,0,107320,1,0
416,32,107497,1,0
480,160,107850,1,0
448,176,107938,1,0
416,192,108026,1,0
448,256,108203,1,0
480,320,108379,1,0
416,352,108556,1,0
352,320,108732,1,0
288,352,108908,1,0
272,320,108997,1,0
256,288,109085,1,0
320,256,109261,1,2
352,192,109438,2,2,C|320:168|288:192,1,80
224,160,109791,6,0,C|200:191|224:224,1,80
160,256,110144,1,0
128,320,110320,1,0
64,352,110497,1,0
32,288,110673,1,0
64,272,110761,1,0
96,256,110850,1,0
64,192,111026,1,0
32,128,111203,1,0
64,64,111379,2,0,L|161:52|256:32|288:64,1,240
304,48,111997,1,0
320,32,112085,1,0
336,48,112173,1,0
352,64,112261,1,0
368,48,112350,1,0
384,32,112438,1,0
400,48,112526,1,0
416,64,112614,1,0
432,48,112703,1,0
448,32,112791,5,4
480,96,112967,1,0
448,160,113144,1,0
384,192,113320,1,0
320,160,113497,2,0,C|294:128|256:128,1,80
192,160,113850,2,0,C|160:185|160:224,1,80
192,288,114203,1,0
256,320,114379,1,0
320,288,114556,1,0
352,224,114732,1,0
320,160,114908,2,0,C|295:128|256:128,1,80
224,192,115261,2,0,C|185:192|160:160,1,80
128,96,115614,5,0
96,32,115791,1,0
32,64,115967,2,0,C|9:96|32:128,1,80
96,160,116320,1,0
64,224,116497,1,0
128,256,116673,2,0,C|160:232|192:256,1,80
224,320,117026,1,0
288,352,117203,1,0
352,320,117379,2,0,C|375:288|352:256,1,80
288,224,117732,1,0
256,160,117908,1,0
288,96,118085,2,0,C|320:73|352:96,1,80
384,160,118438,6,2,C|400:196|416:160,1,80,2|0
448,96,118791,2,2,C|464:60|480:96,1,80,2|0
448,160,119144,1,0
480,224,119320,1,0
448,288,119497,1,0
416,224,119673,1,0
384,288,119850,2,2,C|368:324|352:288,1,80,2|0
288,256,120203,2,2,C|272:220|256:256,1,80,2|0
192,288,120556,1,0
128,320,120732,1,0
64,288,120908,1,0
128,256,121085,1,0
96,192,121261,5,0
160,160,121438,1,0
128,96,121614,1,0
192,128,121791,1,0
160,192,121967,1,0
96,160,122144,1,0
160,128,122320,2,2,C|185:96|224:96,1,80,2|0
192,32,122673,1,0
224,96,122850,1,0
256,160,123026,1,0
288,224,123203,1,0
320,288,123379,1,0
352,352,123556,1,0
416,320,123732,2,2,C|480:368|480:288,1,160,2|8
448,224,124261,5,0
480,160,124438,1,8
416,128,124614,1,0
352,160,124791,1,8
320,96,124967,1,0
288,32,125144,1,8
224,64,125320,1,0
160,32,125497,1,8
128,96,125673,1,0
160,160,125850,1,8
224,192,126026,1,0
256,256,126203,1,8
224,320,126379,1,0
160,352,126556,1,8
96,320,126732,1,0
64,256,126908,1,8
96,192,127085,1,0
32,160,127261,1,8
64,96,127438,1,0
128,64,127614,1,8
192,96,127791,1,0
224,160,127967,1,8
192,224,128144,1,0
256,256,128320,5,8
288,320,128497,1,0
352,352,128673,1,8
416,320,128850,1,0
448,256,129026,1,8
416,192,129203,1,0
352,160,129379,1,8
320,96,129556,1,0
352,32,129732,1,8
416,64,129908,1,0
448,128,130085,1,8
480,192,130261,1,0
448,256,130438,1,8
384,288,130614,1,0
320,256,130791,1,8
288,192,130967,1,0
256,128,131144,1,8
192,160,131320,1,0
160,224,131497,1,8
96,256,131673,1,0
32,224,131850,1,8
64,160,132026,1,0
32,96,132203,1,8
96,64,132379,1,0
160,32,132556,5,8
224,64,132732,1,0
256,128,132908,1,8
224,192,133085,1,0
288,224,133261,1,8
352,192,133438,1,0
320,128,133614,1,8
352,64,133791,1,0
416,96,133967,1,8
448,160,134144,1,0
416,224,134320,1,8
480,256,134497,1,0
448,320,134673,1,8
384,352,134850,1,0
320,320,135026,1,8
352,256,135203,1,0
320,192,135379,1,8
256,224,135556,1,0
224,288,135732,1,8
160,256,135908,1,0
128,320,136085,1,8
64,352,136261,1,0
32,288,136438,1,8
64,224,136614,1,0
128,192,136791,5,8
160,128,136967,1,0
96,96,137144,1,8
64,160,137320,1,0
32,96,137497,1,8
64,32,137673,1,0
128,0,137850,1,8
192,32,138026,1,0
224,96,138203,1,8
288,64,138379,1,0
352,32,138556,1,8
416,64,138732,1,0
480,96,138908,2,0,C|480:135|448:160,1,80,8|0
416,224,139261,2,0,C|378:224|352:192,1,80,8|0
320,128,139614,2,0,C|288:153|288:192,1,80,8|0
256,256,139967,2,0,C|218:256|192:224,1,80,8|0
160,160,140320,2,0,C|127:188|128:224,1,80,8|0
160,288,140673,2,0,C|134:320|96:320,1,80,8|0
32,352,141026,1,4
32,32,152320,5,0
32,32,152408,1,0
32,32,152497,1,0
96,56,152673,1,0
96,56,152761,1,0
96,56,152850,1,0
96,56,152938,1,0
96,56,153026,1,0
96,56,153114,1,0
96,56,153203,1,0
160,80,153379,1,0
160,80,153467,1,0
160,80,153556,1,0
96,120,153732,1,0
96,120,153820,1,0
96,120,153908,1,0
160,144,154085,1,0
160,144,154173,1,0
160,144,154261,1,0
160,144,154350,1,0
160,144,154438,1,0
160,144,154526,1,0
160,144,154614,1,0
224,168,154791,1,0
224,168,154879,1,0
224,168,154967,1,0
160,208,155144,5,0
160,208,155232,1,0
160,208,155320,1,0
224,232,155497,1,0
224,232,155585,1,0
224,232,155673,1,0
224,232,155761,1,0
224,232,155850,1,0
224,232,155938,1,0
224,232,156026,1,0
288,256,156203,1,0
288,256,156291,1,0
288,256,156379,1,0
224,296,156556,1,0
224,296,156644,1,0
224,296,156732,1,0
288,320,156908,1,0
288,320,156997,1,0
288,320,157085,1,0
288,320,157173,1,0
288,320,157261,1,0
288,320,157350,1,0
288,320,157438,1,0
352,344,157614,1,0
352,344,157703,1,0
352,344,157791,1,0
416,352,157967,5,4
416,352,158056,1,0
416,352,158144,1,0
384,288,158320,1,0
384,288,158408,1,0
384,288,158497,1,0
384,288,158585,1,0
384,288,158673,1,0
384,288,158761,1,0
384,288,158850,1,0
352,224,159026,1,0
352,224,159114,1,0
352,224,159203,1,0
320,288,159379,1,0
320,288,159467,1,0
320,288,159556,1,0
288,224,159732,1,0
288,224,159820,1,0
288,224,159908,1,0
288,224,159997,1,0
288,224,160085,1,0
288,224,160173,1,0
288,224,160261,1,0
256,160,160438,1,0
256,160,160526,1,0
256,160,160614,1,0
224,224,160791,5,0
224,224,160879,1,0
224,224,160967,1,0
192,160,161144,1,0
192,160,161232,1,0
192,160,161320,1,0
192,160,161408,1,0
192,160,161497,1,0
192,160,161585,1,0
192,160,161673,1,0
160,96,161850,1,0
160,96,161938,1,0
160,96,162026,1,0
160,96,162114,1,0
160,96,162203,1,0
160,96,162291,1,0
160,96,162379,1,0
128,160,162556,1,0
128,160,162644,1,0
128,160,162732,1,0
128,160,162820,1,0
128,160,162908,1,0
128,160,162997,1,0
128,160,163085,1,0
96,96,163261,1,0
96,96,163350,1,0
96,96,163438,1,0
96,96,163526,1,0
96,96,163614,5,4
96,96,163703,1,0
96,96,163791,2,0,C|64:121|64:160,1,80
32,192,164056,2,0,C|58:224|96:224,1,80
128,256,164320,2,0,C|128:295|160:320,1,80
192,352,164585,2,0,C|230:352|256:320,1,80
224,288,164850,2,0,C|224:249|256:224,1,80
272,208,165114,1,0
288,192,165203,2,0,C|320:167|320:128,1,80
288,96,165467,2,0,C|313:64|352:64,1,80
384,32,165732,2,0,C|423:32|448:64,1,80
480,96,165997,2,0,C|454:128|416:128,1,80
384,160,166261,2,0,C|384:198|416:224,1,80
432,240,166526,5,0
448,256,166614,2,0,C|471:288|448:320,1,80
416,352,166879,2,0,C|385:328|352:352,1,80
320,320,167144,2,0,C|296:288|320:256,1,80
288,224,167408,2,0,C|256:248|224:224,1,80
256,192,167673,2,0,C|280:161|256:128,1,80
240,112,167938,1,0
224,96,168026,2,0,C|192:72|160:96,1,80
192,128,168291,2,0,C|169:160|192:192,1,80
224,224,168556,2,0,C|192:247|160:224,1,80
128,256,168820,2,0,C|105:288|128:320,1,80
160,288,169085,2,0,C|183:320|160:352,1,80,0|4
96,320,169438,5,0
64,256,169614,1,0
64,256,169703,1,0
32,192,169879,1,0
32,192,169967,1,0
64,128,170144,1,0
64,128,170232,1,0
96,64,170408,1,0
96,64,170497,1,0
160,32,170673,1,4
224,64,170850,1,0
288,96,171026,1,0
288,96,171114,1,0
352,128,171291,1,0
352,128,171379,1,0
416,160,171556,1,0
416,160,171644,1,0
480,192,171820,1,0
480,192,171908,1,0
448,256,172085,5,4
384,288,172261,1,0
384,288,172350,1,0
384,288,172438,1,4
320,320,172614,1,0
320,320,172703,1,0
320,320,172791,1,4
256,352,172967,1,4
192,320,173144,1,4
160,256,173320,1,4
128,192,173497,1,0
136,176,173585,1,0
144,160,173673,1,0
152,144,173761,1,0
160,128,173850,1,0
168,144,173938,1,0
176,160,174026,1,0
184,176,174114,1,0
192,192,174203,1,0
200,176,174291,1,0
208,160,174379,1,0
216,144,174467,1,0
224,128,174556,1,0
232,144,174644,1,0
240,160,174732,1,0
248,176,174820,1,0
256,192,174908,1,0
264,176,174997,1,0
272,160,175085,1,0
280,144,175173,1,0
288,128,175261,1,0
296,144,175350,1,0
304,160,175438,1,0
312,176,175526,1,0
320,192,175614,1,0
328,176,175703,1,0
336,160,175791,1,0
344,144,175879,1,0
352,128,175967,1,0
360,144,176056,1,0
368,160,176144,1,0
376,176,176232,1,0
384,192,176320,1,4
32,32,177556,6,0,C|9:64|32:96,1,80,4|0
96,128,177908,1,0
32,160,178085,1,0
160,224,178438,1,0
192,240,178526,1,0
224,256,178614,1,0
256,192,178791,1,0
320,160,178967,1,0
384,192,179144,1,0
416,128,179320,1,0
384,64,179497,1,0
352,80,179585,1,0
320,96,179673,1,0
256,64,179850,1,2
224,128,180026,2,2,C|192:151|160:128,1,80
128,64,180379,6,0,C|95:40|64:64,1,80
32,128,180732,1,0
64,192,180908,1,0
128,160,181085,1,0
160,224,181261,1,0
128,240,181350,1,0
96,256,181438,1,0
32,288,181614,1,0
96,320,181791,1,0
160,352,181967,1,2
192,288,182144,2,2,C|224:311|256:288,1,80
288,352,182497,2,2,C|320:329|352:352,1,80
384,288,182850,2,2,C|416:312|448:288,1,80
512,320,183203,6,0,C|536:288|512:256,1,80
448,224,183556,1,0
512,192,183732,1,0
448,64,184085,1,0
416,48,184173,1,0
384,32,184261,1,0
352,96,184438,1,0
384,160,184614,1,0
352,224,184791,1,0
288,256,184967,1,0
224,224,185144,1,0
240,192,185232,1,0
256,160,185320,1,0
288,96,185497,1,2
256,32,185673,2,2,C|225:8|192:32,1,80
128,64,186026,6,0,C|105:97|128:128,1,80
160,192,186379,1,0
96,224,186556,1,0
64,288,186732,1,0
96,352,186908,1,0
128,336,186997,1,0
160,320,187085,1,0
192,256,187261,1,0
256,288,187438,1,0
288,352,187614,1,2
352,320,187791,2,2,C|375:289|352:256,1,80
288,224,188144,2,2,C|264:192|288:160,1,80
352,128,188497,2,2,C|376:96|352:64,1,80
288,32,188850,6,6,B|81:17|96:224,1,320,6|2
160,352,189556,2,6,B|367:367|352:160,1,320,6|2
416,32,190261,2,0,C|433:68|448:32,1,80,4|0
512,64,190614,1,0
480,128,190791,1,0
448,144,190879,1,0
416,160,190967,1,0
448,224,191144,1,2
480,288,191320,2,2,C|516:304|480:320,1,80
416,352,191673,6,0,C|401:316|384:352,1,80
320,320,192026,1,0
352,256,192203,1,0
320,192,192379,1,0
288,256,192556,1,0
256,240,192644,1,0
224,224,192732,1,0
160,256,192908,1,0
224,288,193085,1,0
160,320,193261,1,2
96,352,193438,2,2,C|60:337|96:320,1,80
32,288,193791,2,2,C|68:272|32:256,1,80
96,224,194144,2,2,C|60:209|96:192,1,80
64,128,194497,6,0,C|50:164|32:128,1,80
0,64,194850,1,0
64,32,195026,1,0
192,96,195379,1,0
160,112,195467,1,0
128,128,195556,1,0
160,192,195732,1,0
224,224,195908,1,0
256,160,196085,1,0
320,128,196261,1,0
288,64,196438,1,0
320,48,196526,1,0
352,32,196614,1,0
416,64,196791,1,2
448,128,196967,2,2,C|484:144|448:160,1,80
384,192,197320,6,0,C|368:156|352:192,1,80
288,224,197673,1,0
352,256,197850,1,0
416,288,198026,1,0
384,352,198203,1,0
320,320,198379,1,0
288,336,198467,1,0
256,352,198556,1,0
192,320,198732,1,0
160,256,198908,2,0,L|148:159|128:64|160:32,1,240
176,48,199526,1,0
192,64,199614,1,0
208,48,199703,1,0
224,32,199791,1,0
240,48,199879,1,0
256,64,199967,1,0
272,48,200056,1,0
288,32,200144,1,0
304,48,200232,1,0
320,64,200320,1,4
256,192,200673,5,4
256,192,200761,12,4,205614
