osu file format v5

[General]
AudioFilename: Utage wa Eien ni.mp3
AudioLeadIn: 0
PreviewTime: 19438
Countdown: 0
SampleSet: Normal
StackLeniency: 0.2
Mode: 0
LetterboxInBreaks: 1
EditorBookmarks: 2673,12556,19438,30732,42203,53497,64791,76085,90026,101320,112791,124438,141026,152320,163614,177556,188850,200320
EditorDistanceSpacing: 2

[Metadata]
Title:Utage wa Eien ni
Artist:IOSYS
Creator:DJPop
Version:Normal
Source:Touhou Suisui Suusuu
Tags:utage wa eien ni iosys touhou suisui suusuu

[Difficulty]
HPDrainRate:3
CircleSize:5
OverallDifficulty:5
SliderMultiplier:1.2
SliderTickRate:1

[Events]
//Background and Video events
0,0,"Utage wa Eien ni.png"
1,-2250,"Utage wa Eien ni.avi"
//Break Periods
2,53629,63974
2,141158,151502
//Storyboard Layer 0 (Background)
//Storyboard Layer 1 (Failing)
//Storyboard Layer 2 (Passing)
//Storyboard Layer 3 (Foreground)
//Storyboard Sound Samples
//Background Colour Transformations
3,100,255,128,0

[TimingPoints]
556,352.941176470588,4,1,0,60,1,0
19085,-100,4,1,0,80,0,0

[Colours]
Combo1 : 255,255,0
Combo2 : 0,255,0
Combo3 : 0,0,255
Combo4 : 255,0,0

[HitObjects]
256,192,2673,5,0
320,192,3026,1,0
384,192,3379,2,0,B|416:192|448:192|480:224|487:256|480:288|448:320|416:320|384:320,1,240
320,320,4438,1,0
256,320,4791,2,0,B|224:320|192:320|160:288|153:256|160:224|192:192|224:192|256:192,1,240
320,192,5850,5,0
320,128,6203,2,0,B|320:96|320:64|288:32|256:25|224:32|192:64|192:96|192:128,1,240
192,192,7261,1,0
192,256,7614,2,0,B|192:288|192:320|224:352|256:359|288:352|320:320|320:288|320:256,1,240
320,192,8673,5,0
256,192,9026,2,0,B|256:160|256:128|224:96|192:89|160:96|128:128|128:160|128:192,1,240
64,192,10085,1,0
64,256,10438,2,0,B|64:288|64:320|96:352|128:359|160:352|192:320|192:288|192:256,1,240
192,192,11497,5,0
192,128,11850,2,0,B|192:96|192:64|160:32|128:25|96:32|64:64|64:96|64:128,1,240
256,192,12555,12,4,18203
448,320,19438,5,4
384,320,19791,1,0
352,320,19967,1,0
288,320,20320,1,0
256,320,20497,1,0
192,320,20850,1,0
192,256,21203,1,0
192,224,21379,1,0
192,192,21555,2,2,C|192:64,1,120,2|2
128,64,22261,5,0
64,64,22614,1,0
64,96,22791,1,0
64,128,22967,1,0
128,128,23320,1,0
128,160,23497,1,0
128,192,23673,1,0
192,192,24026,2,2,C|192:320,2,120
256,192,25085,5,0
320,192,25438,1,0
352,192,25614,1,0
352,256,25967,1,0
384,256,26144,1,0
384,320,26497,1,0
448,320,26850,1,0
448,288,27026,1,0
448,256,27203,2,2,C|448:128,1,120,2|2
448,64,27908,5,0
384,64,28261,1,0
352,64,28438,1,0
320,64,28614,1,0
320,128,28967,1,0
288,128,29144,1,0
256,128,29320,1,0
192,128,29673,2,2,C|64:128,2,120
192,192,30732,5,4
128,192,31085,1,0
128,224,31261,1,0
128,256,31438,1,4
128,288,31614,1,0
128,320,31791,1,0
64,320,32144,1,4
64,256,32497,1,0
64,224,32673,1,0
64,192,32850,2,2,C|64:64,1,120,2|2
128,64,33555,5,0
192,64,33908,1,0
192,96,34085,1,0
192,128,34261,1,0
256,128,34614,1,0
288,128,34791,1,0
320,128,34967,1,0
384,128,35320,2,2,C|512:128,2,120
384,192,36379,5,0
448,192,36732,1,0
448,224,36908,1,0
448,288,37261,1,0
448,320,37438,1,0
384,320,37791,1,0
384,256,38144,1,0
352,256,38320,1,0
320,256,38497,2,2,C|192:256,1,120,2|2
192,320,39203,5,0
128,320,39555,1,0
96,320,39732,1,0
64,320,39908,1,0
64,256,40261,1,0
64,224,40438,1,0
64,192,40614,1,0
64,160,40791,2,0,C|32:128|62:96|32:64|64:32,1,180
256,192,42203,5,4
320,192,42555,1,0
384,192,42908,2,2,C|448:192,3,60
480,192,43614,1,0
480,128,43967,1,0
480,64,44320,2,2,C|416:64,3,60
384,64,45026,5,0
320,64,45379,1,0
256,64,45732,2,2,C|192:64,3,60
160,64,46438,1,0
160,128,46791,1,0
160,192,47144,2,2,C|96:192,3,60
64,192,47850,5,0
64,256,48203,1,0
64,320,48555,2,2,C|128:320,3,60
160,320,49261,1,0
224,320,49614,1,0
224,256,49967,2,2,C|288:256,3,60
320,256,50673,5,0
384,256,51026,1,0
448,256,51379,2,2,C|448:320,2,60
448,192,52085,1,0
384,192,52438,1,0
320,192,52791,2,2,C|320:128,2,60
256,192,53497,1,4
448,64,64791,5,4
320,64,65497,1,0
192,64,66203,2,0,C|160:32|128:96|96:32|64:64,1,240
64,192,67614,5,0
192,192,68320,1,0
320,192,69026,2,0,C|352:160|384:224|416:160|448:192,1,240
448,320,70438,6,0,C|416:352|384:288|352:352|320:320,1,240,4|0
192,320,71850,2,0,C|160:352|128:288|96:352|64:320,1,240
64,192,73261,5,0
192,192,73967,1,0
320,192,74673,2,0,C|352:224|384:160|416:224|448:192,1,240
448,64,76085,5,4
320,64,76791,1,0
320,192,77497,2,0,C|352:224|288:256|352:288|320:320,1,240
192,320,78908,5,0
64,320,79614,1,0
64,192,80320,2,0,C|32:160|96:128|32:96|64:64,1,240
192,64,81732,5,4
320,320,83144,1,4
208,96,84556,5,4
240,160,84908,1,4
272,224,85261,1,4
304,288,85614,1,4
256,192,85967,12,4,88791
64,320,90026,5,4
128,320,90379,1,0
160,320,90556,1,0
160,256,90908,1,0
128,256,91085,1,0
64,256,91438,1,0
64,192,91791,1,0
96,192,91967,1,0
128,192,92144,2,2,C|256:192,1,120,2|2
256,128,92850,5,0
192,128,93203,1,0
160,128,93379,1,0
128,128,93556,1,0
128,64,93908,1,0
160,64,94085,1,0
192,64,94261,1,0
256,64,94614,2,2,C|384:64,2,120,2|2|2
256,128,95673,5,0
320,128,96026,1,0
352,128,96203,1,0
416,128,96556,1,0
448,128,96732,1,0
448,192,97085,1,0
384,192,97438,1,0
352,192,97614,1,0
320,192,97791,2,2,C|192:192,1,120,2|2
128,192,98497,5,0
64,192,98850,1,0
64,224,99026,1,0
64,256,99203,1,0
128,256,99556,1,0
128,288,99732,1,0
128,320,99908,1,0
192,320,100261,2,2,C|320:320,2,120
192,256,101320,5,6
224,192,101673,1,2
256,128,102026,1,6
288,192,102379,1,2
320,256,102732,1,4
384,256,103085,1,0
384,224,103261,1,0
384,192,103438,2,0,C|384:64,1,120,0|2
448,64,104144,5,0
448,128,104497,1,0
448,160,104673,1,0
448,192,104850,1,0
448,256,105203,1,0
448,288,105379,1,0
448,320,105556,1,0
384,320,105908,2,2,C|256:320,2,120,2|2|2
384,256,106967,5,0
320,256,107320,1,0
320,224,107497,1,0
256,224,107850,1,0
256,256,108026,1,0
192,256,108379,1,0
128,256,108732,1,0
128,224,108908,1,0
128,192,109085,2,2,C|128:64,1,120,2|2
192,64,109791,5,0
256,64,110144,1,0
288,64,110320,1,0
320,64,110497,1,0
320,128,110850,1,0
352,128,111026,1,0
384,128,111203,1,0
416,128,111379,2,0,C|448:160|418:192|448:224|416:256,1,180
256,192,112791,5,4
192,192,113144,1,0
128,192,113497,1,2
128,192,113673,1,2
128,192,113850,1,2
128,192,114026,1,2
128,192,114203,5,0
128,256,114556,1,0
128,320,114908,1,2
128,320,115085,1,2
128,320,115261,1,2
128,320,115438,1,2
128,320,115614,5,0
192,320,115967,1,0
256,320,116320,1,2
256,320,116497,1,2
256,320,116673,1,2
256,320,116850,1,2
256,320,117026,5,0
256,256,117379,1,0
256,192,117732,1,2
256,192,117908,1,2
256,192,118085,1,2
256,192,118261,1,2
256,192,118438,5,0
256,128,118791,1,0
256,64,119144,1,2
272,64,119320,1,2
288,64,119497,1,2
304,64,119673,1,2
320,64,119850,5,0
384,64,120203,1,0
384,128,120556,1,2
384,144,120732,1,2
384,160,120908,1,2
384,176,121085,1,2
384,192,121261,5,0
384,256,121614,1,0
384,320,121967,1,2
368,320,122144,1,2
352,320,122320,1,2
336,320,122497,1,2
320,320,122673,5,0
256,320,123026,1,0
256,304,123203,1,2
256,288,123379,1,2
256,272,123556,1,2
256,256,123732,1,2
256,192,124085,5,8
320,256,124438,1,8
384,192,124791,1,8
448,128,125144,1,8
384,64,125497,1,8
320,128,125850,1,8
256,64,126203,1,8
192,128,126556,1,8
128,64,126908,1,8
64,128,127261,1,8
128,192,127614,1,8
64,256,127967,1,8
128,320,128320,5,8
192,256,128673,1,8
256,320,129026,1,8
320,256,129379,1,8
384,320,129732,1,8
448,256,130085,1,8
384,192,130438,1,8
448,128,130791,1,8
384,64,131144,1,8
320,128,131497,1,8
256,192,131850,1,8
192,256,132203,1,8
128,320,132556,5,8
64,256,132908,1,8
128,192,133261,1,8
64,128,133614,1,8
128,64,133967,1,8
192,128,134320,1,8
256,192,134673,1,8
320,256,135026,1,8
384,320,135379,1,8
448,256,135732,1,8
384,192,136085,1,8
448,128,136438,1,8
384,64,136791,5,8
320,128,137144,1,8
256,64,137497,1,8
192,128,137850,1,8
128,192,138203,1,8
192,256,138556,1,8
256,320,138908,1,8
320,256,139261,1,8
384,192,139614,1,8
320,128,139967,1,8
256,64,140320,1,8
192,128,140673,1,8
256,192,141026,1,4
64,320,152320,5,4
192,320,153026,1,0
320,320,153732,2,0,C|352:288|288:256|352:224|320:192,1,240
192,192,155144,5,0
64,192,155850,1,0
64,64,156556,2,0,C|96:32|128:96|160:32|192:64,1,240
320,64,157967,6,0,C|352:96|288:128|352:160|320:192,1,240,4|0
192,192,159379,2,0,C|160:224|224:256|160:288|192:320,1,240
320,320,160791,5,0
448,320,161497,1,0
448,192,162203,2,0,C|480:160|416:128|480:96|448:64,1,240
320,64,163614,5,4
320,192,164320,1,0
192,192,165026,2,0,C|160:160|128:224|96:160|64:192,1,240
64,320,166438,5,0
192,320,167144,1,0
320,320,167850,2,0,C|352:288|288:256|352:224|320:192,1,240
320,64,169261,5,4
192,320,170673,1,4
304,96,172085,5,4
272,160,172438,1,4
240,224,172791,1,4
208,288,173144,1,4
256,192,173497,12,4,176320
448,64,177556,5,4
384,64,177908,1,0
352,64,178085,1,0
352,128,178438,1,0
320,128,178614,1,0
320,192,178967,1,0
256,192,179320,1,0
224,192,179497,1,0
192,192,179673,2,2,C|64:192,1,120,2|2
64,256,180379,5,0
64,320,180732,1,0
96,320,180908,1,0
128,320,181085,1,0
128,256,181438,1,0
160,256,181614,1,0
192,256,181791,1,0
256,256,182144,2,2,C|256:128,2,120
256,320,183203,5,0
320,320,183556,1,0
352,320,183732,1,0
352,256,184085,1,0
384,256,184261,1,0
448,256,184614,1,0
448,192,184967,1,0
416,192,185144,1,0
384,192,185320,2,2,C|256:192,1,120,2|2
256,128,186026,5,0
256,64,186379,1,0
224,64,186556,1,0
192,64,186732,1,0
192,128,187085,1,0
160,128,187261,1,0
128,128,187438,1,0
128,192,187791,2,2,C|0:192,2,120,2|2|2
192,192,188850,5,6
224,256,189203,1,2
256,320,189556,1,6
288,256,189908,1,2
320,192,190261,1,4
256,192,190614,1,0
256,160,190791,1,0
256,128,190967,2,2,C|384:128,1,120,2|2
448,128,191673,5,0
448,192,192026,1,0
448,224,192203,1,0
448,256,192379,1,0
384,256,192732,1,0
352,256,192908,1,0
320,256,193085,1,0
320,320,193438,2,2,C|448:320,2,120
256,320,194497,5,0
192,320,194850,1,0
160,320,195026,1,0
96,320,195379,1,0
64,320,195556,1,0
64,256,195908,1,0
64,192,196261,1,0
64,160,196438,1,0
64,128,196614,2,2,C|192:128,1,120,2|2
192,64,197320,5,0
256,64,197673,1,0
288,64,197850,1,0
320,64,198026,1,0
384,64,198379,1,0
384,96,198556,1,0
384,128,198732,1,0
384,160,198908,2,0,C|384:352,1,180
256,192,200320,5,4
256,192,200673,1,4
256,192,200850,12,4,205614
