osu file format v5

[General]
AudioFilename: Utage wa Eien ni.mp3
AudioLeadIn: 0
PreviewTime: 19438
Countdown: 0
SampleSet: Normal
StackLeniency: 0.2
Mode: 0
LetterboxInBreaks: 1
EditorBookmarks: 2673,12556,19438,30732,42203,53497,64791,76085,90026,101320,112791,124438,141026,152320,163614,177556,188850,200320
EditorDistanceSpacing: 2

[Metadata]
Title:Utage wa Eien ni
Artist:IOSYS
Creator:DJPop
Version:Easy
Source:Touhou Suisui Suusuu
Tags:utage wa eien ni iosys touhou suisui suusuu

[Difficulty]
HPDrainRate:2
CircleSize:4
OverallDifficulty:4
SliderMultiplier:0.96
SliderTickRate:1

[Events]
//Background and Video events
0,0,"Utage wa Eien ni.png"
1,-2250,"Utage wa Eien ni.avi"
//Break Periods
2,53629,63974
2,141158,151502
//Storyboard Layer 0 (Background)
//Storyboard Layer 1 (Failing)
//Storyboard Layer 2 (Passing)
//Storyboard Layer 3 (Foreground)
//Storyboard Sound Samples
//Background Colour Transformations
3,100,255,128,0

[TimingPoints]
556,352.941176470588,4,1,0,60,1,0
19085,-100,4,1,0,80,0,0

[Colours]
Combo1 : 255,255,0
Combo2 : 0,255,0
Combo3 : 0,0,255
Combo4 : 255,0,0

[HitObjects]
256,192,2673,5,0
384,192,3379,2,0,B|416:184|448:168|467:128|448:88|416:72|384:64,1,192
256,64,4791,2,0,B|224:72|192:88|173:128|192:168|224:184|256:192,1,192
384,192,6203,6,0,B|416:200|448:216|467:256|448:296|416:312|384:320,1,192
256,320,7614,2,0,B|248:288|232:256|192:237|152:256|136:288|128:320,1,192
128,192,9026,6,0,B|96:184|64:168|45:128|64:88|96:72|128:64,1,192
256,64,10438,2,0,B|264:96|280:128|320:147|360:128|376:96|384:64,1,192
384,192,11850,5,0
256,192,12555,12,4,18203
448,320,19438,5,4
320,320,20144,1,0
320,192,20850,1,0
192,192,21555,2,0,C|96:192,1,96,0|2
96,128,22261,1,0
224,128,22967,1,0
352,128,23673,2,0,C|352:32,3,96,0|2|2|2
416,32,25085,5,0
416,160,25791,1,0
416,288,26497,1,0
288,288,27203,2,0,C|192:288,1,96,0|2
192,352,27908,1,0
64,352,28614,1,0
64,224,29320,2,0,C|64:128,3,96,0|2|2|2
128,128,30732,5,4
256,128,31438,1,4
256,256,32144,1,4
384,256,32850,2,0,C|480:256,1,96,0|2
480,192,33555,1,0
352,192,34261,1,0
352,64,34967,2,0,C|256:64,3,96,0|2|2|2
256,128,36379,5,0
256,256,37085,1,0
128,256,37791,1,0
128,128,38497,2,0,C|32:128,1,96,0|2
32,192,39203,1,0
32,320,39908,1,0
160,320,40614,1,0
256,192,42203,5,4
384,192,42908,2,2,B|411:187|416:160,3,48
256,64,44320,2,2,C|246:43|224:32,3,48
128,192,45732,6,2,C|107:202|96:224,3,48
256,320,47144,2,2,C|268:343|288:352,3,48
384,192,48556,6,2,C|362:202|352:224,3,48
256,64,49967,2,2,C|266:85|288:96,3,48
128,192,51379,6,2,C|151:180|160:160,2,48
256,320,52791,2,2,C|246:299|224:288,2,48
256,192,53497,1,4
448,64,64791,5,4
320,64,65497,1,0
192,64,66203,2,0,C|160:80|136:48|120:80|96:48|64:64,1,192
64,192,67614,1,0
192,192,68320,1,0
320,192,69026,2,0,C|352:176|376:208|392:176|416:208|448:192,1,192
448,320,70438,6,0,C|416:336|392:304|376:336|352:304|320:320,1,192,4|0
192,320,71850,2,0,C|160:304|136:336|120:304|96:336|64:320,1,192
64,192,73261,1,0
192,192,73967,1,0
320,192,74673,2,0,C|352:176|376:208|392:176|416:208|448:192,1,192
448,64,76085,5,4
320,64,76791,1,0
320,192,77497,2,0,C|304:224|336:248|304:264|336:288|320:320,1,192
192,320,78908,1,0
64,320,79614,1,0
64,192,80320,2,0,C|48:160|80:136|48:120|80:96|64:64,1,192
256,32,81732,5,4
256,352,83144,1,4
256,96,84556,1,4
256,160,84908,1,4
256,224,85261,1,4
256,288,85614,1,4
256,192,85967,12,4,88791
64,320,90026,5,4
64,192,90732,1,0
192,192,91438,1,0
192,320,92144,2,0,C|288:320,1,96,0|2
288,256,92850,1,0
416,256,93556,1,0
416,128,94261,2,0,C|416:32,3,96,0|2|2|2
352,32,95673,5,0
224,32,96379,1,0
224,160,97085,1,0
96,160,97791,2,0,C|96:256,1,96,0|2
160,256,98497,1,0
288,256,99203,1,0
416,256,99908,2,0,C|416:160,3,96,0|2|2|2
352,160,101320,5,6
288,192,101673,1,2
224,224,102026,1,6
160,256,102379,1,2
96,288,102732,1,4
96,160,103438,2,0,C|96:64,1,96,0|2
160,64,104144,1,0
288,64,104850,1,0
288,192,105556,2,0,C|288:288,3,96,0|2|2|2
352,288,106967,5,0
352,160,107673,1,0
480,160,108379,1,0
480,32,109085,2,0,C|384:32,1,96,0|2
384,96,109791,1,0
256,96,110497,1,0
128,96,111203,1,0
256,192,112791,5,4
256,288,113497,1,2
256,288,113673,1,2
256,288,113850,1,2
256,288,114026,1,2
352,192,114908,1,2
352,192,115085,1,2
352,192,115261,1,2
352,192,115438,1,2
256,96,116320,5,2
256,96,116497,1,2
256,96,116673,1,2
256,96,116850,1,2
160,192,117732,1,2
160,192,117908,1,2
160,192,118085,1,2
160,192,118261,1,2
256,288,119144,5,2
256,272,119320,1,2
256,256,119497,1,2
256,240,119673,1,2
352,192,120556,1,2
336,192,120732,1,2
320,192,120908,1,2
304,192,121085,1,2
256,96,121967,5,2
256,112,122144,1,2
256,128,122320,1,2
256,144,122497,1,2
160,192,123203,1,2
176,192,123379,1,2
192,192,123556,1,2
208,192,123732,1,2
96,160,124085,5,8
48,144,124438,1,8
32,96,124791,1,8
48,48,125144,1,8
96,32,125497,1,8
144,48,125850,1,8
160,96,126203,1,8
208,112,126556,1,8
256,96,126908,1,8
272,48,127261,1,8
320,32,127614,1,8
368,48,127967,1,8
384,96,128320,5,8
368,144,128673,1,8
320,160,129026,1,8
304,208,129379,1,8
256,224,129732,1,8
208,208,130085,1,8
192,160,130438,1,8
144,144,130791,1,8
96,160,131144,1,8
80,208,131497,1,8
96,256,131850,1,8
144,272,132203,1,8
160,320,132556,5,8
208,336,132908,1,8
256,320,133261,1,8
272,272,133614,1,8
256,224,133967,1,8
208,208,134320,1,8
192,160,134673,1,8
208,112,135026,1,8
256,96,135379,1,8
272,48,135732,1,8
320,32,136085,1,8
368,48,136438,1,8
384,96,136791,5,8
432,112,137144,1,8
448,160,137497,1,8
432,208,137850,1,8
384,224,138203,1,8
368,272,138556,1,8
384,320,138908,1,8
432,336,139261,1,8
480,320,139614,1,8
496,272,139967,1,8
480,224,140320,1,8
432,208,140673,1,8
384,224,141026,1,4
64,320,152320,5,4
192,320,153026,1,0
320,320,153732,2,0,C|352:304|376:336|392:304|416:336|448:320,1,192
448,192,155144,1,0
320,192,155850,1,0
192,192,156556,2,0,C|160:208|136:176|120:208|96:176|64:192,1,192
64,64,157967,6,0,C|96:48|120:80|136:48|160:80|192:64,1,192,4|0
320,64,159379,2,0,C|352:80|376:48|392:80|416:48|448:64,1,192
448,192,160791,1,0
320,192,161497,1,0
192,192,162203,2,0,C|160:208|136:176|120:208|96:176|64:192,1,192
64,320,163614,5,4
192,320,164320,1,0
192,192,165026,2,0,C|208:160|176:136|208:120|176:96|192:64,1,192
320,64,166438,1,0
448,64,167144,1,0
448,192,167850,2,0,C|464:224|432:248|464:264|432:288|448:320,1,192
256,352,169261,5,4
256,32,170673,1,4
256,288,172085,1,4
256,224,172438,1,4
256,160,172791,1,4
256,96,173144,1,4
256,192,173497,12,4,176320
448,64,177556,5,4
320,64,178261,1,0
320,192,178967,1,0
320,320,179673,2,0,C|224:320,1,96,0|2
160,320,180379,1,0
160,192,181085,1,0
32,192,181791,2,0,C|32:96,3,96,0|2|2|2
32,32,183203,5,0
160,32,183908,1,0
288,32,184614,1,0
288,160,185320,2,0,C|288:256,1,96,0|2
288,320,186026,1,0
160,320,186732,1,0
160,192,187438,2,0,C|160:96,3,96,0|2|2|2
160,32,188850,5,6
224,64,189203,1,2
288,96,189556,1,6
352,128,189908,1,2
416,160,190261,1,4
416,288,190967,2,0,C|320:288,1,96,0|2
256,288,191673,1,0
256,160,192379,1,0
128,160,193085,2,0,C|128:256,3,96,0|2|2|2
128,320,194497,5,0
256,320,195203,1,0
384,320,195908,1,0
384,192,196614,2,0,C|384:96,1,96,0|2
384,32,197320,1,0
256,32,198026,1,0
128,32,198732,1,0
256,192,200320,5,4
256,192,200673,1,4
256,192,200761,12,4,205614
