osu file format v14

[General]
AudioFilename: Usatei.mp3
AudioLeadIn: 0
PreviewTime: 156698
Countdown: 0
SampleSet: Normal
StackLeniency: 0.5
Mode: 0
LetterboxInBreaks: 1
WidescreenStoryboard: 0

[Editor]
DistanceSpacing: 0.8
BeatDivisor: 2
GridSize: 4
TimelineZoom: 1

[Metadata]
Title:Usatei 2011
TitleUnicode:Usatei 2011
Artist:IOSYS
ArtistUnicode:IOSYS
Creator:InC0nceNtrateD
Version:Starry-'s Normal
Source:Touhou
Tags:Toho Remake Tewi Carrot Starzd Nwolf kagome cool&create
BeatmapID:262209
BeatmapSetID:98271

[Difficulty]
HPDrainRate:5
CircleSize:3
OverallDifficulty:5
ApproachRate:5
SliderMultiplier:1.2
SliderTickRate:2

[Events]
//Background and Video events
0,0,"TewiBG.JPG",0,0
//Break Periods
2,25329,34234
2,98592,104971
2,136487,145392
//Storyboard Layer 0 (Background)
//Storyboard Layer 1 (Fail)
//Storyboard Layer 2 (Pass)
//Storyboard Layer 3 (Foreground)
//Storyboard Sound Samples

[TimingPoints]
3856,315.789473684211,4,1,0,60,1,0
53119,-95.2380952380952,4,1,0,60,0,0
53750,-90.9090909090909,4,1,0,60,0,0
54382,-86.9565217391304,4,1,0,60,0,0
55013,-83.3333333333333,4,1,0,60,0,0
55645,-80,4,1,0,60,0,1
75856,-76.9230769230769,4,1,0,60,0,1
96066,-100,4,1,0,60,0,1
96382,-100,4,1,0,60,0,0
156698,-76.9230769230769,4,1,0,60,0,1
166803,-76.9230769230769,4,1,0,60,0,1
176277,-100,4,1,0,60,0,0
176592,-100,4,1,0,5,0,0
176908,-100,4,1,0,60,0,0

[Colours]
Combo1 : 255,55,61
Combo2 : 232,208,77
Combo3 : 249,106,245
Combo4 : 226,146,24

[HitObjects]
144,240,5119,5,4,0:0:0:0:
313,149,5750,1,0,0:0:0:0:
354,338,6382,1,0,0:0:0:0:
248,176,7013,2,0,P|208:144|128:144,1,120
152,236,7645,6,0,P|292:280|352:224,2,240,6|2|2,0:0|0:0|0:0,0:0:0:0:
288,104,9540,2,0,P|368:88|432:104,1,120,4|4,0:0|0:0,0:0:0:0:
460,200,10171,6,0,P|352:248|236:188,1,240
352,144,11119,1,0,0:0:0:0:
244,88,11434,2,0,P|352:40|468:100,1,240
264,224,12698,5,4,0:0:0:0:
161,173,13013,2,0,P|220:103|244:88,2,120
256,192,13961,12,4,15224,0:0:0:0:
128,176,15856,6,0,P|136:240|192:280,2,120,0|8|0,0:0|0:0|0:0,0:0:0:0:
208,88,16803,1,8,0:0:0:0:
276,188,17119,2,0,P|248:200|200:196,2,60,2|2|2,0:0|0:0|0:0,0:0:0:0:
360,104,17750,6,0,P|416:136|448:184,1,120,0|8,0:0|0:0,0:0:0:0:
420,300,18382,2,0,P|364:268|332:220,1,120,0|8,0:0|0:0,0:0:0:0:
228,168,19013,2,0,L|148:152,2,60,0|0|8,0:0|0:0|0:0,0:0:0:0:
348,180,19645,2,2,B|376:174|376:142|376:142|376:94|407:88,1,120
292,56,20277,6,0,P|204:80|172:72,2,120,0|8|0,0:0|0:0|0:0,0:0:0:0:
404,8,21224,1,8,0:0:0:0:
420,128,21540,1,0,0:0:0:0:
308,168,21856,1,8,0:0:0:0:
192,196,22171,2,2,P|128:220|96:220,2,60,2|2|2,0:0|0:0|0:0,0:0:0:0:
260,96,22803,6,0,B|480:192|480:192|260:288,1,480,4|6,0:0|0:0,0:0:0:0:
140,272,24382,2,8,P|100:224|100:216,2,60,8|8|12,0:0|0:0|0:0,0:0:0:0:
136,152,35434,6,0,P|208:144|232:144,2,60,0|0|2,0:0|0:0|0:0,0:0:0:0:
72,256,36066,1,0,0:0:0:0:
168,328,36382,1,2,0:0:0:0:
256,248,36698,2,8,P|344:240|392:280,2,120,10|10|10,0:0|0:0|0:0,0:0:0:0:
176,160,37645,1,0,0:0:0:0:
264,80,37961,6,0,L|336:56,2,60,0|0|2,0:0|0:0|0:0,0:0:0:0:
296,200,38592,2,0,L|320:272,2,60,0|0|2,0:0|0:0|0:0,0:0:0:0:
176,160,39224,1,10,0:0:0:0:
264,80,39540,1,10,0:0:0:0:
368,136,39856,1,10,0:0:0:0:
288,224,40171,1,2,0:0:0:0:
168,232,40487,6,0,P|138:332|210:300,1,240,0|8,0:0|0:0,0:0:0:0:
256,188,41434,1,2,0:0:0:0:
301,300,41750,2,0,P|373:332|344:232,1,240,0|8,0:0|0:0,0:0:0:0:
280,112,43013,6,0,P|224:88|176:96,2,60,0|0|2,0:0|0:0|0:0,0:0:0:0:
184,184,43645,2,0,P|128:208|80:200,2,60,0|0|2,0:0|0:0|0:0,0:0:0:0:
296,224,44277,2,8,B|304:256|360:264|360:336,1,120
240,336,44908,2,8,B|232:304|176:296|176:224,1,120
168,120,45540,6,0,P|216:48|392:88,1,240
384,168,46487,1,8,0:0:0:0:
304,256,46803,1,0,0:0:0:0:
224,168,47119,1,8,0:0:0:0:
144,256,47434,1,2,0:0:0:0:
112,138,48066,6,0,P|352:104|384:168,1,360,0|8,0:0|0:0,0:0:0:0:
364,288,49329,1,2,0:0:0:0:
244,280,49645,1,8,0:0:0:0:
124,264,49961,1,0,0:0:0:0:
208,136,50592,6,0,B|304:168|296:40|376:56,2,180,0|0|8,0:0|0:0|0:0,0:0:0:0:
112,64,51856,1,0,0:0:0:0:
64,176,52171,2,0,P|40:208|24:224,2,60,8|8|2,0:0|0:0|0:0,0:0:0:0:
280,48,53119,5,4,0:0:0:0:
232,304,53750,1,4,0:0:0:0:
288,32,54382,5,4,0:0:0:0:
224,320,55013,1,4,0:0:0:0:
40,78,55645,6,0,P|48:198|184:160,1,300,2|0,0:0|0:0,0:0:0:0:
240,56,56592,2,0,P|296:136|272:216,2,150,8|2|8,0:0|0:0|0:0,0:0:0:0:
184,160,57540,1,0,0:0:0:0:
232,280,57856,1,8,0:0:0:0:
316,196,58171,6,0,B|428:196|332:36|444:36,2,225,2|8|0,0:0|0:0|0:0,0:0:0:0:
220,124,59434,1,2,0:0:0:0:
124,52,59750,1,2,0:0:0:0:
96,168,60066,2,0,L|128:328,1,150,2|2,0:0|0:0,0:0:0:0:
200,220,60698,6,0,P|361:218|241:274,1,450,2|8,0:0|0:0,0:0:0:0:
120,320,61961,1,2,0:0:0:0:
120,80,62592,1,2,0:0:0:0:
333,193,63224,6,8,B|260:236|200:144|112:208,2,225,2|8|2,0:0|0:0|0:0,0:0:0:0:
336,72,64487,2,0,P|416:104|448:184,1,150,2|2,0:0|0:0,0:0:0:0:
432,280,65119,2,0,L|376:352,2,75,2|0|10,0:0|0:0|0:0,0:0:0:0:
328,224,65750,6,0,B|264:192|192:176|152:272|144:288|144:288|112:328|80:264,1,300,2|0,0:0|0:0,0:0:0:0:
96,160,66698,2,0,P|112:104|40:64,2,150,8|2|8,0:0|0:0|0:0,0:0:0:0:
216,176,67645,1,0,0:0:0:0:
320,120,67961,1,8,0:0:0:0:
328,240,68277,6,0,P|360:272|384:184,2,150,2|8|0,0:0|0:0|0:0,0:0:0:0:
268,136,69224,2,0,P|196:88|116:96,1,150,8|2,0:0|0:0,0:0:0:0:
72,192,69856,1,2,0:0:0:0:
135,294,70171,2,0,P|208:292|268:248,1,150,8|2,0:0|0:0,0:0:0:0:
372,192,70803,6,0,P|352:112|96:192,1,450,2|8,0:0|0:0,0:0:0:0:
144,296,72066,1,2,0:0:0:0:
376,232,72698,1,2,0:0:0:0:
200,72,73329,6,8,B|242:145|150:205|214:293,2,225,2|8|2,0:0|0:0|0:0,0:0:0:0:
320,96,74592,1,2,0:0:0:0:
112,224,75224,1,6,0:0:0:0:
336,336,75856,6,0,P|408:232|152:112,1,467.999978576661,4|2,0:0|0:0,0:0:0:0:
80,152,77119,1,8,0:0:0:0:
328,192,77750,1,8,0:0:0:0:
80,224,78382,6,2,P|136:288|224:304,1,155.999992858887
320,256,79013,2,2,P|260:192|196:172,1,155.999992858887
96,104,79645,2,2,L|256:48,1,155.999992858887
344,120,80277,2,2,L|196:172,1,155.999992858887
40,240,80908,6,2,B|40:352|136:208|200:352|256:208|288:352|304:352|304:352|424:272|304:200,1,467.999978576661
272,168,82171,2,2,B|239:79|360:64|360:64,2,155.999992858887
72,320,83434,5,8,0:0:0:0:
312,240,84066,1,8,0:0:0:0:
128,72,84698,1,8,0:0:0:0:
360,160,85329,1,8,0:0:0:0:
192,240,85961,6,0,P|152:172|312:84,1,311.999985717774
432,96,86908,1,8,0:0:0:0:
432,220,87224,2,0,B|476:268|400:284|444:368,1,155.999992858887
320,368,87856,2,0,B|276:320|352:304|308:220,1,155.999992858887
214,258,88487,6,8,P|100:208|96:112,2,233.999989288331,8|0|8,0:0|0:0|0:0,0:0:0:0:
208,160,89750,2,8,P|204:64|80:16,2,233.999989288331,8|0|8,0:0|0:0|0:0,0:0:0:0:
152,272,91013,6,2,P|240:296|312:288,2,155.999992858887,4|2|4,0:0|0:0|0:0,0:0:0:0:
64,184,91961,1,2,0:0:0:0:
152,96,92277,2,2,P|240:72|312:80,2,155.999992858887,4|2|4,0:0|0:0|0:0,0:0:0:0:
64,184,93224,1,4,0:0:0:0:
192,192,93540,6,8,B|265:234|325:142|416:204,2,233.999989288331,8|8|8,0:0|0:0|0:0,0:0:0:0:
96,200,94803,1,0,0:0:0:0:
144,120,95119,1,2,0:0:0:0:
232,80,95434,1,0,0:0:0:0:
328,72,95750,1,2,0:0:0:0:
416,112,96066,6,8,P|416:240|152:200,1,480,4|8,0:0|0:0,0:0:0:0:
256,192,106171,12,4,108066,0:0:0:0:
132,198,108698,5,0,0:0:0:0:
218,115,109014,1,0,0:0:0:0:
248,232,109330,1,0,0:0:0:0:
397,194,109961,2,10,P|432:168|440:96,2,120
256,192,111224,12,4,113119,0:0:0:0:
380,198,113750,5,0,0:0:0:0:
294,115,114066,1,0,0:0:0:0:
264,232,114382,1,0,0:0:0:0:
72,96,115014,2,10,P|80:168|144:200,2,120
256,192,116277,5,8,0:0:0:0:
72,240,116908,2,8,B|176:216|176:216|176:96|256:104|336:96|336:216,1,360
407,162,118171,2,8,P|288:240|256:192,1,240,8|2,0:0|0:0,0:0:0:0:
256,48,119434,5,2,0:0:0:0:
112,176,120066,2,8,P|132:224|196:208,3,120
196,132,121329,5,8,0:0:0:0:
272,184,121645,2,8,P|344:232|408:232,1,120,8|8,0:0|0:0,0:0:0:0:
464,208,122277,1,8,0:0:0:0:
444,116,122592,2,0,P|412:84|336:104,3,120
328,184,123856,5,2,0:0:0:0:
256,248,124171,1,2,0:0:0:0:
232,152,124487,1,2,0:0:0:0:
136,176,124803,1,0,0:0:0:0:
160,272,125119,2,8,P|92:272|60:232,3,120
88,144,126382,6,0,P|256:88|424:144,1,360,4|0,0:0|0:0,0:0:0:0:
376,228,127645,1,8,0:0:0:0:
196,296,128277,1,8,0:0:0:0:
256,192,128908,12,4,131434,0:0:0:0:
256,192,132066,5,8,0:0:0:0:
88,280,132698,2,8,P|144:168|376:88,1,360,4|8,0:0|0:0,0:0:0:0:
384,176,133961,2,2,P|360:256|320:264,2,120,2|2|2,0:0|0:0|0:0,0:0:0:0:
196,120,135224,5,2,0:0:0:0:
128,192,146592,6,0,P|208:288|344:256,2,240,2|2|2,0:0|0:0|0:0,0:0:0:0:
288,80,148487,1,0,0:0:0:0:
336,160,148698,2,0,L|412:192,2,80,8|0|2,0:0|0:0|0:0,0:0:0:0:
160,240,149908,6,0,L|104:180,2,60,0|8|0,0:0|0:0|0:0,0:0:0:0:
240,288,150540,2,0,L|288:240,2,60,0|8|0,0:0|0:0|0:0,0:0:0:0:
206,321,151013,2,0,L|158:369,2,60,0|8|0,0:0|0:0|0:0,0:0:0:0:
64,256,151645,6,0,P|64:168|216:120,1,240
360,192,152908,1,0,0:0:0:0:
256,192,153540,12,4,155434,0:0:0:0:
96,168,156066,5,2,0:0:0:0:
336,248,156698,6,8,P|400:168|312:80,2,233.999989288331,12|8|12,0:0|0:0|0:0,0:0:0:0:
200,168,157961,2,8,P|136:248|224:336,2,233.999989288331
344,112,159224,6,8,L|296:272,2,155.999992858887
232,56,160171,1,8,0:0:0:0:
120,120,160487,2,8,P|64:200|64:264,2,155.999992858887
224,192,161434,1,6,0:0:0:0:
352,192,161750,6,8,B|443:162|403:53|326:86|326:86|307:33,2,233.999989288331
244,128,163013,2,8,B|152:157|192:266|269:233|269:233|288:286,2,233.999989288331
144,56,164277,6,8,P|72:112|80:184,2,155.999992858887
192,168,165224,1,8,0:0:0:0:
300,104,165540,2,0,P|376:80|328:216,1,311.999985717774
244,300,166487,1,0,0:0:0:0:
104,272,167119,5,2,0:0:0:0:
144,192,167434,1,0,0:0:0:0:
224,144,167750,1,2,0:0:0:0:
312,112,168066,2,0,P|392:104|480:136,1,155.999992858887,0|2,0:0|0:0,0:0:0:0:
400,191,168698,2,0,P|374:220|337:228,2,77.9999964294435,2|2|2,0:0|0:0|0:0,0:0:0:0:
460,264,169329,6,2,P|376:316|224:264,2,233.999989288331
337,229,170592,2,2,P|249:182|218:24,2,233.999989288331
456,224,171856,5,6,0:0:0:0:
272,184,172487,1,2,0:0:0:0:
88,144,173119,1,2,0:0:0:0:
264,80,173750,2,14,P|360:64|392:80,2,77.9999964294435
256,192,174382,12,4,176908,0:0:0:0:
