osu file format v14

[General]
AudioFilename: Usatei.mp3
AudioLeadIn: 0
PreviewTime: 156698
Countdown: 0
SampleSet: Normal
StackLeniency: 0.5
Mode: 0
LetterboxInBreaks: 1
WidescreenStoryboard: 0

[Editor]
Bookmarks: 152119
DistanceSpacing: 1
BeatDivisor: 4
GridSize: 4
TimelineZoom: 1

[Metadata]
Title:Usatei 2011
TitleUnicode:Usatei 2011
Artist:IOSYS
ArtistUnicode:IOSYS
Creator:InC0nceNtrateD
Version:Insane
Source:Touhou
Tags:Toho Remake Tewi Carrot Starzd Nwolf kagome cool&create
BeatmapID:262188
BeatmapSetID:98271

[Difficulty]
HPDrainRate:7
CircleSize:4
OverallDifficulty:7
ApproachRate:9
SliderMultiplier:2.3
SliderTickRate:1

[Events]
//Background and Video events
0,0,"TewiBG.JPG",0,0
//Break Periods
2,25529,34677
2,96897,103045
2,136487,149150
//Storyboard Layer 0 (Background)
//Storyboard Layer 1 (Fail)
//Storyboard Layer 2 (Pass)
//Storyboard Layer 3 (Foreground)
//Storyboard Sound Samples

[TimingPoints]
3856,315.789473684211,4,1,0,60,1,0
53119,-90.9090909090909,4,1,0,60,0,0
53750,-83.3333333333333,4,1,0,60,0,0
54382,-76.9230769230769,4,1,0,60,0,0
55013,-71.4285714285714,4,1,0,60,0,0
55645,-66.6666666666667,4,1,0,60,0,1
56908,-100,4,1,0,60,0,1
58171,-66.6666666666667,4,1,0,60,0,1
75856,-66.6666666666667,4,1,0,60,0,1
87224,-100,4,1,0,60,0,1
91013,-66.6666666666667,4,1,0,60,0,1
93540,-100,4,1,0,60,0,1
94171,-66.6666666666667,4,1,0,60,0,1
96066,-100,4,1,0,60,0,1
96382,-100,4,1,0,60,0,0
136171,-100,4,1,0,85,0,0
136250,-100,4,1,0,60,0,0
156698,-66.6666666666667,4,1,0,60,0,1
166803,-100,4,1,0,60,0,1
169329,-66.6666666666667,4,1,0,60,0,1
172171,-100,4,1,0,60,0,1
172803,-66.6666666666667,4,1,0,60,0,1
173434,-100,4,1,0,60,0,1
174066,-66.6666666666667,4,1,0,60,0,1
174382,-100,4,1,0,60,0,1
176277,-100,4,1,0,60,0,0
176592,-100,4,1,0,5,0,0
176908,-100,4,1,0,85,0,0

[Colours]
Combo1 : 255,55,61
Combo2 : 232,208,77
Combo3 : 249,106,245
Combo4 : 226,146,24

[HitObjects]
256,64,3698,6,0,L|208:112,2,57.5,2|0|2,0:0|0:0|0:0,2:0:0:0:
256,132,4013,2,0,L|304:180,2,57.5,2|0|0,0:0|0:0|0:0,2:0:0:0:
256,200,4329,2,0,L|208:248,2,57.5,2|0|0,0:0|0:0|0:0,2:0:0:0:
256,268,4645,2,0,L|304:316,2,57.5,2|0|0,0:0|0:0|0:0,2:0:0:0:
256,268,4961,1,0,0:0:0:0:
372,232,5119,6,0,P|420:184|436:132,1,115,4|0,0:0|0:0,0:0:0:0:
359,139,5434,2,8,P|359:71|325:25,1,115
140,232,5750,2,0,P|92:184|76:132,1,115,4|0,0:0|0:0,0:0:0:0:
153,139,6066,2,8,P|153:71|186:25,1,115
256,40,6382,1,0,0:0:0:0:
256,108,6540,1,0,0:0:0:0:
256,176,6698,2,2,P|304:220|380:220,1,115
256,176,7013,2,2,P|208:220|132:220,1,115
160,296,7329,1,0,0:0:0:0:
428,296,7645,6,0,P|428:224|400:168,1,115,4|0,0:0|0:0,0:0:0:0:
336,192,7961,2,8,P|336:120|308:64,1,115
192,81,8277,2,0,P|176:120|176:192,1,115
100,188,8592,2,8,P|84:227|84:299,1,115
196,348,8908,5,6,0:0:0:0:
277,266,9066,1,2,0:0:0:0:
358,347,9224,1,2,0:0:0:0:
439,265,9382,1,2,0:0:0:0:
439,149,9540,2,8,B|356:96|332:212|212:124,1,230
192,112,9934,1,0,0:0:0:0:
160,96,10013,1,0,0:0:0:0:
124,96,10092,1,0,0:0:0:0:
88,100,10171,6,0,P|64:172|72:220,1,115,4|0,0:0|0:0,0:0:0:0:
112,289,10487,2,8,P|136:217|132:180,1,115
44,300,10803,2,0,P|100:360|144:352,1,115
160,356,11040,1,0,0:0:0:0:
192,344,11119,2,8,P|217:335|256:256,1,115
204,208,11434,6,0,P|244:160|300:136,1,115,4|0,0:0|0:0,0:0:0:0:
382,138,11750,2,0,P|342:186|296:208,1,115
448,112,12066,2,2,P|453:174|431:230,2,115
412,52,12540,1,0,0:0:0:0:
344,48,12698,6,0,P|288:100|280:164,1,115,4|0,0:0|0:0,0:0:0:0:
282,219,13013,2,8,P|338:167|348:132,1,115
107,224,13329,2,0,P|139:242|216:240,1,115
159,177,13645,2,8,P|127:158|50:161,1,115
52,232,13961,5,6,0:0:0:0:
133,313,14119,1,2,0:0:0:0:
248,313,14277,1,2,0:0:0:0:
328,232,14434,1,2,0:0:0:0:
246,150,14592,5,0,0:0:0:0:
212,140,14671,1,0,0:0:0:0:
196,108,14750,1,0,0:0:0:0:
204,76,14829,1,0,0:0:0:0:
228,52,14908,2,8,P|320:44|376:52,1,115
456,76,15224,6,0,L|500:32,2,57.5
456,184,15540,2,2,P|464:272|464:344,1,115
388,384,15856,1,4,0:0:0:0:
348,276,16013,1,0,0:0:0:0:
264,321,16171,2,2,P|178:298|140:284,1,115
152,220,16487,5,2,0:0:0:0:
267,220,16645,1,2,0:0:0:0:
185,138,16803,1,2,0:0:0:0:
300,138,16961,1,2,0:0:0:0:
396,76,17119,6,2,P|400:168|372:212,1,115
372,332,17434,2,2,P|280:336|236:308,1,115
157,273,17750,5,0,0:0:0:0:
149,234,17829,1,0,0:0:0:0:
160,195,17908,1,0,0:0:0:0:
174,93,18066,5,8,0:0:0:0:
213,85,18145,1,8,0:0:0:0:
252,96,18224,1,8,0:0:0:0:
354,110,18382,5,0,0:0:0:0:
362,149,18461,1,0,0:0:0:0:
351,188,18540,1,0,0:0:0:0:
337,290,18698,5,8,0:0:0:0:
298,298,18777,1,8,0:0:0:0:
259,287,18856,1,8,0:0:0:0:
192,192,19013,5,8,0:0:0:0:
256,128,19171,1,8,0:0:0:0:
320,192,19329,1,8,0:0:0:0:
256,256,19487,1,8,0:0:0:0:
256,192,19645,1,0,0:0:0:0:
232,192,19724,1,0,0:0:0:0:
208,192,19803,1,0,0:0:0:0:
184,192,19882,1,0,0:0:0:0:
160,192,19961,2,2,P|72:192|64:172,1,115
18,46,20277,6,8,P|80:91|114:142,1,115,12|8,0:0|0:0,0:0:0:0:
210,85,20592,2,8,P|139:116|78:120,1,115
80,232,20908,2,8,P|88:155|102:120,1,115
102,120,21224,1,8,0:0:0:0:
102,120,21382,1,8,0:0:0:0:
391,146,21540,5,2,0:0:0:0:
391,146,21698,1,2,0:0:0:0:
391,146,21856,2,2,P|405:181|414:258,1,115
391,146,22171,2,2,P|354:142|284:111,1,115
391,147,22487,2,2,P|413:117|476:72,1,115
512,192,22803,6,8,P|480:260|440:300,1,115,12|8,0:0|0:0,0:0:0:0:
360,220,23119,2,8,P|284:224|224:240,1,115,0|0,0:0|0:0,0:0:0:0:
128,287,23434,2,2,P|64:332|24:344,2,115
220,152,23908,1,0,0:0:0:0:
48,44,24066,5,8,0:0:0:0:
129,125,24224,1,8,0:0:0:0:
47,206,24382,1,8,0:0:0:0:
128,287,24540,1,8,0:0:0:0:
209,205,24698,2,0,B|252:176|256:144|256:144|284:204|284:204|288:168|344:132,1,230
476,36,25329,5,4,0:0:0:0:
71,135,35277,5,0,0:0:0:0:
71,135,35356,1,0,0:0:0:0:
71,135,35434,2,8,P|132:204|168:216,1,115
220,224,35750,2,0,L|184:280,2,57.5
260,280,36066,2,8,P|351:285|385:268,1,115
428,237,36382,2,0,L|442:302,2,57.5
428,167,36698,5,8,0:0:0:0:
428,56,36856,1,8,0:0:0:0:
388,112,37013,1,8,0:0:0:0:
388,1,37171,1,8,0:0:0:0:
348,56,37329,2,2,B|332:40|332:40|332:56|332:56|316:40|316:40|316:56|316:56|300:40|300:40|300:56|300:56|284:40|284:40|284:56|284:56|204:56,1,230
159,105,37803,5,0,0:0:0:0:
159,105,37882,1,0,0:0:0:0:
159,105,37961,2,8,P|240:156|260:208,1,115
304,212,38277,1,0,0:0:0:0:
304,212,38356,1,0,0:0:0:0:
304,212,38434,1,0,0:0:0:0:
364,244,38592,2,8,P|328:308|264:336,1,115
224,332,38908,2,0,L|204:388,2,57.5
124,276,39224,5,0,0:0:0:0:
124,276,39303,1,0,0:0:0:0:
124,276,39382,1,8,0:0:0:0:
124,160,39540,5,0,0:0:0:0:
124,160,39619,1,0,0:0:0:0:
124,160,39698,1,8,0:0:0:0:
216,228,39856,2,2,B|232:244|232:244|232:228|232:228|248:244|248:244|248:228|248:228|264:244|264:244|264:228|264:228|280:244|280:244|280:228|280:228|360:228,1,230
452,292,40329,5,0,0:0:0:0:
452,292,40408,1,0,0:0:0:0:
452,292,40487,2,8,P|480:204|480:164,1,115
368,208,40803,2,8,P|396:120|396:80,1,115
144,208,41119,2,2,P|116:120|116:80,1,115
60,292,41434,2,2,P|32:204|32:164,1,115
140,144,41750,5,8,0:0:0:0:
372,144,41908,1,8,0:0:0:0:
174,158,42066,1,8,0:0:0:0:
337,158,42224,1,8,0:0:0:0:
256,240,42382,2,2,B|244:232|244:232|264:232|264:232|244:224|244:224|264:224|264:224|244:216|244:216|264:216|264:216|232:144|272:112,1,230
372,56,42856,5,0,0:0:0:0:
372,56,42934,1,0,0:0:0:0:
372,56,43013,2,0,P|312:80|268:136,1,115
140,56,43329,2,8,P|200:80|244:136,1,115
328,152,43645,2,0,P|288:202|277:273,1,115
187,152,43961,2,8,P|226:202|237:273,1,115
296,352,44277,6,2,P|360:320|420:272,1,115
216,352,44592,2,2,P|152:320|92:272,1,115
232,280,44908,1,8,0:0:0:0:
132,224,45066,1,8,0:0:0:0:
280,280,45224,1,8,0:0:0:0:
380,224,45382,1,8,0:0:0:0:
420,116,45540,6,0,P|360:136|304:180,1,115
297,296,45856,2,0,P|357:276|399:247,1,115
193,165,46171,2,0,P|152:136|88:116,1,115
112,246,46487,2,0,P|154:276|214:296,1,115
318,165,46803,5,8,0:0:0:0:
193,165,46961,1,8,0:0:0:0:
367,144,47119,1,8,0:0:0:0:
144,144,47277,1,8,0:0:0:0:
256,116,47434,2,2,B|236:152|236:152|272:152|272:152|240:164|240:164|288:208|232:268,1,230
384,192,48066,6,0,P|356:252|296:296,1,115
428,240,48382,2,8,P|381:286|309:307,1,115
452,304,48698,2,8,P|391:331|317:327,1,115
453,373,49013,2,0,P|387:378|318:348,1,115
128,192,49329,6,0,P|156:252|216:296,1,115
84,240,49645,2,8,P|130:286|202:307,1,115
60,304,49961,2,8,P|120:331|194:327,1,115
59,373,50277,2,0,P|124:378|193:348,1,115
256,283,50592,5,0,0:0:0:0:
256,168,50750,1,0,0:0:0:0:
326,78,50908,2,8,P|282:142|256:168,1,115
185,78,51224,2,8,P|229:142|256:168,1,115
256,283,51540,2,0,L|256:168,1,115
368,192,51856,5,8,0:0:0:0:
484,192,52013,1,8,0:0:0:0:
402,273,52171,1,2,0:0:0:0:
286,273,52329,1,2,0:0:0:0:
144,192,52487,5,8,0:0:0:0:
28,192,52645,1,8,0:0:0:0:
110,273,52803,1,2,0:0:0:0:
226,273,52961,1,2,0:0:0:0:
356,276,53119,6,0,L|500:276,3,126.500003860474,4|0|0|0,0:0|0:0|0:0|0:0,0:0:0:0:
340,204,53750,6,0,L|484:204,3,137.999995788574,4|0|0|0,0:0|0:0|0:0|0:0,0:0:0:0:
328,132,54382,6,0,L|484:132,3,149.499993156433,4|0|0|0,0:0|0:0|0:0|0:0,0:0:0:0:
316,60,55013,6,0,L|476:60,3,160.99999508667,4|0|0|0,0:0|0:0|0:0|0:0,0:0:0:0:
476,144,55645,6,2,P|444:244|304:136,1,345.000013160706,6|2,0:0|0:0,0:0:0:0:
388,168,56119,2,2,P|245:65|213:165,1,345.000013160706
304,144,56592,2,8,P|296:232|216:264,1,172.500006580353
112,348,56908,6,0,L|24:348,2,57.5
256,252,57224,2,0,L|336:252,2,57.5
108,160,57540,2,0,L|24:160,2,57.5
252,64,57856,2,0,L|336:64,2,57.5
79,64,58171,6,2,P|52:192|208:336,1,345.000013160706,6|2,0:0|0:0,0:0:0:0:
320,333,58645,2,2,P|460:192|433:64,1,345.000013160706
348,216,59119,1,8,0:0:0:0:
164,216,59277,1,8,0:0:0:0:
164,44,59434,6,0,L|256:200,1,172.500006580353,4|0,0:0|0:0,0:0:0:0:
220,24,59750,2,8,L|253:202,1,172.500006580353,4|2,0:0|0:0,0:0:0:0:
280,24,60066,2,0,L|250:202,1,172.500006580353,4|2,0:0|0:0,0:0:0:0:
336,44,60382,2,8,L|246:201,1,172.500006580353,4|2,0:0|0:0,0:0:0:0:
164,344,60698,6,2,P|92:264|264:212,1,345.000013160706,6|2,0:0|0:0,0:0:0:0:
184,256,61171,2,2,P|343:185|271:105,1,345.000013160706
256,192,61645,1,0,0:0:0:0:
256,192,61803,1,0,0:0:0:0:
256,192,61961,6,8,P|128:200|84:176,1,172.500006580353
256,192,62277,2,8,P|384:200|428:176,1,172.500006580353
256,192,62592,2,8,P|141:134|115:92,1,172.500006580353
256,192,62908,2,8,P|370:135|396:93,1,172.500006580353
448,272,63224,6,2,P|328:316|112:260,1,345.000013160706,6|2,0:0|0:0,0:0:0:0:
122,93,63698,2,2,P|242:49|458:105,1,345.000013160706
456,192,64171,1,0,0:0:0:0:
288,176,64329,1,0,0:0:0:0:
80,288,64487,6,8,P|176:276|228:216,1,172.500006580353,12|8,0:0|0:0,0:0:0:0:
352,368,64803,2,8,P|340:272|280:220,1,172.500006580353,12|8,0:0|0:0,0:0:0:0:
432,96,65119,2,8,P|336:108|284:168,1,172.500006580353,12|8,0:0|0:0,0:0:0:0:
160,16,65434,2,8,P|172:112|232:164,1,172.500006580353,12|12,0:0|0:0,0:0:0:0:
394,191,65750,6,0,B|392:189|392:189|392:197|392:197|384:189|384:189|384:197|384:197|376:189|376:189|376:197|376:197|368:189|368:189|368:197|368:197|360:189|360:189|360:197|360:197|352:189|352:189|352:197|352:197|344:189|344:189|344:197|344:197|336:189|336:189|336:197|336:197|328:189|328:189|328:197|328:197|320:189|320:189|320:197|320:197|312:189|312:189|312:197|312:197|304:189|304:189|304:197|304:197|296:189|296:189|296:197|296:197|288:189|288:189|288:197|288:197|280:189|280:189|280:197|280:197|272:189|272:189|272:197|272:197|264:189|264:189|264:197|264:197|256:189|256:189|256:197|256:197|256:192,1,345.000013160706,4|0,0:0|0:0,0:0:0:0:
117,191,66224,2,0,B|120:189|120:189|120:197|120:197|128:189|128:189|128:197|128:197|136:189|136:189|136:197|136:197|144:189|144:189|144:197|144:197|152:189|152:189|152:197|152:197|160:189|160:189|160:197|160:197|168:189|168:189|168:197|168:197|176:189|176:189|176:197|176:197|184:189|184:189|184:197|184:197|192:189|192:189|192:197|192:197|200:189|200:189|200:197|200:197|208:189|208:189|208:197|208:197|216:189|216:189|216:197|216:197|224:189|224:189|224:197|224:197|232:189|232:189|232:197|232:197|240:189|240:189|240:197|240:197|248:189|248:189|248:197|248:197|256:189|256:189|256:197|256:197|256:192,1,345.000013160706
256,122,66698,2,0,B|257:124|257:124|253:124|253:124|257:128|257:128|253:128|253:128|257:132|257:132|253:132|253:132|257:136|257:136|253:136|253:136|257:140|257:140|253:140|253:140|257:144|257:144|253:144|253:144|257:148|257:148|253:148|253:148|257:152|257:152|253:152|253:152|257:156|257:156|253:156|253:156|257:160|257:160|253:160|253:160|257:164|257:164|253:164|253:164|257:168|257:168|253:168|253:168|257:172|257:172|253:172|253:172|257:176|257:176|253:176|253:176|257:180|257:180|253:180|253:180|257:184|257:184|253:184|253:184|257:188|257:188|253:188|253:188|257:192|257:192|253:192|253:192|256:192,1,172.500006580353
256,276,67013,5,0,0:0:0:0:
256,276,67171,1,0,0:0:0:0:
404,188,67329,5,8,0:0:0:0:
404,188,67487,1,8,0:0:0:0:
256,276,67645,5,4,0:0:0:0:
256,276,67803,1,4,0:0:0:0:
108,188,67961,5,8,0:0:0:0:
108,188,68119,1,8,0:0:0:0:
404,188,68277,6,0,B|392:196|392:196|392:188|392:188|384:196|384:196|384:188|384:188|376:196|376:196|376:188|376:188|368:196|368:196|368:188|368:188|360:196|360:196|360:188|360:188|352:196|352:196|352:188|352:188|344:196|344:196|344:188|344:188|336:196|336:196|336:188|336:188|328:196|328:196|328:188|328:188|320:196|320:196|320:188|320:188|312:196|312:196|312:188|312:188|304:196|304:196|304:188|304:188|296:196|296:196|296:188|296:188|288:196|288:196|288:188|288:188|280:196|280:196|280:188|280:188|272:196|272:196|272:188|272:188|264:196|264:196|264:188|264:188|256:196|256:196|256:188|256:188|248:196,1,345.000013160706,4|0,0:0|0:0,0:0:0:0:
108,188,68750,2,0,B|120:196|120:196|120:188|120:188|128:196|128:196|128:188|128:188|136:196|136:196|136:188|136:188|144:196|144:196|144:188|144:188|152:196|152:196|152:188|152:188|160:196|160:196|160:188|160:188|168:196|168:196|168:188|168:188|176:196|176:196|176:188|176:188|184:196|184:196|184:188|184:188|192:196|192:196|192:188|192:188|200:196|200:196|200:188|200:188|208:196|208:196|208:188|208:188|216:196|216:196|216:188|216:188|224:196|224:196|224:188|224:188|232:196|232:196|232:188|232:188|240:196|240:196|240:188|240:188|248:196|248:196|248:188|248:188|256:196|256:196|256:188|256:188|264:196,1,345.000013160706
254,266,69224,2,0,B|258:260|258:260|254:260|254:260|258:256|258:256|254:256|254:256|258:252|258:252|254:252|254:252|258:248|258:248|254:248|254:248|258:244|258:244|254:244|254:244|258:240|258:240|254:240|254:240|258:236|258:236|254:236|254:236|258:232|258:232|254:232|254:232|258:228|258:228|254:228|254:228|258:224|258:224|254:224|254:224|258:220|258:220|254:220|254:220|258:216|258:216|254:216|254:216|258:212|258:212|254:212|254:212|258:208|258:208|254:208|254:208|258:204|258:204|254:204|254:204|258:200|258:200|254:200|254:200|258:196|258:196|254:196|254:196|258:192|258:192|254:192|254:192|258:188,1,172.500006580353
176,40,69540,6,0,B|176:48|176:48|172:52|172:52|176:52|176:52|172:56|172:56|176:56|176:56|172:60|172:60|176:60|176:60|176:64|176:64|176:68|176:68|180:68|180:68|180:72|180:72|184:72|184:72|184:76|184:76|188:76|188:76|188:80|188:80|192:80|192:80|192:84|192:84|196:84|196:84|196:88|196:88|200:88|200:88|200:92|200:92|204:92|204:92|204:96|204:96|208:96|208:96|208:100|208:100|212:100|212:100|212:104|212:104|216:104|216:104|216:108|216:108|220:108|220:108|220:112|220:112|224:112|224:112|224:116|224:116|228:116|228:116|272:116,1,172.500006580353,4|0,0:0|0:0,0:0:0:0:
335,116,69856,2,0,B|335:108|335:108|339:104|339:104|335:104|335:104|339:100|339:100|335:100|335:100|339:96|339:96|335:96|335:96|335:92|335:92|335:88|335:88|331:88|331:88|331:84|331:84|327:84|327:84|327:80|327:80|323:80|323:80|323:76|323:76|319:76|319:76|319:72|319:72|315:72|315:72|315:68|315:68|311:68|311:68|311:64|311:64|307:64|307:64|307:60|307:60|303:60|303:60|303:56|303:56|299:56|299:56|299:52|299:52|295:52|295:52|295:48|295:48|291:48|291:48|291:44|291:44|287:44|287:44|287:40|287:40|283:40|283:40|256:40,1,172.500006580353,4|0,0:0|0:0,0:0:0:0:
254,266,70171,2,0,B|281:266|281:266|285:266|285:266|285:262|285:262|289:262|289:262|289:258|289:258|293:258|293:258|293:254|293:254|297:254|297:254|297:250|297:250|301:250|301:250|301:246|301:246|305:246|305:246|305:242|305:242|309:242|309:242|309:238|309:238|313:238|313:238|313:234|313:234|317:234|317:234|317:230|317:230|321:230|321:230|321:226|321:226|325:226|325:226|325:222|325:222|329:222|329:222|329:218|329:218|333:218|333:218|333:214|333:214|333:210|333:210|337:210|337:210|333:206|333:206|337:206|337:206|333:202|333:202|337:202|337:202|333:198|333:198|333:190,1,172.500006580353,4|0,0:0|0:0,0:0:0:0:
256,192,70487,2,0,B|228:192|228:192|224:192|224:192|224:196|224:196|220:196|220:196|220:200|220:200|216:200|216:200|216:204|216:204|212:204|212:204|212:208|212:208|208:208|208:208|208:212|208:212|204:212|204:212|204:216|204:216|200:216|200:216|200:220|200:220|196:220|196:220|196:224|196:224|192:224|192:224|192:228|192:228|188:228|188:228|188:232|188:232|184:232|184:232|184:236|184:236|180:236|180:236|180:240|180:240|176:240|176:240|176:244|176:244|176:248|176:248|172:248|172:248|176:252|176:252|172:252|172:252|176:256|176:256|172:256|172:256|176:260|176:260|176:268,1,172.500006580353,4|0,0:0|0:0,0:0:0:0:
252,296,70803,6,8,P|388:296|412:108,1,345.000013160706,12|8,0:0|0:0,0:0:0:0:
260,88,71277,2,8,P|124:88|100:276,1,345.000013160706
256,192,71750,1,8,0:0:0:0:
256,192,71829,1,8,0:0:0:0:
256,192,71908,1,8,0:0:0:0:
424,236,72066,6,8,P|424:136|376:72,1,172.500006580353
424,236,72382,2,8,P|458:142|434:65,1,172.500006580353
424,236,72698,2,8,P|488:159|492:79,1,172.500006580353
424,236,73013,2,0,P|510:186|542:112,1,172.500006580353
260,88,73329,6,8,P|124:88|100:276,1,345.000013160706,12|8,0:0|0:0,0:0:0:0:
252,296,73803,2,8,P|388:296|412:108,1,345.000013160706
256,192,74277,1,8,0:0:0:0:
256,192,74356,1,8,0:0:0:0:
256,192,74434,1,8,0:0:0:0:
88,148,74592,6,8,P|88:248|136:312,1,172.500006580353
88,148,74908,2,8,P|53:241|77:318,1,172.500006580353
88,148,75224,2,8,P|23:224|19:304,1,172.500006580353
88,148,75540,2,0,P|1:198|-30:271,1,172.500006580353
256,348,75856,6,0,L|440:284,1,172.500006580353,4|0,0:0|0:0,0:0:0:0:
256,348,76171,2,0,L|352:188,1,172.500006580353
256,348,76487,2,0,L|160:188,1,172.500006580353
256,348,76803,2,0,L|72:284,1,172.500006580353
256,36,77119,6,0,L|72:100,1,172.500006580353,4|0,0:0|0:0,0:0:0:0:
256,36,77434,2,0,L|160:196,1,172.500006580353
256,36,77750,2,0,L|352:196,1,172.500006580353
256,36,78066,2,0,L|440:100,1,172.500006580353
440,264,78382,6,8,P|352:288|252:280,1,172.500006580353,12|8,0:0|0:0,0:0:0:0:
379,346,78698,2,0,P|291:323|204:260,1,172.500006580353
285,387,79013,2,8,P|220:323|176:224,1,172.500006580353
184,376,79329,2,0,P|160:288|168:184,1,172.500006580353
101,315,79645,6,2,P|124:227|184:144,1,172.500006580353,6|2,0:0|0:0,0:0:0:0:
60,221,79961,2,0,P|124:156|220:112,1,172.500006580353
71,120,80277,2,2,P|160:95|260:104,1,172.500006580353
132,37,80592,2,0,P|220:60|304:120,1,172.500006580353
226,0,80908,6,8,P|291:60|336:160,1,172.500006580353,12|8,0:0|0:0,0:0:0:0:
328,8,81224,2,0,P|352:96|340:204,1,172.500006580353
410,68,81540,2,8,P|387:156|328:240,1,172.500006580353
451,162,81856,2,0,P|387:227|288:272,1,172.500006580353
440,264,82171,6,2,P|352:288|248:280,1,172.500006580353,6|2,0:0|0:0,0:0:0:0:
379,346,82487,2,0,P|291:323|204:260,1,172.500006580353
285,387,82803,2,2,P|220:323|176:224,1,172.500006580353
183,376,83119,2,0,P|160:288|168:184,1,172.500006580353
101,315,83434,6,8,P|124:227|184:144,1,172.500006580353,12|8,0:0|0:0,0:0:0:0:
60,221,83750,2,0,P|124:156|212:112,1,172.500006580353
71,120,84066,2,8,P|160:95|260:104,1,172.500006580353
132,37,84382,2,0,P|220:60|304:116,1,172.500006580353
226,0,84698,6,2,P|291:60|336:156,1,172.500006580353,6|2,0:0|0:0,0:0:0:0:
327,7,85013,2,0,P|352:96|344:200,1,172.500006580353
410,68,85329,2,2,P|387:156|332:236,1,172.500006580353
451,162,85645,2,0,P|387:227|296:268,1,172.500006580353
210,264,85961,6,8,P|94:216|38:168,1,172.500006580353,12|8,0:0|0:0,0:0:0:0:
160,156,86277,1,0,0:0:0:0:
128,136,86356,1,0,0:0:0:0:
100,116,86434,1,0,0:0:0:0:
302,264,86592,6,8,P|418:216|474:168,1,172.500006580353,12|8,0:0|0:0,0:0:0:0:
352,156,86908,1,0,0:0:0:0:
384,136,86987,1,0,0:0:0:0:
412,116,87066,1,0,0:0:0:0:
256,68,87224,6,0,L|184:72,2,57.5,4|0|0,0:0|0:0|0:0,0:0:0:0:
256,136,87540,2,0,L|316:136,2,57.5,4|0|0,0:0|0:0|0:0,0:0:0:0:
256,204,87856,6,0,L|192:204,2,57.5,4|0|0,0:0|0:0|0:0,0:0:0:0:
256,272,88171,2,0,L|328:272,2,57.5,4|0|0,0:0|0:0|0:0,0:0:0:0:
288,332,88487,5,8,0:0:0:0:
324,332,88566,1,8,0:0:0:0:
360,332,88645,1,8,0:0:0:0:
224,332,88803,1,0,0:0:0:0:
188,332,88882,1,0,0:0:0:0:
152,332,88961,1,0,0:0:0:0:
304,264,89119,5,8,0:0:0:0:
329,238,89198,1,8,0:0:0:0:
354,213,89277,1,8,0:0:0:0:
208,264,89434,1,0,0:0:0:0:
183,238,89513,1,0,0:0:0:0:
158,213,89592,1,0,0:0:0:0:
324,152,89750,6,0,L|284:112,2,57.5
188,152,90066,2,0,L|240:104,2,57.5
324,232,90382,6,0,L|272:276,2,57.5
188,232,90698,2,0,L|244:280,2,57.5
16,232,91013,6,8,P|92:156|176:124,1,172.500006580353,12|8,0:0|0:0,0:0:0:0:
30,151,91329,2,8,P|127:105|216:104,1,172.500006580353
71,80,91645,2,8,P|178:70|260:100,1,172.500006580353
134,28,91961,2,8,P|237:55|304:112,1,172.500006580353
496,232,92277,6,8,P|420:156|336:124,1,172.500006580353,12|8,0:0|0:0,0:0:0:0:
482,151,92592,2,8,P|385:105|296:104,1,172.500006580353
441,80,92908,2,8,P|334:70|252:100,1,172.500006580353
378,28,93224,2,8,P|275:55|208:112,1,172.500006580353
384,160,93540,6,0,L|412:236,2,57.5
128,160,93856,2,0,L|100:236,2,57.5
256,44,94171,5,0,0:0:0:0:
256,44,94250,1,0,0:0:0:0:
256,44,94329,1,8,0:0:0:0:
256,216,94487,1,0,0:0:0:0:
256,216,94566,1,0,0:0:0:0:
256,216,94645,1,8,0:0:0:0:
256,44,94803,6,0,P|376:72|436:112,1,172.500006580353,4|0,0:0|0:0,0:0:0:0:
464,264,95119,2,0,P|440:221|351:136,1,172.500006580353,4|0,0:0|0:0,0:0:0:0:
256,44,95434,2,0,P|136:72|76:112,1,172.500006580353,4|0,0:0|0:0,0:0:0:0:
48,264,95750,2,0,P|71:221|160:136,1,172.500006580353,4|0,0:0|0:0,0:0:0:0:
256,336,96066,6,4,B|240:304|240:304|272:288|272:288|224:272|224:272|288:256|288:256|208:240|208:240|304:224|304:224|192:208|192:208|192:208,1,460
256,116,103645,5,0,0:0:0:0:
256,116,104277,5,0,0:0:0:0:
220,192,104908,5,0,0:0:0:0:
244,192,105224,1,0,0:0:0:0:
268,192,105540,1,0,0:0:0:0:
292,192,105856,1,0,0:0:0:0:
500,92,106171,6,0,L|432:212,1,115
500,292,106487,2,0,L|432:172,1,115
443,191,106803,2,0,L|323:191,1,115
12,92,107434,6,2,L|80:212,1,115
12,292,107750,2,2,L|80:172,1,115
68,191,108066,2,2,L|188:191,1,115
356,36,108698,5,0,0:3:0:0:
156,36,108856,1,0,0:3:0:0:
312,92,109013,1,0,0:3:0:0:
200,92,109171,1,0,0:3:0:0:
256,92,109329,2,0,L|256:220,1,115
156,348,109961,5,0,0:3:0:0:
356,348,110119,1,0,0:3:0:0:
200,292,110277,1,0,0:3:0:0:
312,292,110434,1,0,0:3:0:0:
256,292,110592,2,0,L|256:164,1,115
256,36,111224,6,0,L|136:96,1,115
256,36,111540,2,0,L|256:164,1,115
256,36,111856,2,0,L|376:96,1,115
256,192,112171,1,8,0:0:0:0:
256,192,112329,1,8,0:0:0:0:
256,348,112487,6,0,L|136:288,1,115
256,348,112803,2,0,L|256:220,1,115
256,348,113119,2,0,L|376:288,1,115
256,192,113434,1,8,0:0:0:0:
256,192,113592,1,8,0:0:0:0:
460,72,113750,6,0,P|376:92|328:124,1,115
468,120,114066,2,8,P|384:140|336:172,1,115
476,168,114382,2,2,P|392:188|268:264,1,230
52,72,115013,6,0,P|136:92|184:124,1,115
44,120,115329,2,8,P|128:140|176:172,1,115
36,168,115645,2,2,P|120:188|244:264,1,230
332,48,116277,6,0,L|432:52,2,57.5
342,329,116592,2,0,L|289:414,2,57.5
93,198,116908,2,0,L|46:109,2,57.5
256,192,117224,5,8,0:0:0:0:
256,192,117303,1,8,0:0:0:0:
256,192,117382,1,8,0:0:0:0:
180,336,117540,6,0,L|80:332,2,57.5
169,54,117856,2,0,L|222:-30,2,57.5
418,185,118171,2,0,L|465:274,2,57.5
256,192,118487,5,2,0:0:0:0:
256,192,118566,1,2,0:0:0:0:
256,192,118645,1,2,0:0:0:0:
256,76,118803,6,0,L|256:16,2,57.5
372,192,119119,2,0,L|432:192,2,57.5
256,308,119434,2,0,L|256:368,2,57.5
140,192,119750,2,0,L|80:192,2,57.5
338,109,120066,6,2,L|380:67,2,57.5
338,274,120382,2,2,L|380:316,2,57.5
173,274,120698,2,8,L|131:316,2,57.5
173,109,121013,2,8,L|131:67,2,57.5
284,76,121329,6,0,P|268:172|236:216,1,115
321,92,121645,2,8,P|274:177|228:207,1,115
352,121,121961,2,0,P|278:184|225:197,1,115
370,158,122277,2,8,P|279:192|225:186,1,115
228,308,122592,6,0,P|244:212|276:168,1,115
190,291,122908,2,2,P|237:206|283:176,1,115
159,262,123224,2,0,P|233:199|286:186,1,115
141,225,123540,2,2,P|232:191|286:197,1,115
328,108,123856,6,0,L|408:108,2,57.5
246,189,124171,2,0,L|162:189,2,57.5
361,189,124487,2,0,L|441:189,2,57.5
279,270,124803,2,0,L|195:270,2,57.5
395,270,125119,5,2,0:0:0:0:
395,270,125277,1,2,0:0:0:0:
280,270,125434,1,2,0:0:0:0:
280,270,125513,1,2,0:0:0:0:
280,270,125592,1,2,0:0:0:0:
361,188,125750,1,2,0:0:0:0:
361,188,125908,1,2,0:0:0:0:
245,188,126066,1,2,0:0:0:0:
245,188,126145,1,2,0:0:0:0:
245,188,126224,1,2,0:0:0:0:
132,200,126382,6,0,P|184:100|212:80,1,115
264,316,126698,2,0,P|164:264|144:236,1,115
380,184,127013,2,0,P|328:284|300:304,1,115
248,68,127329,2,0,P|348:120|368:148,1,115
173,285,127645,6,0,P|140:177|145:143,1,115
349,274,127961,2,0,P|241:307|207:302,1,115
338,98,128277,2,0,P|371:206|366:240,1,115
162,109,128592,2,0,P|270:76|304:81,1,115
256,192,128908,5,8,0:0:0:0:
256,192,129066,1,8,0:0:0:0:
256,76,129224,2,2,L|336:36,2,57.5
356,250,129540,2,0,L|351:339,2,57.5
155,249,129856,2,2,L|80:200,2,57.5
320,104,130171,6,8,P|288:172|255:191,1,115
298,290,130487,2,8,P|255:228|255:191,1,115,8|8,0:0|0:0,3:0:0:0:
148,178,130803,2,8,P|222:172|255:191,1,115,8|8,0:0|0:0,3:0:0:0:
320,104,131119,2,8,P|288:172|255:191,1,115,8|8,0:0|0:0,3:0:0:0:
172,268,131434,6,2,P|172:180|200:136,1,115
340,116,131750,2,0,P|340:204|328:226,1,115
120,316,132066,2,2,P|120:228|148:184,1,115
392,68,132382,2,0,P|392:156|364:200,1,115
340,268,132698,6,2,P|340:180|312:136,1,115
172,116,133013,2,0,P|172:204|183:226,1,115
392,316,133329,2,2,P|392:228|364:184,1,115
120,68,133645,2,0,P|120:156|148:200,1,115
244,192,133961,5,8,0:0:0:0:
20,136,134277,2,0,P|8:192|20:256,1,115
220,248,134592,2,0,P|232:192|220:128,1,115
120,192,134908,1,4,0:0:0:0:
268,192,135224,5,8,0:0:0:0:
492,136,135540,2,0,P|504:192|492:256,1,115
292,248,135856,2,0,P|280:192|292:128,1,115
392,192,136171,1,4,0:0:0:0:
256,192,149750,12,0,151329,0:0:0:0:
160,144,151645,6,0,B|176:136|176:136|176:144|176:144|192:136|192:136|192:144|192:144|208:136|208:136|208:144|208:144|224:136|224:136|224:144|224:144|240:136|240:136|240:144|240:144|256:136|256:136|256:144|256:144|272:136|272:136|272:144|272:144|288:136|288:136|288:144|288:144|304:136|304:136|304:144|304:144|320:136|320:136|320:144|320:144|336:136|336:136|336:144|336:144|352:136|352:136|352:144|352:144|368:136|368:136|368:144|368:144|384:136|384:136|384:144|384:144|400:136|400:136|400:144|400:144|416:136|416:136|416:144|416:144|432:136|432:136|432:144|432:144|448:136|448:136|448:144|448:144|464:136,1,460
352,240,152908,2,0,B|336:248|336:248|336:240|336:240|320:248|320:248|320:240|320:240|304:248|304:248|304:240|304:240|288:248|288:248|288:240|288:240|272:248|272:248|272:240|272:240|256:248|256:248|256:240|256:240|240:248|240:248|240:240|240:240|224:248|224:248|224:240|224:240|208:248|208:248|208:240|208:240|192:248|192:248|192:240|192:240|176:248|176:248|176:240|176:240|160:248|160:248|160:240|160:240|144:248|144:248|144:240|144:240|128:248|128:248|128:240|128:240|112:248|112:248|112:240|112:240|96:248|96:248|96:240|96:240|80:248|80:248|80:240|80:240|64:248|64:248|64:240|64:240|48:248,1,460
256,188,154171,5,4,0:0:0:0:
256,188,154803,1,4,0:0:0:0:
256,188,155434,1,4,0:0:0:0:
256,164,155750,1,0,0:0:0:0:
256,140,156066,5,4,0:0:0:0:
256,136,156145,1,0,0:0:0:0:
256,132,156224,1,0,0:0:0:0:
256,128,156303,5,0,0:0:0:0:
256,124,156382,1,0,0:0:0:0:
256,120,156461,1,0,0:0:0:0:
256,116,156540,1,0,0:0:0:0:
256,112,156619,1,0,0:0:0:0:
256,108,156698,6,0,P|384:96|440:96,1,172.500006580353,4|0,0:0|0:0,0:0:0:0:
256,108,157013,2,0,P|128:96|72:96,1,172.500006580353,8|0,0:0|0:0,0:0:0:0:
256,172,157329,2,0,P|384:160|427:159,1,172.500006580353
256,172,157645,2,8,P|128:160|84:159,1,172.500006580353
256,276,157961,6,0,P|128:288|72:288,1,172.500006580353,4|0,0:0|0:0,0:0:0:0:
256,276,158277,2,2,P|384:288|440:288,1,172.500006580353
256,212,158592,2,0,P|128:224|84:224,1,172.500006580353
256,212,158908,2,2,P|384:224|427:224,1,172.500006580353
385,362,159224,6,2,P|396:324|408:192,1,172.500006580353,6|2,0:0|0:0,0:0:0:0:
452,274,159540,2,2,P|443:236|387:116,1,172.500006580353
467,164,159856,2,8,P|440:136|320:52,1,172.500006580353
426,62,160171,2,8,P|388:52|256:40,1,172.500006580353
126,362,160487,6,2,P|116:324|104:192,1,172.500006580353,6|2,0:0|0:0,0:0:0:0:
58,274,160803,2,2,P|68:236|124:116,1,172.500006580353
44,165,161119,2,8,P|71:136|180:60,1,172.500006580353
85,62,161434,2,8,P|124:52|256:40,1,172.500006580353
420,88,161750,6,0,B|408:184|492:112|408:324,1,172.500006580353,4|0,0:0|0:0,0:0:0:0:
364,96,162066,2,0,B|352:192|436:120|352:332,1,172.500006580353
308,100,162382,2,0,B|296:196|380:124|296:336,1,172.500006580353
252,108,162698,2,8,B|240:204|324:132|240:344,1,172.500006580353
92,296,163013,6,0,B|104:200|20:272|104:60,1,172.500006580353,4|0,0:0|0:0,0:0:0:0:
148,288,163329,2,0,B|160:192|76:264|160:52,1,172.500006580353
204,284,163645,2,0,B|216:188|132:260|216:48,1,172.500006580353
260,276,163961,2,2,B|272:180|188:252|272:40,1,172.500006580353
416,152,164277,6,0,P|328:276|272:312,1,172.500006580353,4|0,0:0|0:0,0:0:0:0:
416,152,164592,2,0,P|266:177|201:163,1,172.500006580353
96,152,164908,2,0,P|184:276|240:312,1,172.500006580353
96,152,165224,2,0,P|245:177|310:163,1,172.500006580353
256,192,165540,12,0,166487,0:0:0:0:
256,100,166803,6,0,L|328:52,2,57.5,4|0|0,0:0|0:0|0:0,0:0:0:0:
335,238,167119,2,0,L|344:324,2,57.5
176,238,167434,2,0,L|104:200,2,57.5
256,192,167750,5,0,0:0:0:0:
256,192,167829,1,0,0:0:0:0:
256,192,167908,1,0,0:0:0:0:
321,126,168066,6,8,L|380:140,2,57.5
279,280,168382,2,8,L|240:328,2,57.5
167,168,168698,2,8,L|144:96,2,57.5
256,192,169013,5,8,0:0:0:0:
256,192,169092,1,8,0:0:0:0:
256,192,169171,1,8,0:0:0:0:
308,28,169329,6,0,P|344:152|324:208,1,172.500006580353,4|0,0:0|0:0,0:0:0:0:
400,40,169645,2,0,P|362:163|315:199,1,172.500006580353
472,100,169961,2,0,P|373:183|314:187,1,172.500006580353
498,188,170277,2,8,P|369:204|317:175,1,172.500006580353
204,28,170592,6,0,P|168:152|188:208,1,172.500006580353,4|0,0:0|0:0,0:0:0:0:
112,40,170908,2,0,P|149:163|196:199,1,172.500006580353
40,100,171224,2,0,P|138:183|197:187,1,172.500006580353
14,188,171540,2,2,P|142:204|194:175,1,172.500006580353
284,48,171856,6,0,P|360:112|392:200,1,172.500006580353,4|0,0:0|0:0,0:0:0:0:
256,288,172171,2,0,L|256:348,2,57.5
256,116,172487,1,0,0:0:0:0:
256,116,172566,1,0,0:0:0:0:
256,116,172645,1,0,0:0:0:0:
228,48,172803,2,8,P|152:112|120:200,1,172.500006580353
256,288,173119,5,0,0:0:0:0:
256,288,173198,1,0,0:0:0:0:
256,288,173277,1,0,0:0:0:0:
339,144,173434,2,0,L|392:120,2,57.5
173,144,173750,2,0,L|120:120,2,57.5
256,288,174066,2,8,L|256:88,1,172.500006580353
428,80,174382,6,0,L|468:40,2,57.5,4|0|0,0:0|0:0|0:0,0:0:0:0:
428,304,174698,2,0,L|468:344,2,57.5,4|0|0,0:0|0:0|0:0,0:0:0:0:
332,160,175013,2,0,L|380:124,2,57.5,4|0|0,0:0|0:0|0:0,0:0:0:0:
332,224,175329,2,0,L|380:264,2,57.5,4|0|0,0:0|0:0|0:0,0:0:0:0:
172,152,175645,6,8,L|144:132,4,28.75,12|8|8|8|8,0:0|0:0|0:0|0:0|0:0,0:0:0:0:
172,232,175961,2,8,L|144:252,4,28.75,12|8|8|8|8,0:0|0:0|0:0|0:0|0:0,0:0:0:0:
256,192,176277,2,2,B|272:144|272:192|276:144|276:192|280:144|280:192|284:144|284:192|288:144|288:192|292:144|296:180|296:180|304:160|304:160|304:180|304:180|312:160|312:160|312:180|312:180|320:160|320:160|320:180|320:180|352:156,1,230
476,36,176908,5,4,0:0:0:0:
