osu file format v12

[General]
AudioFilename: Usatei.mp3
AudioLeadIn: 0
PreviewTime: 156698
Countdown: 0
SampleSet: Normal
StackLeniency: 0.5
Mode: 0
LetterboxInBreaks: 1
WidescreenStoryboard: 0

[Editor]
Bookmarks: 35434,49329,106171,123856,136487,154171
DistanceSpacing: 1.2
BeatDivisor: 4
GridSize: 4

[Metadata]
Title:Usatei 2011
TitleUnicode:Usatei 2011
Artist:IOSYS
ArtistUnicode:IOSYS
Creator:InC0nceNtrateD
Version:Hard
Source:Touhou
Tags:Toho Remake Tewi Carrot Starzd Nwolf kagome cool&create
BeatmapID:283239
BeatmapSetID:98271

[Difficulty]
HPDrainRate:7
CircleSize:4
OverallDifficulty:5
ApproachRate:7
SliderMultiplier:1.3
SliderTickRate:1

[Events]
//Background and Video events
0,0,"TewiBG.JPG",0,0
//Break Periods
2,25329,34534
2,98592,105271
//Storyboard Layer 0 (Background)
//Storyboard Layer 1 (Fail)
//Storyboard Layer 2 (Pass)
//Storyboard Layer 3 (Foreground)
//Storyboard Sound Samples
//Background Colour Transformations
3,100,163,162,255

[TimingPoints]
3856,315.789473684211,4,1,0,60,1,0
53119,-100,4,1,0,30,0,0
53750,-100,4,1,0,40,0,0
54382,-100,4,1,0,50,0,0
55013,-100,4,1,0,60,0,0
55645,-76.9230769230769,4,1,0,60,0,1
96066,-100,4,1,0,60,0,1
96382,-100,4,1,0,60,0,0
156698,-76.9230769230769,4,1,0,60,0,1
166803,-76.9230769230769,4,1,0,60,0,1
176277,-100,4,1,0,60,0,0

[Colours]
Combo1 : 255,55,61
Combo2 : 232,208,77
Combo3 : 249,106,245
Combo4 : 226,146,24

[HitObjects]
96,160,3698,2,0,L|84:216,2,32.5
180,112,4013,2,0,L|176:68,2,32.5
240,212,4329,2,0,L|236:252,2,32.5
284,80,4645,2,0,L|272:44,2,32.5
316,172,4961,1,0,0:0:0:0:
372,228,5119,6,0,P|364:296|288:296,1,130,4|8,0:0|0:0,0:0:0:0:
240,284,5592,1,8,0:0:0:0:
192,228,5750,2,0,P|180:192|182:158,2,65
168,304,6224,1,0,0:0:0:0:
89,304,6382,2,8,P|49:268|45:240,1,65
46,180,6698,2,8,P|48:171|88:135,1,65
164,116,7013,2,2,B|196:124|232:104|232:104|272:100|300:116,1,130
448,120,7645,6,0,B|480:164|480:164|472:208|428:228,1,130,4|0,0:0|0:0,0:0:0:0:
358,223,8119,1,0,0:0:0:0:
279,223,8277,2,0,B|247:267|247:267|255:311|299:331,1,130,4|0,0:0|0:0,0:0:0:0:
367,326,8750,1,0,0:0:0:0:
420,268,8908,2,8,P|444:300|448:332,2,65
358,223,9382,1,8,0:0:0:0:
328,152,9540,2,0,B|312:136|312:100|312:100|268:88|232:96,1,130,4|4,0:0|0:0,0:0:0:0:
100,164,10171,6,0,P|92:204|64:232,2,65
44,108,10645,1,0,0:0:0:0:
44,108,10803,2,8,P|128:92|164:120,1,130
215,59,11277,1,0,0:0:0:0:
215,59,11434,2,8,P|231:142|203:179,1,130
152,230,11908,1,0,0:0:0:0:
152,230,12066,2,2,P|128:280|132:308,2,65
292,300,12698,6,0,P|328:280|344:192,1,130,4|8,0:0|0:0,0:0:0:0:
346,42,13329,2,0,P|427:60|447:96,1,130,4|8,0:0|0:0,0:0:0:0:
508,240,13961,2,0,P|488:292|468:300,1,65,4|0,0:0|0:0,0:0:0:0:
404,294,14277,2,0,P|384:346|364:354,1,65,4|0,0:0|0:0,0:0:0:0:
300,348,14592,2,0,P|320:296|340:288,2,65,4|0|0,0:0|0:0|0:0,0:0:0:0:
152,300,15224,6,0,P|108:284|88:260,1,65,4|0,0:0|0:0,0:0:0:0:
60,200,15540,2,8,P|76:156|100:136,1,65
160,112,15856,1,2,0:0:0:0:
214,57,16013,1,2,0:0:0:0:
269,112,16171,1,2,0:0:0:0:
213,167,16329,2,8,L|213:234,2,65,0|0|0,0:0|0:0|0:0,0:0:0:0:
284,200,16803,2,2,L|284:267,1,65
356,301,17119,2,2,L|356:236,2,65
204,340,17750,6,0,P|136:336|80:284,1,130,4|8,0:0|0:0,0:0:0:0:
128,232,18224,2,0,L|200:232,2,65,8|2|2,0:0|0:0|0:0,0:0:0:0:
49,232,18698,1,2,0:0:0:0:
49,76,19013,6,0,P|117:80|173:132,1,130,4|8,0:0|0:0,0:0:0:0:
219,172,19487,2,0,L|291:172,1,65,8|4,0:0|0:0,0:0:0:0:
440,172,19961,1,4,0:0:0:0:
448,328,20277,6,0,B|388:304|388:304|364:336|308:328,1,130,4|8,0:0|0:0,0:0:0:0:
174,329,20908,2,0,B|140:335|116:303|116:303|56:327,1,130,4|8,0:0|0:0,0:0:0:0:
188,248,21540,1,4,0:0:0:0:
324,248,21856,1,4,0:0:0:0:
256,88,22171,2,0,L|256:44,2,32.5,2|0|2,0:0|0:0|0:0,0:0:0:0:
256,166,22487,1,4,0:0:0:0:
404,116,22803,6,0,B|412:82|412:82|432:70|440:34,2,65,4|0|0,0:0|0:0|0:0,0:0:0:0:
404,194,23277,1,0,0:0:0:0:
404,272,23434,2,0,B|412:306|412:306|432:318|440:354,2,65,4|0|0,0:0|0:0|0:0,0:0:0:0:
328,252,23908,2,0,L|260:224,1,65,0|4,0:0|0:0,0:0:0:0:
263,147,24224,2,0,L|324:172,1,65,0|4,0:0|0:0,0:0:0:0:
312,88,24540,2,0,L|244:60,1,65,0|4,0:0|0:0,0:0:0:0:
112,100,35434,6,0,P|108:136|160:224,1,130,4|8,0:0|0:0,0:0:0:0:
220,252,35908,1,8,0:0:0:0:
296,260,36066,2,2,P|340:252|356:240,1,65
355,161,36382,2,2,P|339:149|295:141,1,65
216,148,36698,2,0,P|152:176|72:164,2,130,4|8|4,0:0|0:0|0:0,0:0:0:0:
356,220,37645,1,0,0:0:0:0:
464,336,37961,6,0,P|400:316|320:324,1,130,4|8,0:0|0:0,0:0:0:0:
260,328,38434,1,8,0:0:0:0:
184,312,38592,2,2,L|128:280,1,65
140,200,38908,2,2,L|196:232,1,65
270,251,39224,2,8,L|326:219,2,65
260,328,39698,1,8,0:0:0:0:
184,312,39856,2,0,P|136:240|144:192,1,130,4|0,0:0|0:0,0:0:0:0:
284,140,40487,6,0,P|312:104|328:96,2,65,4|0|0,0:0|0:0|0:0,0:0:0:0:
344,192,40961,1,0,0:0:0:0:
408,240,41119,2,0,P|380:276|364:284,2,65,4|0|0,0:0|0:0|0:0,0:0:0:0:
472,192,41592,1,0,0:0:0:0:
408,144,41750,2,8,P|380:96|304:48,1,130
163,53,42382,2,2,P|103:95|75:143,1,130
112,296,43013,6,0,P|144:344|172:356,2,65,4|0|0,0:0|0:0|0:0,0:0:0:0:
124,220,43487,1,0,0:0:0:0:
172,160,43645,2,8,P|218:147|259:164,1,65
312,150,43961,2,2,P|327:146|373:159,1,65
424,220,44277,5,8,0:0:0:0:
412,296,44434,1,8,0:0:0:0:
352,348,44592,2,2,P|312:344|292:308,1,65
292,248,44908,2,0,P|272:184|212:160,1,130,4|4,0:0|0:0,0:0:0:0:
136,300,45540,6,0,B|164:280|160:240|160:240|188:224|232:236,1,130,4|8,0:0|0:0,0:0:0:0:
376,84,46171,2,0,B|348:104|352:144|352:144|324:160|280:148,1,130,4|8,0:0|0:0,0:0:0:0:
256,192,46803,12,0,47750,0:0:0:0:
200,140,48066,6,0,B|183:144|169:136|169:136|171:116|157:106,2,65,4|0|0,0:0|0:0|0:0,0:0:0:0:
288,160,48540,1,8,0:0:0:0:
312,244,48698,2,0,B|328:239|342:247|342:247|340:267|354:277,2,65,4|0|0,0:0|0:0|0:0,0:0:0:0:
224,228,49171,1,8,0:0:0:0:
256,192,49329,12,0,50277,0:0:0:0:
376,84,50592,6,0,B|348:104|352:144|352:144|324:160|280:148,1,130,4|8,0:0|0:0,0:0:0:0:
256,80,51066,1,8,0:0:0:0:
136,84,51224,2,0,B|164:104|160:144|160:144|188:160|220:150,1,130,4|8,0:0|0:0,0:0:0:0:
256,192,51856,12,0,52803,0:0:0:0:
40,132,53119,6,0,P|68:80|148:28,1,130,4|4,0:0|0:0,0:0:0:0:
208,120,53750,6,0,P|160:156|144:240,1,130,4|4,0:0|0:0,0:0:0:0:
224,304,54382,6,0,L|296:340,1,65,4|8,0:0|0:0,0:0:0:0:
360,333,54698,2,0,L|416:293,1,65,4|8,0:0|0:0,0:0:0:0:
464,236,55013,6,0,P|464:168|412:100,1,130,4|4,0:0|0:0,0:0:0:0:
240,56,55645,6,2,B|208:92|160:96|160:96|136:144|160:188,1,168.999992263794,4|0,0:0|0:0,0:0:0:0:
72,232,56119,2,2,B|103:267|151:271|151:271|175:319|158:345,1,168.999992263794
56,344,56592,2,0,P|20:296|12:264,1,84.4999961318971
13,171,56908,2,8,P|19:148|55:100,1,84.4999961318971
157,100,57224,2,8,P|193:148|199:170,1,84.4999961318971
199,273,57540,2,8,P|192:295|156:343,1,84.4999961318971
56,344,57856,1,0,0:0:0:0:
56,344,58013,1,0,0:0:0:0:
56,344,58171,6,2,B|40:284|68:256|68:256|112:252|140:204,1,168.999992263794,4|0,0:0|0:0,0:0:0:0:
232,217,58645,2,2,B|250:251|294:255|294:255|322:283|306:343,1,168.999992263794,0|0,0:0|0:0,0:0:0:0:
204,342,59119,1,0,0:0:0:0:
204,342,59277,1,0,0:0:0:0:
103,342,59434,6,0,L|59:342,2,42.2499980659486,8|0|0,0:0|0:0|0:0,0:0:0:0:
103,239,59750,2,0,L|59:239,2,42.2499980659486,8|0|0,0:0|0:0|0:0,0:0:0:0:
103,136,60066,2,0,L|59:136,2,42.2499980659486,8|0|0,0:0|0:0|0:0,0:0:0:0:
103,33,60382,2,0,L|59:33,2,42.2499980659486,8|0|0,0:0|0:0|0:0,0:0:0:0:
188,92,60698,6,2,P|264:92|368:52,1,168.999992263794,4|0,0:0|0:0,0:0:0:0:
452,62,61171,2,2,P|452:138|422:225,1,168.999992263794
356,304,61645,2,0,P|308:320|268:324,1,84.4999961318971
172,323,61961,2,8,P|124:328|80:352,2,84.4999961318971
243,251,62434,1,0,0:0:0:0:
171,179,62592,2,8,P|123:174|79:150,2,84.4999961318971
243,106,63066,1,0,0:0:0:0:
314,177,63224,6,2,P|338:293|304:312,1,168.999992263794,4|0,0:0|0:0,0:0:0:0:
211,308,63698,2,2,P|186:292|210:176,1,168.999992263794
284,104,64171,1,0,0:0:0:0:
368,44,64329,1,0,0:0:0:0:
469,44,64487,6,0,L|513:44,2,42.2499980659486,4|0|0,0:0|0:0|0:0,0:0:0:0:
469,147,64803,2,0,L|513:147,2,42.2499980659486,4|0|0,0:0|0:0|0:0,0:0:0:0:
469,250,65119,2,0,L|513:250,2,42.2499980659486,4|0|0,0:0|0:0|0:0,0:0:0:0:
469,353,65434,2,0,L|513:353,2,42.2499980659486,4|0|0,0:0|0:0|0:0,0:0:0:0:
367,353,65750,6,2,P|288:356|204:324,1,168.999992263794,4|0,0:0|0:0,0:0:0:0:
204,222,66224,2,2,P|287:190|366:193,1,168.999992263794
428,272,66698,2,0,L|336:272,1,84.4999961318971
244,296,67013,2,8,L|148:312,1,84.4999961318971
124,216,67329,2,8,L|28:194,1,84.4999961318971
41,95,67645,2,8,L|123:76,1,84.4999961318971
225,76,67961,2,0,L|320:97,1,84.4999961318971
392,148,68277,6,2,P|352:184|412:280,1,168.999992263794,4|0,0:0|0:0,0:0:0:0:
432,370,68750,2,2,P|492:320|484:236,1,168.999992263794
464,136,69224,1,0,0:0:0:0:
464,136,69382,1,0,0:0:0:0:
392,64,69540,6,0,L|392:16,2,42.2499980659486,2|0|0,0:0|0:0|0:0,0:0:0:0:
289,64,69856,2,0,L|289:16,2,42.2499980659486,2|0|0,0:0|0:0|0:0,0:0:0:0:
187,64,70171,2,0,L|187:16,2,42.2499980659486,2|0|0,0:0|0:0|0:0,0:0:0:0:
84,64,70487,2,0,L|84:16,2,42.2499980659486,2|0|0,0:0|0:0|0:0,0:0:0:0:
0,96,70803,6,2,B|17:152|69:152|169:152,1,168.999992263794,4|0,0:0|0:0,0:0:0:0:
145,254,71277,2,2,B|68:253|16:253|0:309,1,168.999992263794
92,352,71750,2,0,P|128:344|200:360,1,84.4999961318971
276,360,72066,2,8,P|316:372|360:360,1,84.4999961318971
441,286,72382,1,8,0:0:0:0:
441,286,72540,1,8,0:0:0:0:
369,214,72698,2,2,L|285:214,2,84.4999961318971
440,142,73171,1,0,0:0:0:0:
368,70,73329,6,2,P|312:32|252:100,1,168.999992263794,4|0,0:0|0:0,0:0:0:0:
149,95,73803,2,2,P|88:32|32:70,1,168.999992263794
68,168,74277,2,0,L|128:232,1,84.4999961318971
197,301,74592,6,0,L|241:350,2,42.2499980659486,8|0|0,0:0|0:0|0:0,0:0:0:0:
269,228,74908,2,0,L|313:277,2,42.2499980659486,8|0|0,0:0|0:0|0:0,0:0:0:0:
341,155,75224,2,0,L|385:204,2,42.2499980659486,8|0|0,0:0|0:0|0:0,0:0:0:0:
413,82,75540,2,0,L|457:131,2,42.2499980659486,8|0|0,0:0|0:0|0:0,0:0:0:0:
334,82,75856,6,0,L|290:33,2,42.2499980659486,4|0|0,0:0|0:0|0:0,0:0:0:0:
262,155,76171,2,0,L|218:106,2,42.2499980659486,8|0|0,0:0|0:0|0:0,0:0:0:0:
190,228,76487,2,0,L|146:179,2,42.2499980659486,8|0|0,0:0|0:0|0:0,0:0:0:0:
118,301,76803,2,0,L|74:252,2,42.2499980659486,8|0|0,0:0|0:0|0:0,0:0:0:0:
216,324,77119,6,0,P|296:344|404:232,1,253.499988395691,4|8,0:0|0:0,0:0:0:0:
404,130,77750,2,0,P|296:18|216:38,1,253.499988395691,4|8,0:0|0:0,0:0:0:0:
140,108,78382,2,0,B|176:164|248:144|248:144|288:204|224:272,1,253.499988395691,4|8,0:0|0:0,0:0:0:0:
140,304,79013,2,0,B|58:301|44:231|44:231|109:194|95:129,1,253.499988395691,4|8,0:0|0:0,0:0:0:0:
188,84,79645,6,0,L|212:40,2,42.2499980659486,4|0|0,0:0|0:0|0:0,0:0:0:0:
284,124,79961,2,0,L|308:80,2,42.2499980659486,8|0|0,0:0|0:0|0:0,0:0:0:0:
372,172,80277,2,0,L|396:128,2,42.2499980659486,4|0|0,0:0|0:0|0:0,0:0:0:0:
468,212,80592,2,0,L|492:168,2,42.2499980659486,8|0|0,0:0|0:0|0:0,0:0:0:0:
512,308,80908,6,0,L|432:339,1,84.4999961318971,4|0,0:0|0:0,0:0:0:0:
331,338,81224,2,8,L|252:307,1,84.4999961318971
150,307,81540,2,0,L|70:338,1,84.4999961318971,4|0,0:0|0:0,0:0:0:0:
0,265,81856,2,8,L|78:234,1,84.4999961318971
176,204,82171,6,0,L|224:236,2,42.2499980659486,4|0|0,0:0|0:0|0:0,0:0:0:0:
260,148,82487,2,0,L|286:196,2,42.2499980659486,8|0|0,0:0|0:0|0:0,0:0:0:0:
356,116,82803,2,0,L|368:164,2,42.2499980659486,4|0|0,0:0|0:0|0:0,0:0:0:0:
456,104,83119,2,0,L|460:168,2,42.2499980659486,8|0|0,0:0|0:0|0:0,0:0:0:0:
376,40,83434,6,4,P|344:36|292:72,1,84.4999961318971
260,148,83750,2,8,P|229:193|189:207,1,84.4999961318971
123,254,84066,2,4,P|103:274|93:328,1,84.4999961318971
195,328,84382,2,8,P|229:314|275:305,1,84.4999961318971
376,300,84698,6,2,P|422:291|456:278,1,84.4999961318971
512,204,85013,2,2,L|427:204,1,84.4999961318971
320,200,85329,2,0,L|300:244,2,42.2499980659486,2|0|2,0:0|0:0|0:0,0:0:0:0:
400,136,85645,2,2,L|512:128,1,84.4999961318971
456,32,85961,6,2,B|386:-1|330:19|330:19|274:67|206:51,1,253.499988395691,4|4,0:0|0:0,0:0:0:0:
114,52,86592,2,2,B|66:92|50:148|50:148|90:188|190:180,1,253.499988395691,4|4,0:0|0:0,0:0:0:0:
262,123,87224,2,2,B|350:115|390:155|390:155|374:211|326:251,1,253.499988395691,4|4,0:0|0:0,0:0:0:0:
234,291,87856,2,2,B|175:276|119:324|119:324|63:344|-2:287,1,253.499988395691,4|4,0:0|0:0,0:0:0:0:
86,231,88487,6,0,L|183:216,1,84.4999961318971,4|0,0:0|0:0,0:0:0:0:
169,115,88803,2,0,L|85:102,1,84.4999961318971,4|0,0:0|0:0,0:0:0:0:
0,48,89119,2,0,B|62:-6|118:14|118:14|174:62|233:48,1,253.499988395691,4|0,0:0|0:0,0:0:0:0:
334,23,89750,6,0,L|386:23,2,42.2499980659486,4|0|0,0:0|0:0|0:0,0:0:0:0:
406,95,90066,2,0,L|458:95,2,42.2499980659486,8|0|0,0:0|0:0|0:0,0:0:0:0:
333,167,90382,2,0,L|385:167,2,42.2499980659486,2|0|0,0:0|0:0|0:0,0:0:0:0:
405,239,90698,2,0,L|457:239,2,42.2499980659486,8|0|0,0:0|0:0|0:0,0:0:0:0:
346,323,91013,6,0,L|299:252,1,84.4999961318971,4|0,0:0|0:0,0:0:0:0:
197,252,91329,2,8,L|150:323,1,84.4999961318971
43,322,91645,2,0,L|70:215,1,84.4999961318971,4|0,0:0|0:0,0:0:0:0:
63,137,91961,2,8,L|42:55,1,84.4999961318971
138,15,92277,6,0,L|226:47,1,84.4999961318971,4|0,0:0|0:0,0:0:0:0:
289,115,92592,2,0,L|254:151,2,42.2499980659486,8|0|0,0:0|0:0|0:0,0:0:0:0:
361,187,92908,2,0,L|440:215,1,84.4999961318971,4|0,0:0|0:0,0:0:0:0:
470,315,93224,2,0,L|498:351,2,42.2499980659486,8|0|0,0:0|0:0|0:0,0:0:0:0:
370,295,93540,6,2,P|326:271|286:263,1,84.4999961318971,4|0,0:0|0:0,0:0:0:0:
190,263,93856,2,2,P|156:270|112:294,1,84.4999961318971
22,343,94171,2,2,P|6:275|10:247,1,84.4999961318971
7,159,94487,2,2,P|5:145|21:77,1,84.4999961318971
123,77,94803,6,0,L|154:39,2,42.2499980659486,4|0|4,0:0|0:0|0:0,0:0:0:0:
195,149,95119,2,0,L|164:187,2,42.2499980659486,4|0|4,0:0|0:0|0:0,0:0:0:0:
266,220,95434,2,0,L|297:182,2,42.2499980659486,4|0|4,0:0|0:0|0:0,0:0:0:0:
338,292,95750,2,0,L|307:330,2,42.2499980659486,4|0|4,0:0|0:0|0:0,0:0:0:0:
434,299,96066,6,2,P|442:247|330:67,1,260,4|0,0:0|0:0,0:0:0:0:
96,84,106171,6,2,P|108:132|124:152,1,65,2|2,0:0|0:0,0:0:0:0:
164,208,106487,1,8,0:0:0:0:
232,244,106645,1,8,0:0:0:0:
308,248,106803,2,0,P|388:228|404:120,1,195,4|0,0:0|0:0,0:0:0:0:
376,56,107434,6,2,P|352:36|304:20,1,65
242,22,107750,2,8,P|211:35|187:55,1,65
148,124,108066,2,0,P|124:192|156:312,1,195,4|0,0:0|0:0,0:0:0:0:
216,356,108698,6,0,P|276:372|360:356,2,130,2|8|4,0:0|0:0|0:0,0:0:0:0:
261,245,109645,2,0,L|326:245,1,65
392,200,109961,2,0,P|408:260|392:344,2,130,2|8|4,0:0|0:0|0:0,0:0:0:0:
321,124,110908,2,0,L|256:124,1,65
177,124,111224,6,2,L|104:160,1,65
118,231,111540,2,8,L|176:259,1,65
252,280,111856,2,0,P|350:269|414:189,1,195,4|0,0:0|0:0,0:0:0:0:
410,121,112487,6,0,L|482:121,2,65,2|2|8,0:0|0:0|0:0,0:0:0:0:
336,92,112961,1,8,0:0:0:0:
264,124,113119,2,0,P|204:128|68:92,1,195,4|0,0:0|0:0,0:0:0:0:
129,40,113750,5,2,0:0:0:0:
285,40,114066,1,8,0:0:0:0:
441,40,114382,2,0,L|508:32,2,65,4|0|0,0:0|0:0|0:0,0:0:0:0:
385,95,114856,1,0,0:0:0:0:
330,149,115013,5,2,0:0:0:0:
173,149,115329,1,8,0:0:0:0:
16,149,115645,2,0,L|16:216,2,65,4|0|0,0:0|0:0|0:0,0:0:0:0:
71,93,116119,1,0,0:0:0:0:
126,37,116277,6,2,P|184:36|216:48,1,65
245,92,116592,2,2,P|303:93|335:81,1,65,0|2,0:0|0:0,0:0:0:0:
364,35,116908,2,2,P|405:75|419:106,1,65
432,156,117224,2,2,P|433:214|421:246,1,65,0|0,0:0|0:0,0:0:0:0:
388,288,117540,6,0,L|416:336,2,32.5
316,316,117856,1,0,0:0:0:0:
240,320,118013,1,0,0:0:0:0:
164,304,118171,2,0,P|128:280|120:256,1,65
96,184,118487,2,0,P|100:120|112:100,1,65
140,52,118803,6,2,B|196:24|196:24|200:88|248:84,1,130,6|2,0:0|0:0,0:0:0:0:
380,81,119434,2,2,B|404:87|408:23|408:23|464:51,1,130,4|0,0:0|0:0,0:0:0:0:
460,206,120066,6,2,B|408:231|408:231|404:167|379:174,1,130,4|0,0:0|0:0,0:0:0:0:
224,175,120698,2,2,B|199:168|195:232|195:232|139:204,1,130,4|0,0:0|0:0,0:0:0:0:
60,76,121329,6,2,L|136:104,1,65
199,98,121645,2,8,L|263:98,1,65
342,98,121961,2,2,L|402:75,2,65
300,164,122434,1,8,0:0:0:0:
236,208,122592,6,2,P|200:232|168:236,1,65
100,235,122908,2,8,P|79:231|43:207,1,65
12,136,123224,2,2,P|21:93|33:77,1,65
100,32,123540,1,0,0:0:0:0:
180,28,123698,1,0,0:0:0:0:
258,28,123856,6,0,B|296:72|372:72|372:72|428:116|440:188,1,260,4|4,0:0|0:0,0:0:0:0:
439,340,124803,1,8,0:0:0:0:
282,340,125119,6,0,B|244:296|168:296|168:296|112:252|100:180,1,260,4|4,0:0|0:0,0:0:0:0:
101,28,126066,1,8,0:0:0:0:
256,52,126382,6,0,L|256:88,2,32.5,2|0|2,0:0|0:0|0:0,0:0:0:0:
324,88,126698,1,0,0:0:0:0:
324,88,126856,1,0,0:0:0:0:
392,124,127013,2,8,L|392:188,1,65
472,188,127329,2,2,L|472:324,1,130,6|2,0:0|0:0,0:0:0:0:
400,352,127803,5,4,0:0:0:0:
324,328,127961,2,0,L|264:284,1,65
193,289,128277,2,8,L|140:327,1,65
62,327,128592,1,4,0:0:0:0:
24,260,128750,1,0,0:0:0:0:
36,184,128908,5,2,0:0:0:0:
146,73,129224,1,2,0:0:0:0:
256,183,129540,1,2,0:0:0:0:
145,293,129856,1,0,0:0:0:0:
145,293,130013,1,0,0:0:0:0:
145,293,130171,5,2,0:0:0:0:
256,183,130487,1,2,0:0:0:0:
146,73,130803,1,2,0:0:0:0:
35,183,131119,1,0,0:0:0:0:
35,183,131277,1,0,0:0:0:0:
35,183,131434,6,0,L|115:183,2,65
191,183,132066,2,0,L|279:183,2,65
324,104,132698,6,8,L|256:104,2,65
167,104,133329,2,8,L|99:104,2,65
256,232,133961,6,0,P|232:296|160:308,1,130,4|0,0:0|0:0,0:0:0:0:
124,256,134434,1,0,0:0:0:0:
64,208,134592,2,8,P|88:144|100:136,1,65,0|0,0:0|0:0,0:0:0:0:
144,96,134908,1,4,0:0:0:0:
300,136,135224,6,0,P|316:190|380:214,1,130,4|0,0:0|0:0,0:0:0:0:
427,154,135698,1,0,0:0:0:0:
483,101,135856,2,8,P|466:46|444:32,1,65
384,24,136171,1,4,0:0:0:0:
248,44,136487,6,2,B|148:24|88:88|88:88|180:116|244:140|244:140|192:224|72:176,1,520
368,52,138382,2,0,P|428:88|412:156,1,130,0|8,0:0|0:0,0:0:0:0:
380,204,138856,1,8,0:0:0:0:
316,248,139013,2,2,B|264:268|268:336|268:336|192:348|116:284,1,260
64,244,139803,5,0,0:0:0:0:
44,168,139961,1,0,0:0:0:0:
56,92,140119,1,0,0:0:0:0:
140,224,140434,5,2,0:0:0:0:
120,148,140592,1,2,0:0:0:0:
132,72,140750,1,2,0:0:0:0:
216,204,141066,5,8,0:0:0:0:
196,128,141224,1,8,0:0:0:0:
320,36,141540,6,2,B|420:16|480:80|480:80|388:108|324:132|324:132|376:216|496:168,1,520
195,54,143434,6,0,B|146:76|146:76|124:124|181:137|181:137|243:115,1,195,0|8,0:0|0:0,0:0:0:0:
308,88,144066,2,2,P|384:72|280:204,1,455,8|0,0:0|0:0,0:0:0:0:
201,204,145329,5,2,0:0:0:0:
145,148,145645,1,8,0:0:0:0:
89,203,145961,1,2,0:0:0:0:
33,147,146277,1,8,0:0:0:0:
201,204,146592,6,2,B|208:256|144:304|144:304|48:300|24:360,2,260,2|8|4,0:0|0:0|0:0,0:0:0:0:
33,147,148487,6,0,L|156:72,1,130,0|8,0:0|0:0,0:0:0:0:
222,79,148961,2,0,L|292:122,1,65,8|4,0:0|0:0,0:0:0:0:
432,324,149908,6,0,P|388:292|372:288,1,65
304,308,150224,2,0,P|294:305|250:273,1,65,0|0,0:0|0:0,0:0:0:0:
240,196,150540,1,0,0:0:0:0:
240,196,150698,1,0,0:0:0:0:
244,116,150856,2,0,P|276:84|312:80,2,65
168,128,151329,1,4,0:0:0:0:
256,192,151645,12,4,152908,0:0:0:0:
256,64,153540,6,0,B|288:92|220:136|256:192,1,130
256,344,154171,1,2,0:0:0:0:
256,344,154803,1,8,0:0:0:0:
256,272,155434,5,2,0:0:0:0:
256,272,155750,1,8,0:0:0:0:
256,272,156066,2,2,L|256:128,1,130
444,64,156698,6,2,P|472:128|464:160,1,84.4999961318971,6|2,0:0|0:0,0:0:0:0:
428,232,157013,2,8,P|364:260|332:252,1,84.4999961318971
256,272,157329,1,0,0:0:0:0:
256,272,157487,1,0,0:0:0:0:
160,258,157645,2,8,P|148:260|84:232,1,84.4999961318971
41,140,157961,6,2,P|40:128|68:64,1,84.4999961318971
168,80,158277,2,2,P|140:124|148:156,1,84.4999961318971
224,216,158592,1,8,0:0:0:0:
328,240,158750,1,8,0:0:0:0:
428,232,158908,1,8,0:0:0:0:
268,104,159224,6,0,P|328:84|364:80,2,84.4999961318971,6|2|0,0:0|0:0|0:0,0:0:0:0:
180,156,159698,1,8,0:0:0:0:
96,216,159856,2,2,P|60:276|56:296,1,84.4999961318971
136,352,160171,2,2,L|192:268,1,84.4999961318971
284,280,160487,2,8,P|281:293|245:353,2,84.4999961318971
292,180,160961,1,8,0:0:0:0:
300,80,161119,2,0,P|376:128|376:224,1,168.999992263794,4|4,0:0|0:0,0:0:0:0:
273,351,161750,6,0,P|210:323|204:312,1,84.4999961318971,4|0,0:0|0:0,0:0:0:0:
171,216,162066,2,8,P|168:204|192:140,1,84.4999961318971
276,80,162382,1,0,0:0:0:0:
276,80,162540,1,0,0:0:0:0:
188,32,162698,2,8,P|128:40|108:64,1,84.4999961318971
56,140,163013,6,2,P|28:192|0:216,2,84.4999961318971
156,112,163487,1,8,0:0:0:0:
188,208,163645,2,2,P|169:225|141:277,2,84.4999961318971
300,40,164277,6,2,P|348:28|392:36,1,84.4999961318971
432,120,164592,2,8,L|336:144,1,84.4999961318971
350,242,164908,2,2,L|431:262,1,84.4999961318971
392,356,165224,2,8,P|357:360|309:348,1,84.4999961318971
256,192,165540,12,8,166487,0:0:0:0:
164,128,166803,6,2,P|112:132|92:112,2,84.4999961318971,4|0|0,0:0|0:0|0:0,0:0:0:0:
256,84,167277,1,0,0:0:0:0:
348,128,167434,2,2,P|400:132|420:112,1,84.4999961318971
356,32,167750,1,2,0:0:0:0:
356,32,167908,1,0,0:0:0:0:
256,84,168066,6,2,P|200:48|160:44,1,84.4999961318971
80,48,168382,1,2,0:0:0:0:
80,48,168540,1,2,0:0:0:0:
120,140,168698,2,8,P|176:176|192:179,1,84.4999961318971
292,192,169013,1,8,0:0:0:0:
448,320,169329,6,0,P|396:348|356:352,1,84.4999961318971,4|0,0:0|0:0,0:0:0:0:
268,344,169645,2,8,L|192:304,1,84.4999961318971
193,202,169961,2,0,L|267:162,1,84.4999961318971
339,90,170277,2,0,P|287:62|247:58,1,84.4999961318971,8|8,0:0|0:0,0:0:0:0:
160,58,170592,6,2,P|135:61|83:89,2,84.4999961318971
228,132,171066,1,2,0:0:0:0:
304,200,171224,2,0,P|376:240|468:228,1,168.999992263794,4|4,0:0|0:0,0:0:0:0:
403,35,171856,6,2,P|355:71|331:103,1,84.4999961318971,6|2,0:0|0:0,0:0:0:0:
252,140,172171,2,0,P|204:176|180:208,1,84.4999961318971,8|8,0:0|0:0,0:0:0:0:
124,272,172487,2,2,P|136:320|192:336,1,84.4999961318971,2|2,0:0|0:0,0:0:0:0:
266,336,172803,2,0,P|294:319|306:271,1,84.4999961318971,8|8,0:0|0:0,0:0:0:0:
340,176,173119,6,8,P|400:160|448:140,2,84.4999961318971
240,180,173592,1,8,0:0:0:0:
140,164,173750,1,2,0:0:0:0:
68,92,173908,1,2,0:0:0:0:
139,20,174066,1,2,0:0:0:0:
340,36,174382,6,0,B|380:64|380:64|368:112,1,84.4999961318971,4|0,0:0|0:0,0:0:0:0:
299,170,174698,2,0,B|290:204|290:204|330:232,1,84.4999961318971,8|8,0:0|0:0,0:0:0:0:
424,276,175013,2,0,B|420:328|420:328|368:336,1,84.4999961318971,4|0,0:0|0:0,0:0:0:0:
285,332,175329,1,8,0:0:0:0:
285,332,175487,1,8,0:0:0:0:
188,308,175645,5,4,0:0:0:0:
104,280,175803,1,4,0:0:0:0:
176,208,175961,1,4,0:0:0:0:
80,180,176119,1,4,0:0:0:0:
68,80,176277,6,2,P|128:48|320:64,1,260,6|4,0:0|0:0,0:0:0:0:
