osu file format v14

[General]
AudioFilename: Usatei.mp3
AudioLeadIn: 0
PreviewTime: 156698
Countdown: 0
SampleSet: Normal
StackLeniency: 0.5
Mode: 0
LetterboxInBreaks: 1
WidescreenStoryboard: 0

[Editor]
Bookmarks: 97013,136487,152277
DistanceSpacing: 1.4
BeatDivisor: 4
GridSize: 4
TimelineZoom: 1

[Metadata]
Title:Usatei 2011
TitleUnicode:Usatei 2011
Artist:IOSYS
ArtistUnicode:IOSYS
Creator:InC0nceNtrateD
Version:Extra
Source:Touhou
Tags:Toho Remake Tewi Carrot Starzd Nwolf kagome cool&create
BeatmapID:262189
BeatmapSetID:98271

[Difficulty]
HPDrainRate:7
CircleSize:4
OverallDifficulty:5
ApproachRate:9
SliderMultiplier:1.9
SliderTickRate:1

[Events]
//Background and Video events
0,0,"TewiBG.JPG",0,0
//Break Periods
2,25329,34677
2,97329,105571
//Storyboard Layer 0 (Background)
//Storyboard Layer 1 (Fail)
//Storyboard Layer 2 (Pass)
//Storyboard Layer 3 (Foreground)
//Storyboard Sound Samples

[TimingPoints]
3856,315.789473684211,4,1,0,60,1,0
24698,-100,4,1,0,80,0,0
24856,-100,4,1,0,60,0,0
53119,-90.9090909090909,4,1,0,60,0,0
53750,-83.3333333333333,4,1,0,60,0,0
54382,-76.9230769230769,4,1,0,60,0,0
55013,-71.4285714285714,4,1,0,60,0,0
55645,-76.9230769230769,4,1,0,60,0,1
75856,-76.9230769230769,4,1,0,60,0,1
96066,-100,4,1,0,60,0,1
96382,-100,4,1,0,60,0,0
153856,-100,4,1,0,85,0,0
154171,-100,4,1,0,60,0,0
156698,-76.9230769230769,4,1,0,60,0,1
166803,-76.9230769230769,4,1,0,60,0,1
176277,-100,4,1,0,60,0,0

[Colours]
Combo1 : 255,55,61
Combo2 : 232,208,77
Combo3 : 249,106,245
Combo4 : 226,146,24

[HitObjects]
256,240,3698,6,0,L|256:288,2,47.5
290,172,4013,1,0,0:0:0:0:
311,160,4092,1,0,0:0:0:0:
331,148,4171,1,0,0:0:0:0:
221,172,4329,1,0,0:0:0:0:
200,160,4408,1,0,0:0:0:0:
180,148,4487,1,0,0:0:0:0:
256,104,4645,2,0,L|256:56,2,47.5
256,56,4961,1,0,0:0:0:0:
352,48,5119,6,8,P|424:96|452:136,1,95,12|8,0:0|0:0,0:0:0:0:
160,48,5434,2,0,P|88:96|60:136,1,95
430,235,5750,2,8,P|424:240|352:288,1,95
84,235,6066,2,0,P|89:240|161:288,1,95
175,262,6382,6,2,P|130:275|84:268,1,95
336,262,6698,2,0,P|381:275|428:268,1,95
158,352,7013,2,2,P|224:307|241:255,1,95
353,352,7329,2,0,P|287:307|270:255,1,95
208,236,7645,6,0,P|235:160|220:108,1,95,4|0,0:0|0:0,0:0:0:0:
304,236,7961,2,0,P|276:160|291:108,1,95
356,52,8277,1,0,0:0:0:0:
332,52,8356,1,0,0:0:0:0:
308,52,8434,1,8,0:0:0:0:
156,52,8592,1,0,0:0:0:0:
180,52,8671,1,0,0:0:0:0:
204,52,8750,1,8,0:0:0:0:
256,112,8908,5,0,0:0:0:0:
256,136,8987,1,0,0:0:0:0:
256,160,9066,1,0,0:0:0:0:
256,184,9145,1,0,0:0:0:0:
256,208,9224,2,0,L|256:324,1,95
440,348,9540,1,4,0:0:0:0:
72,348,9856,1,4,0:0:0:0:
368,108,10171,6,8,P|360:184|340:236,1,95,12|8,0:0|0:0,0:0:0:0:
144,108,10487,2,8,P|152:184|172:236,1,95
328,288,10803,1,0,0:0:0:0:
184,288,10961,1,0,0:0:0:0:
256,112,11119,1,0,0:0:0:0:
256,136,11198,1,0,0:0:0:0:
256,160,11277,1,0,0:0:0:0:
344,192,11434,5,0,0:0:0:0:
411,259,11592,1,0,0:0:0:0:
315,259,11750,1,0,0:0:0:0:
382,326,11908,1,0,0:0:0:0:
130,326,12066,5,0,0:0:0:0:
197,259,12224,1,0,0:0:0:0:
101,259,12382,1,0,0:0:0:0:
168,192,12540,1,0,0:0:0:0:
256,224,12698,6,0,P|308:164|312:128,1,95,4|0,0:0|0:0,0:0:0:0:
220,164,13013,2,0,P|299:158|327:135,1,95,0|0,0:0|0:0,0:0:0:0:
236,96,13329,2,0,P|296:148|332:152,1,95
296,60,13645,2,0,P|301:139|324:167,1,95,0|0,0:0|0:0,0:0:0:0:
404,172,13961,5,0,0:0:0:0:
408,200,14040,1,0,0:0:0:0:
412,228,14119,1,0,0:0:0:0:
408,256,14198,1,0,0:0:0:0:
396,280,14277,5,0,0:0:0:0:
372,296,14356,1,0,0:0:0:0:
344,308,14434,1,0,0:0:0:0:
316,312,14513,1,0,0:0:0:0:
288,312,14592,5,0,0:0:0:0:
260,304,14671,1,0,0:0:0:0:
236,288,14750,1,0,0:0:0:0:
224,264,14829,1,0,0:0:0:0:
220,236,14908,5,0,0:0:0:0:
220,208,14987,1,0,0:0:0:0:
220,180,15066,1,0,0:0:0:0:
228,84,15224,6,8,L|112:152,1,95,12|8,0:0|0:0,0:0:0:0:
241,132,15540,2,0,L|125:200,1,95,0|0,0:0|0:0,0:0:0:0:
284,84,15856,2,8,L|400:152,1,95
271,132,16171,2,0,L|387:200,1,95,0|0,0:0|0:0,0:0:0:0:
159,203,16487,6,8,L|241:252,1,95,0|0,0:0|0:0,0:0:0:0:
146,251,16803,2,8,L|228:300,1,95
352,203,17119,2,8,L|271:252,1,95,0|0,0:0|0:0,0:0:0:0:
365,251,17434,2,8,L|284:300,1,95
256,208,17750,5,4,0:0:0:0:
243,184,17829,1,0,0:0:0:0:
237,157,17908,1,0,0:0:0:0:
239,130,17987,1,0,0:0:0:0:
250,106,18066,5,0,0:0:0:0:
268,86,18145,1,0,0:0:0:0:
292,73,18224,1,0,0:0:0:0:
319,69,18303,1,0,0:0:0:0:
345,76,18382,5,0,0:0:0:0:
366,93,18461,1,0,0:0:0:0:
377,117,18540,1,0,0:0:0:0:
376,144,18619,1,0,0:0:0:0:
360,165,18698,5,0,0:0:0:0:
334,171,18777,1,0,0:0:0:0:
310,160,18856,1,0,0:0:0:0:
292,36,19013,6,0,P|364:52|412:72,1,95
220,36,19329,2,0,P|148:52|128:59,1,95
40,92,19645,5,4,0:0:0:0:
472,292,19961,1,4,0:0:0:0:
400,116,20277,6,8,P|416:184|412:240,1,95,12|8,0:0|0:0,0:0:0:0:
324,188,20592,1,0,0:0:0:0:
324,188,20671,1,0,0:0:0:0:
324,188,20750,1,8,0:0:0:0:
112,116,20908,2,8,P|96:184|100:240,1,95
188,188,21224,1,0,0:0:0:0:
188,188,21303,1,0,0:0:0:0:
188,188,21382,1,8,0:0:0:0:
256,256,21540,6,0,L|248:328,2,47.5,0|0|8,0:0|0:0|0:0,0:0:0:0:
311,160,21856,2,0,L|377:130,2,47.5,0|0|8,0:0|0:0|0:0,0:0:0:0:
200,160,22171,2,0,L|142:117,2,47.5,0|0|2,0:0|0:0|0:0,0:0:0:0:
256,256,22487,6,0,L|248:328,2,47.5,0|0|2,0:0|0:0|0:0,0:0:0:0:
312,80,22803,6,0,P|384:128|408:156,1,95,4|0,0:0|0:0,0:0:0:0:
200,80,23119,2,0,P|128:128|104:156,1,95
376,272,23434,2,0,P|381:266|453:218,1,95
136,272,23750,2,0,P|130:266|58:218,1,95
64,76,24066,5,8,0:0:0:0:
171,183,24224,1,8,0:0:0:0:
323,183,24382,5,8,0:0:0:0:
216,290,24540,1,8,0:0:0:0:
340,32,24698,5,4,0:0:0:0:
48,160,35277,5,0,0:0:0:0:
48,160,35356,1,0,0:0:0:0:
48,160,35434,2,8,P|96:112|152:96,1,95
224,84,35750,1,8,0:0:0:0:
328,68,35908,1,8,0:0:0:0:
432,72,36066,5,0,0:0:0:0:
456,88,36145,1,0,0:0:0:0:
468,112,36224,1,0,0:0:0:0:
464,140,36303,1,0,0:0:0:0:
452,164,36382,2,0,P|432:220|448:272,1,95
336,276,36698,5,0,0:0:0:0:
316,256,36777,1,0,0:0:0:0:
296,236,36856,1,8,0:0:0:0:
176,108,37013,1,0,0:0:0:0:
196,128,37092,1,0,0:0:0:0:
216,148,37171,1,8,0:0:0:0:
176,276,37329,6,2,B|208:272|208:272|196:248|196:248|224:256|224:256|212:232|212:232|252:220|268:164,1,190
284,76,37803,5,0,0:0:0:0:
284,76,37882,1,0,0:0:0:0:
284,76,37961,2,8,B|324:80|360:108|408:72,1,95
456,156,38277,2,8,B|416:160|380:188|332:152,1,95
300,252,38592,6,0,L|264:312,2,47.5
212,132,38908,2,0,L|248:72,2,47.5
128,192,39224,5,2,0:0:0:0:
232,192,39382,1,2,0:0:0:0:
336,192,39540,1,2,0:0:0:0:
440,192,39698,1,2,0:0:0:0:
388,104,39856,5,0,0:0:0:0:
372,120,39934,1,0,0:0:0:0:
352,132,40013,1,0,0:0:0:0:
328,140,40092,1,0,0:0:0:0:
304,144,40171,1,0,0:0:0:0:
224,144,40329,1,0,0:0:0:0:
192,72,40487,6,0,L|144:44,2,47.5
286,166,40803,2,0,L|334:194,2,47.5
152,166,41119,2,0,L|104:138,2,47.5
246,260,41434,2,0,L|294:288,2,47.5
116,240,41750,6,0,P|84:192|80:148,1,95
138,34,42066,1,8,0:0:0:0:
261,34,42224,1,8,0:0:0:0:
174,122,42382,5,0,0:0:0:0:
196,136,42461,1,0,0:0:0:0:
224,140,42540,1,0,0:0:0:0:
252,128,42619,1,0,0:0:0:0:
276,116,42698,1,0,0:0:0:0:
300,132,42777,1,0,0:0:0:0:
324,144,42856,1,0,0:0:0:0:
352,140,42934,1,0,0:0:0:0:
380,128,43013,6,8,P|440:80|460:44,2,95
256,252,43487,1,0,0:0:0:0:
132,128,43645,6,8,P|72:80|52:44,2,95
256,252,44119,1,0,0:0:0:0:
92,64,44277,5,0,0:0:0:0:
352,140,44434,1,0,0:0:0:0:
472,32,44592,5,0,0:0:0:0:
312,64,44750,1,0,0:0:0:0:
320,224,44908,5,0,0:0:0:0:
172,288,45066,1,0,0:0:0:0:
192,128,45224,5,0,0:0:0:0:
256,268,45382,1,0,0:0:0:0:
256,116,45540,5,0,0:0:0:0:
256,132,45619,1,0,0:0:0:0:
256,148,45698,1,8,0:0:0:0:
256,268,45856,1,0,0:0:0:0:
256,252,45934,1,0,0:0:0:0:
256,236,46013,1,8,0:0:0:0:
380,296,46171,6,0,L|432:336,2,47.5
132,296,46487,2,0,L|80:336,2,47.5
196,224,46803,5,8,0:0:0:0:
316,224,46961,1,8,0:0:0:0:
196,144,47119,1,8,0:0:0:0:
316,144,47277,1,8,0:0:0:0:
256,64,47434,2,0,B|240:96|240:96|272:128|272:128|240:160|240:160|272:192|272:192|240:240,1,190
396,224,48066,6,0,L|448:260,2,47.5
116,224,48382,2,0,L|64:260,2,47.5
356,136,48698,5,0,0:0:0:0:
336,116,48777,1,0,0:0:0:0:
312,104,48856,1,2,0:0:0:0:
156,136,49013,1,0,0:0:0:0:
176,116,49092,1,0,0:0:0:0:
200,104,49171,1,2,0:0:0:0:
256,97,49329,6,0,L|256:192,1,95
338,239,49645,2,0,L|256:192,1,95
173,239,49961,2,0,L|256:192,1,95
336,116,50277,5,8,0:0:0:0:
176,116,50434,1,8,0:0:0:0:
404,84,50592,5,0,0:0:0:0:
408,112,50671,1,0,0:0:0:0:
404,140,50750,1,0,0:0:0:0:
256,188,50908,2,2,L|256:240,2,47.5,0|0|0,0:0|0:0|0:0,0:0:0:0:
108,84,51224,5,0,0:0:0:0:
104,112,51303,1,0,0:0:0:0:
108,140,51382,1,0,0:0:0:0:
256,188,51540,2,2,L|256:240,2,47.5,0|0|0,0:0|0:0|0:0,0:0:0:0:
256,132,51856,5,0,0:0:0:0:
316,84,52013,1,0,0:0:0:0:
192,84,52171,1,0,0:0:0:0:
372,19,52329,1,0,0:0:0:0:
132,19,52487,2,0,P|56:68|48:180,1,190
256,40,53119,6,0,L|320:40,2,52.2500015945435,4|0|0,0:0|0:0|0:0,0:0:0:0:
256,40,53434,2,0,L|192:40,2,52.2500015945435
300,112,53750,6,0,L|368:120,2,56.9999982604981,4|0|4,0:0|0:0|0:0,0:0:0:0:
212,112,54066,2,0,L|144:120,2,56.9999982604981
352,192,54382,6,0,L|420:208,2,61.7499971733094,4|0|4,0:0|0:0|0:0,0:0:0:0:
160,192,54698,2,0,L|92:208,2,61.7499971733094
368,272,55013,6,0,L|436:296,2,66.4999979705811,4|0|4,0:0|0:0|0:0,0:0:0:0:
144,272,55329,2,0,L|76:296,2,66.4999979705811
288,172,55645,6,0,B|360:192|400:156|400:156|448:220|388:288,1,246.999988693238
224,172,56119,2,0,B|152:192|112:156|112:156|64:220|124:288,1,246.999988693238
260,348,56592,2,2,B|224:348|224:328|256:328|256:328|284:328|284:304|224:304,1,123.499994346619
108,208,56908,6,8,P|160:172|220:184,1,123.499994346619
404,208,57224,2,8,P|352:172|292:184,1,123.499994346619
123,124,57540,2,8,P|186:122|230:165,1,123.499994346619
388,124,57856,2,8,P|325:122|281:165,1,123.499994346619
224,324,58171,6,0,B|152:304|112:340|112:340|64:276|124:208,1,246.999988693238
288,324,58645,2,0,B|360:304|400:340|400:340|448:276|388:208,1,246.999988693238
252,128,59119,2,2,B|288:128|288:108|256:108|256:108|228:108|228:84|288:84,1,123.499994346619
444,124,59434,5,12,0:0:0:0:
380,284,59592,1,8,0:0:0:0:
320,120,59750,5,8,0:0:0:0:
464,216,59908,1,8,0:0:0:0:
292,216,60066,5,12,0:0:0:0:
160,104,60224,1,8,0:0:0:0:
320,120,60382,5,4,0:0:0:0:
156,176,60540,1,4,0:0:0:0:
256,28,60698,5,4,0:0:0:0:
264,44,60777,1,0,0:0:0:0:
268,64,60856,1,0,0:0:0:0:
264,84,60934,1,0,0:0:0:0:
256,100,61013,1,0,0:0:0:0:
82,100,61171,1,0,0:0:0:0:
74,116,61250,1,0,0:0:0:0:
70,136,61329,1,0,0:0:0:0:
74,156,61408,1,0,0:0:0:0:
82,172,61487,1,0,0:0:0:0:
205,295,61645,1,8,0:0:0:0:
213,311,61724,1,8,0:0:0:0:
205,327,61803,1,8,0:0:0:0:
328,320,61961,6,0,P|360:256|408:224,1,123.499994346619
184,64,62277,2,0,P|152:128|104:160,1,123.499994346619
246,338,62592,2,8,P|308:302|366:301,1,123.499994346619
265,45,62908,2,8,P|203:81|145:82,1,123.499994346619
168,309,63224,6,8,P|239:313|288:343,1,123.499994346619,12|8,0:0|0:0,0:0:0:0:
343,74,63540,2,8,P|272:70|223:40,1,123.499994346619
118,243,63856,2,0,P|176:284|200:337,1,123.499994346619
393,140,64171,2,0,P|335:99|311:46,1,123.499994346619
188,60,64487,5,12,0:0:0:0:
68,184,64645,1,8,0:0:0:0:
92,12,64803,5,8,0:0:0:0:
172,164,64961,1,8,0:0:0:0:
316,260,65119,5,12,0:0:0:0:
252,100,65277,1,8,0:0:0:0:
412,40,65434,5,4,0:0:0:0:
472,160,65592,1,4,0:0:0:0:
360,200,65750,5,4,0:0:0:0:
344,208,65829,1,0,0:0:0:0:
324,212,65908,1,0,0:0:0:0:
304,208,65987,1,0,0:0:0:0:
288,200,66066,1,0,0:0:0:0:
472,184,66224,1,0,0:0:0:0:
480,168,66303,1,0,0:0:0:0:
484,148,66382,1,0,0:0:0:0:
480,128,66461,1,0,0:0:0:0:
472,112,66540,1,0,0:0:0:0:
424,280,66698,1,8,0:0:0:0:
416,264,66777,1,8,0:0:0:0:
424,248,66856,1,8,0:0:0:0:
316,112,67013,6,2,P|256:176|250:208,1,123.499994346619
357,163,67329,2,10,P|272:184|250:208,1,123.499994346619
365,228,67645,2,2,P|282:199|250:208,1,123.499994346619,2|2,0:0|0:0,3:0:0:0:
335,287,67961,2,10,P|282:218|250:208,1,123.499994346619,10|10,0:0|0:0,3:0:0:0:
92,324,68277,5,4,0:0:0:0:
108,332,68356,1,0,0:0:0:0:
128,336,68434,1,0,0:0:0:0:
148,332,68513,1,0,0:0:0:0:
164,324,68592,1,0,0:0:0:0:
40,200,68750,1,0,0:0:0:0:
32,216,68829,1,0,0:0:0:0:
28,236,68908,1,0,0:0:0:0:
32,256,68987,1,0,0:0:0:0:
40,272,69066,1,0,0:0:0:0:
88,104,69224,1,8,0:0:0:0:
96,120,69303,1,8,0:0:0:0:
88,136,69382,1,8,0:0:0:0:
196,272,69540,6,2,P|256:208|261:175,1,123.499994346619,6|2,0:0|0:0,0:0:0:0:
154,220,69856,2,2,P|239:199|261:175,1,123.499994346619
146,155,70171,2,2,P|229:184|261:175,1,123.499994346619
176,96,70487,2,2,P|229:165|261:175,1,123.499994346619
324,36,70803,6,0,L|392:64,4,61.7499971733095,4|0|0|0|0,0:0|0:0|0:0|0:0|0:0,0:0:0:0:
188,36,71277,2,0,L|120:64,4,61.7499971733095
256,48,71750,2,0,L|256:120,2,61.7499971733095
356,192,72066,2,8,L|496:192,1,123.499994346619
348,229,72382,2,8,L|478:281,1,123.499994346619
327,261,72698,2,8,L|428:358,1,123.499994346619
296,283,73013,2,8,L|353:411,1,123.499994346619
188,36,73329,6,0,L|120:64,4,61.7499971733095,4|0|0|0|0,0:0|0:0|0:0|0:0|0:0,0:0:0:0:
324,36,73803,2,0,L|392:64,4,61.7499971733095
256,48,74277,2,0,L|256:120,2,61.7499971733095
156,192,74592,2,2,L|16:192,1,123.499994346619
163,229,74908,2,2,L|33:281,1,123.499994346619
184,261,75224,2,2,L|83:358,1,123.499994346619
215,283,75540,2,2,L|158:411,1,123.499994346619
355,181,75856,6,0,L|430:174,2,61.7499971733095,4|0|0,0:0|0:0|0:0,0:0:0:0:
156,202,76171,2,0,L|81:209,2,61.7499971733095
345,237,76487,6,0,L|412:272,2,61.7499971733095,4|0|0,0:0|0:0|0:0,0:0:0:0:
166,146,76803,2,0,L|99:111,2,61.7499971733095
306,278,77119,6,0,L|343:344,2,61.7499971733095,4|0|0,0:0|0:0|0:0,0:0:0:0:
205,105,77434,2,0,L|168:39,2,61.7499971733095
250,291,77750,6,0,L|246:367,2,61.7499971733095,4|0|0,0:0|0:0|0:0,0:0:0:0:
261,92,78066,2,0,L|265:16,2,61.7499971733095
212,281,78382,6,0,L|178:349,2,61.7499971733095,4|0|0,0:0|0:0|0:0,0:0:0:0:
299,102,78698,2,0,L|333:34,2,61.7499971733095
170,243,79013,6,0,L|105:281,2,61.7499971733095,4|0|0,0:0|0:0|0:0,0:0:0:0:
341,140,79329,2,0,L|406:102,2,61.7499971733095
156,188,79645,6,0,L|80:185,2,61.7499971733095,4|0|0,0:0|0:0|0:0,0:0:0:0:
355,195,79961,2,0,L|431:198,2,61.7499971733095
174,134,80277,6,0,L|112:90,2,61.7499971733095,4|0|0,0:0|0:0|0:0,0:0:0:0:
337,249,80592,2,0,L|399:293,2,61.7499971733095
236,96,80908,5,12,0:0:0:0:
280,264,81066,1,8,0:0:0:0:
368,116,81224,5,8,0:0:0:0:
220,204,81382,1,8,0:0:0:0:
124,60,81540,5,12,0:0:0:0:
280,140,81698,1,8,0:0:0:0:
440,72,81856,5,8,0:0:0:0:
268,48,82013,1,8,0:0:0:0:
128,148,82171,5,12,0:0:0:0:
48,300,82329,1,8,0:0:0:0:
32,128,82487,5,2,0:0:0:0:
148,256,82645,1,2,0:0:0:0:
304,176,82803,5,6,0:0:0:0:
148,100,82961,1,2,0:0:0:0:
240,248,83119,5,4,0:0:0:0:
252,76,83277,1,4,0:0:0:0:
360,208,83434,6,0,P|432:248|472:236,1,123.499994346619,4|0,0:0|0:0,0:0:0:0:
152,176,83750,2,0,P|80:136|40:148,1,123.499994346619
351,148,84066,2,0,P|434:143|461:111,1,123.499994346619
160,235,84382,2,0,P|77:240|50:272,1,123.499994346619
312,103,84698,6,8,P|378:53|384:12,1,123.499994346619,12|8,0:0|0:0,0:0:0:0:
199,280,85013,2,8,P|133:330|127:371,1,123.499994346619
255,86,85329,2,2,P|202:23|161:20,1,123.499994346619
257,298,85645,2,2,P|309:360|350:363,1,123.499994346619
198,104,85961,5,12,0:0:0:0:
313,279,86119,1,8,0:0:0:0:
159,149,86277,5,8,0:0:0:0:
352,234,86434,1,8,0:0:0:0:
152,208,86592,5,6,0:0:0:0:
359,175,86750,1,2,0:0:0:0:
178,262,86908,5,2,0:0:0:0:
333,121,87066,1,2,0:0:0:0:
229,293,87224,6,0,L|212:376,2,61.7499971733095,4|0|0,0:0|0:0|0:0,0:0:0:0:
282,90,87540,2,0,L|300:8,2,61.7499971733095
288,291,87856,6,0,L|319:370,2,61.7499971733095
223,92,88171,2,0,L|192:13,2,61.7499971733095
338,257,88487,6,0,L|406:307,2,61.7499971733095,4|0|0,0:0|0:0|0:0,0:0:0:0:
173,126,88803,2,0,L|105:76,2,61.7499971733095
360,202,89119,6,0,L|444:206,2,61.7499971733095
151,181,89434,2,0,L|67:177,2,61.7499971733095
349,143,89750,5,12,0:0:0:0:
162,240,89908,1,8,0:0:0:0:
324,304,90066,5,8,0:0:0:0:
240,152,90224,1,8,0:0:0:0:
372,40,90382,5,6,0:0:0:0:
308,200,90540,1,2,0:0:0:0:
252,36,90698,5,4,0:0:0:0:
396,132,90856,1,4,0:0:0:0:
456,292,91013,6,0,P|384:324|296:344,1,123.499994346619,4|0,0:0|0:0,0:0:0:0:
464,213,91329,2,0,P|392:245|304:265,1,123.499994346619
472,134,91645,2,0,P|400:166|312:186,1,123.499994346619,4|0,0:0|0:0,0:0:0:0:
480,55,91961,2,0,P|408:87|320:107,1,123.499994346619
56,292,92277,6,0,P|128:324|216:344,1,123.499994346619,4|0,0:0|0:0,0:0:0:0:
48,213,92592,2,0,P|120:245|208:265,1,123.499994346619
40,134,92908,2,0,P|112:166|200:186,1,123.499994346619,4|0,0:0|0:0,0:0:0:0:
32,55,93224,2,0,P|104:87|192:107,1,123.499994346619
316,64,93540,5,12,0:0:0:0:
208,200,93698,1,8,0:0:0:0:
380,192,93856,5,8,0:0:0:0:
228,108,94013,1,8,0:0:0:0:
112,236,94171,5,6,0:0:0:0:
284,260,94329,1,2,0:0:0:0:
368,108,94487,5,8,0:0:0:0:
212,36,94645,1,8,0:0:0:0:
48,92,94803,5,12,0:0:0:0:
204,164,94961,1,8,0:0:0:0:
104,24,95119,5,8,0:0:0:0:
32,180,95277,1,8,0:0:0:0:
164,72,95434,5,6,0:0:0:0:
320,144,95592,1,2,0:0:0:0:
492,132,95750,5,2,0:0:0:0:
420,288,95908,1,8,0:0:0:0:
352,180,96066,6,2,P|216:84|52:188,1,380,2|4,0:0|0:0,0:0:0:0:
80,112,106171,5,0,0:0:0:0:
80,112,106329,1,0,0:0:0:0:
100,272,106487,2,0,P|184:296|224:284,1,95
120,302,106803,2,0,P|207:308|243:288,1,95
432,112,107434,5,0,0:0:0:0:
432,112,107592,1,0,0:0:0:0:
412,272,107750,2,0,P|328:296|288:284,1,95
391,302,108066,2,0,P|304:308|268:288,1,95
256,52,108698,5,8,0:0:0:0:
256,164,108856,1,0,0:0:0:0:
348,108,109013,5,2,0:0:0:0:
224,108,109171,1,0,0:0:0:0:
320,164,109329,5,8,0:0:0:0:
320,52,109487,1,0,0:0:0:0:
256,332,109961,5,2,0:0:0:0:
256,220,110119,1,0,0:0:0:0:
164,276,110277,5,8,0:0:0:0:
288,276,110434,1,0,0:0:0:0:
192,220,110592,5,2,0:0:0:0:
192,332,110750,1,0,0:0:0:0:
336,44,111224,6,0,L|392:84,2,47.5
176,44,111540,2,0,L|120:84,2,47.5
256,112,111856,2,0,L|256:180,2,47.5
176,340,112487,6,0,L|120:300,2,47.5
336,340,112803,2,0,L|392:300,2,47.5
256,272,113119,2,0,L|256:204,2,47.5
256,64,113750,5,0,0:0:0:0:
360,64,113908,1,0,0:0:0:0:
432,136,114066,1,0,0:0:0:0:
328,136,114224,1,0,0:0:0:0:
401,209,114382,2,0,P|348:272|216:296,1,190
256,64,115013,5,0,0:0:0:0:
152,64,115171,1,0,0:0:0:0:
80,136,115329,1,0,0:0:0:0:
184,136,115487,1,0,0:0:0:0:
111,209,115645,2,0,P|164:272|296:296,1,190
104,164,116277,6,0,L|24:104,1,95
196,96,116592,2,0,L|144:10,1,95,0|0,0:0|0:0,0:0:0:0:
316,96,116908,2,0,L|367:10,1,95,0|0,0:0|0:0,0:0:0:0:
408,164,117224,2,0,L|488:104,1,95
420,216,117540,6,0,L|484:240,1,47.5,8|0,0:0|0:0,0:0:0:0:
388,260,117698,2,0,L|444:312,1,47.5,0|0,0:0|0:0,0:0:0:0:
344,296,117856,2,0,L|376:364,1,47.5,8|0,0:0|0:0,0:0:0:0:
284,316,118013,2,0,L|301:384,1,47.5,0|0,0:0|0:0,0:0:0:0:
228,316,118171,2,0,L|212:380,1,47.5,8|0,0:0|0:0,0:0:0:0:
168,296,118329,2,0,L|131:360,1,47.5
120,260,118487,2,0,L|64:308,1,47.5,8|0,0:0|0:0,0:0:0:0:
88,216,118645,2,0,L|20:240,1,47.5
256,192,118803,12,4,119750,0:0:0:0:
256,72,120066,5,8,0:0:0:0:
388,124,120224,1,8,0:0:0:0:
424,264,120382,5,8,0:0:0:0:
288,312,120540,1,8,0:0:0:0:
280,168,120698,5,2,0:0:0:0:
160,244,120856,1,2,0:0:0:0:
300,252,121013,5,4,0:0:0:0:
192,160,121171,1,4,0:0:0:0:
304,76,121329,6,0,P|328:144|324:208,1,95
359,120,121645,2,8,P|342:190|304:242,1,95
381,188,121961,2,0,P|329:238|269:260,1,95
363,257,122277,2,8,P|292:270|229:256,1,95
208,308,122592,6,0,P|184:240|188:176,1,95
152,263,122908,2,8,P|169:193|207:141,1,95
130,195,123224,2,0,P|182:145|242:123,1,95
148,126,123540,2,8,P|219:113|282:127,1,95
384,84,123856,5,8,0:0:0:0:
212,312,124171,1,2,0:0:0:0:
296,40,124487,5,8,0:0:0:0:
300,324,124803,1,2,0:0:0:0:
128,300,125119,5,8,0:0:0:0:
300,72,125434,1,2,0:0:0:0:
216,344,125750,5,8,0:0:0:0:
212,60,126066,1,4,0:0:0:0:
88,316,126382,6,0,P|85:250|104:197,1,95
419,222,126698,2,0,P|426:250|424:316,1,95
92,264,127013,6,0,P|89:198|108:145,1,95
423,170,127329,2,0,P|430:198|427:263,1,95
88,192,127645,6,8,P|85:126|104:73,1,95
419,98,127961,2,8,P|426:126|423:191,1,95
92,140,128277,6,8,P|89:74|108:21,1,95
423,46,128592,2,8,P|430:74|427:139,1,95
432,284,128908,5,0,0:0:0:0:
80,284,129224,1,0,0:0:0:0:
432,184,129540,1,0,0:0:0:0:
80,184,129856,1,8,0:0:0:0:
80,184,130013,1,8,0:0:0:0:
80,184,130171,5,4,0:0:0:0:
432,184,130487,1,0,0:0:0:0:
80,84,130803,1,0,0:0:0:0:
432,84,131119,1,8,0:0:0:0:
432,84,131277,1,8,0:0:0:0:
432,84,131434,5,4,0:0:0:0:
400,152,131592,1,0,0:0:0:0:
344,204,131750,2,0,P|280:240|224:256,1,95
80,84,132066,5,4,0:0:0:0:
112,152,132224,1,0,0:0:0:0:
168,204,132382,2,0,P|232:240|288:256,1,95
332,132,132698,5,12,0:0:0:0:
180,132,132856,1,8,0:0:0:0:
256,48,133013,2,2,B|228:112|288:116|232:176,1,95
180,252,133329,5,12,0:0:0:0:
332,252,133487,1,8,0:0:0:0:
256,336,133645,2,2,B|284:272|224:268|280:208,1,95
152,196,133961,6,0,P|208:132|248:108,2,95
256,280,134434,1,0,0:0:0:0:
360,196,134592,6,0,P|304:132|264:108,2,95
256,280,135066,1,0,0:0:0:0:
264,240,135224,5,0,0:0:0:0:
252,225,135303,1,0,0:0:0:0:
252,206,135382,1,0,0:0:0:0:
256,184,135461,5,0,0:0:0:0:
260,164,135540,1,0,0:0:0:0:
263,145,135619,1,0,0:0:0:0:
262,126,135698,1,0,0:0:0:0:
258,108,135777,5,0,0:0:0:0:
252,92,135856,1,0,0:0:0:0:
232,69,135934,1,0,0:0:0:0:
207,53,136013,1,0,0:0:0:0:
179,46,136092,5,0,0:0:0:0:
149,47,136171,1,0,0:0:0:0:
121,57,136250,1,0,0:0:0:0:
98,75,136329,1,0,0:0:0:0:
81,99,136408,5,0,0:0:0:0:
68,132,136487,2,0,P|84:252|320:288,2,380
320,128,138382,2,0,B|256:96|256:96|192:128,2,142.5
444,132,139013,6,0,P|428:252|192:288,1,380
128,216,139803,1,0,0:0:0:0:
92,108,139961,1,0,0:0:0:0:
168,24,140119,1,0,0:0:0:0:
268,76,140277,6,0,P|356:72|400:76,2,95
332,172,140750,2,0,P|420:176|464:172,2,95
220,152,141224,1,0,0:0:0:0:
220,152,141382,1,0,0:0:0:0:
68,132,141540,6,0,P|84:252|320:288,2,380
256,112,143434,2,0,B|240:144|256:184|256:184|272:224|256:260,2,142.5
256,192,144066,12,0,145013,0:0:0:0:
256,76,145329,5,2,0:0:0:0:
452,192,145645,1,2,0:0:0:0:
256,308,145961,5,8,0:0:0:0:
60,192,146277,1,4,0:0:0:0:
148,44,146592,6,0,B|199:43|215:91|215:91|199:155|255:179|255:179|311:155|295:91|295:91|311:43|351:43,2,380
156,192,148487,2,0,B|174:242|162:292|162:292|252:280|332:292|332:292|328:244|352:188,1,380
372,72,149908,6,0,P|424:104|472:104,2,95
140,72,150540,2,0,P|88:104|40:104,2,95
256,36,151171,1,0,0:0:0:0:
256,36,151250,1,0,0:0:0:0:
256,36,151329,2,0,L|256:140,1,95
376,196,151645,6,0,P|448:240|320:348,1,285
158,364,152277,2,0,P|64:240|136:196,1,285
256,140,152908,2,0,P|312:76|232:48,1,190
256,384,153540,6,0,L|256:280,2,95
256,208,154171,5,0,0:0:0:0:
256,192,154487,1,0,0:0:0:0:
256,176,154803,1,0,0:0:0:0:
256,160,155119,1,0,0:0:0:0:
324,112,155434,6,0,L|368:72,2,47.5
188,112,155750,2,0,L|144:72,2,47.5
256,92,156066,2,0,L|256:44,6,47.5
392,152,156698,6,8,P|328:208|256:224,1,123.499994346619,12|8,0:0|0:0,0:0:0:0:
120,152,157013,2,8,P|184:208|256:224,1,123.499994346619
397,205,157329,2,8,P|316:233|244:221,1,123.499994346619,0|0,0:0|0:0,0:0:0:0:
114,205,157645,2,8,P|195:233|267:221,1,123.499994346619,0|0,0:0|0:0,0:0:0:0:
381,257,157961,6,8,P|296:253|233:215,1,123.499994346619,0|0,0:0|0:0,0:0:0:0:
130,257,158277,2,8,P|215:253|278:215,1,123.499994346619,0|0,0:0|0:0,0:0:0:0:
347,299,158592,2,2,P|270:264|226:205,1,123.499994346619,0|0,0:0|0:0,0:0:0:0:
164,299,158908,2,2,P|241:264|285:205,1,123.499994346619,0|0,0:0|0:0,0:0:0:0:
140,160,159224,5,4,0:0:0:0:
244,56,159382,1,0,0:0:0:0:
244,205,159540,1,0,0:0:0:0:
348,101,159698,1,0,0:0:0:0:
496,101,159856,5,12,0:0:0:0:
391,205,160013,1,8,0:0:0:0:
286,160,160171,1,8,0:0:0:0:
391,56,160329,1,8,0:0:0:0:
176,60,160487,5,6,0:0:0:0:
144,232,160645,1,2,0:0:0:0:
80,72,160803,5,2,0:0:0:0:
228,160,160961,1,2,0:0:0:0:
320,308,161119,5,6,0:0:0:0:
356,140,161277,1,4,0:0:0:0:
192,192,161434,5,2,0:0:0:0:
304,356,161592,1,4,0:0:0:0:
472,308,161750,6,0,P|464:224|432:168,1,123.499994346619,4|0,0:0|0:0,0:0:0:0:
499,167,162066,2,8,P|446:102|388:73,1,123.499994346619
40,76,162382,6,0,P|48:160|80:216,1,123.499994346619
12,216,162698,2,8,P|65:281|123:310,1,123.499994346619
491,125,163013,6,0,P|427:70|365:52,1,123.499994346619,4|0,0:0|0:0,0:0:0:0:
414,4,163329,2,8,P|330:-4|269:14,1,123.499994346619
20,258,163645,6,0,P|84:313|146:331,1,123.499994346619
97,379,163961,2,8,P|181:388|242:369,1,123.499994346619
364,252,164277,5,4,0:0:0:0:
296,88,164434,1,0,0:0:0:0:
292,276,164592,1,0,0:0:0:0:
364,116,164750,1,0,0:0:0:0:
148,252,164908,5,4,0:0:0:0:
216,88,165066,1,0,0:0:0:0:
220,276,165224,1,0,0:0:0:0:
148,116,165382,1,0,0:0:0:0:
256,192,165540,12,0,166487,0:0:0:0:
116,88,166803,6,0,P|220:80|244:88,1,123.499994346619,4|0,0:0|0:0,0:0:0:0:
396,88,167119,2,8,P|292:80|268:88,1,123.499994346619
116,172,167434,2,0,P|220:164|244:172,1,123.499994346619
396,172,167750,2,8,P|292:164|268:172,1,123.499994346619
192,248,168066,5,4,0:0:0:0:
320,324,168224,1,0,0:0:0:0:
192,324,168382,1,0,0:0:0:0:
320,248,168540,1,0,0:0:0:0:
142,153,168698,5,12,0:0:0:0:
369,42,168856,1,8,0:0:0:0:
142,42,169013,1,8,0:0:0:0:
369,153,169171,1,8,0:0:0:0:
484,284,169329,6,2,P|428:316|384:368,1,123.499994346619,6|2,0:0|0:0,0:0:0:0:
28,100,169645,2,8,P|84:68|128:16,1,123.499994346619
484,100,169961,2,2,P|428:68|389:24,1,123.499994346619
28,284,170277,2,8,P|84:316|122:359,1,123.499994346619
316,248,170592,5,4,0:0:0:0:
196,248,170750,1,0,0:0:0:0:
379,136,170908,1,0,0:0:0:0:
132,136,171066,1,0,0:0:0:0:
256,64,171224,2,2,B|264:72|264:72|248:80|248:80|264:88|264:88|248:96|248:96|264:104|264:104|248:112|248:112|264:120|264:120|248:128|248:128|264:136|264:136|248:144|248:144|264:152|264:152|248:160|248:160|264:168|264:168|248:176|248:176|264:184|264:184|248:192|248:192|264:200,1,246.999988693238
380,64,171856,5,4,0:0:0:0:
392,76,171934,1,0,0:0:0:0:
400,92,172013,1,0,0:0:0:0:
132,320,172171,1,0,0:0:0:0:
120,308,172250,1,0,0:0:0:0:
112,292,172329,1,0,0:0:0:0:
324,192,172487,6,8,L|389:197,2,61.7499971733095
188,192,172803,2,8,L|122:186,2,61.7499971733095
384,316,173119,5,4,0:0:0:0:
372,328,173198,1,0,0:0:0:0:
356,336,173277,1,0,0:0:0:0:
128,68,173434,1,0,0:0:0:0:
140,56,173513,1,0,0:0:0:0:
156,48,173592,1,0,0:0:0:0:
256,260,173750,6,0,L|250:325,2,61.7499971733095
256,124,174066,2,0,L|261:58,2,61.7499971733095
424,72,174382,5,14,0:0:0:0:
88,72,174540,1,10,0:0:0:0:
424,192,174698,1,10,0:0:0:0:
88,192,174856,1,10,0:0:0:0:
424,312,175013,5,14,0:0:0:0:
88,312,175171,1,10,0:0:0:0:
424,192,175329,1,10,0:0:0:0:
88,192,175487,1,10,0:0:0:0:
304,64,175645,5,8,0:0:0:0:
344,308,175803,1,8,0:0:0:0:
440,80,175961,5,4,0:0:0:0:
228,204,176119,1,4,0:0:0:0:
256,192,176277,12,4,176908,0:0:0:0:
