osu file format v14

[General]
AudioFilename: Usatei.mp3
AudioLeadIn: 0
PreviewTime: 156698
Countdown: 0
SampleSet: Normal
StackLeniency: 0.5
Mode: 0
LetterboxInBreaks: 1
WidescreenStoryboard: 0

[Editor]
Bookmarks: 25329,35434,53119,57540,75856,90856,96698,116277,136487,156698,176277
DistanceSpacing: 0.6
BeatDivisor: 4
GridSize: 4
TimelineZoom: 1

[Metadata]
Title:Usatei 2011
TitleUnicode:Usatei 2011
Artist:IOSYS
ArtistUnicode:IOSYS
Creator:InC0nceNtrateD
Version:Light Insane
Source:Touhou
Tags:Toho Remake Tewi Carrot Starzd Nwolf kagome cool&create
BeatmapID:272980
BeatmapSetID:98271

[Difficulty]
HPDrainRate:5
CircleSize:4
OverallDifficulty:8
ApproachRate:9
SliderMultiplier:1.99999990463257
SliderTickRate:2

[Events]
//Background and Video events
0,0,"TewiBG.JPG",0,0
//Break Periods
2,25329,34834
2,98592,105571
//Storyboard Layer 0 (Background)
//Storyboard Layer 1 (Fail)
//Storyboard Layer 2 (Pass)
//Storyboard Layer 3 (Foreground)
Sprite,Foreground,Centre,"Warning.png",320,240 S,0,53119,,0.3425456 F,0,53119,53145,0.9447272,0.9476363 M,0,53119,53750,476,115,486,115 F,0,53145,53171,0.9476363 F,0,53171,53198,0.9476363 F,0,53198,53224,0.9476363 F,0,53224,53250,0.9476363 F,0,53250,53277,0.9476363 F,0,53277,53303,0.9476363 F,0,53303,53329,0.9476363 F,0,53329,53356,0.9476363 F,0,53356,53382,0.9476363 F,0,53382,53408,0.9476363 F,0,53408,53434,0.9476363 F,0,53434,53461,0.9476363 F,0,53461,53487,0.9476363 F,0,53487,53513,0.9476363 F,0,53513,53540,0.9476363 F,0,53540,53566,0.9476363 F,0,53566,53592,0.9476363 F,0,53592,53619,0.9476363 F,0,53619,53645,0.9476363 F,0,53645,53671,0.9476363 F,0,53671,53698,0.9476363 F,0,53698,53724,0.9476363 F,0,53724,53750,0.9476363 F,0,53750,53777,0.9476363 F,0,53777,53803,0.9476363 F,0,53803,53829,0.9476363 F,0,53829,53856,0.9476363 F,0,53856,53882,0.9476363 F,0,53882,53908,0.9476363 F,0,53908,53934,0.9476363 F,0,53934,53961,0.9476363 F,0,53961,53987,0.9476363 F,0,53987,54013,0.9476363 F,0,54013,54040,0.9476363 F,0,54040,54066,0.9476363 F,0,54066,54092,0.9476363 F,0,54092,54119,0.9476363 F,0,54119,54145,0.9476363 F,0,54145,54171,0.9476363 F,0,54171,54198,0.9476363 F,0,54198,54224,0.9476363 F,0,54224,54250,0.9476363 F,0,54250,54277,0.9476363 F,0,54277,54303,0.9476363 F,0,54303,54329,0.9476363 F,0,54329,54356,0.9476363 F,0,54356,54382,0.9476363 F,0,54382,54408,0.9476363 F,0,54408,54434,0.9476363 F,0,54434,54461,0.9476363 F,0,54461,54487,0.9476363 F,0,54487,54513,0.9476363 F,0,54513,54540,0.9476363 F,0,54540,54566,0.9476363 F,0,54566,54592,0.9476363 F,0,54592,54619,0.9476363 F,0,54619,54645,0.9476363 F,0,54645,54671,0.9476363 F,0,54671,54698,0.9476363 F,0,54698,54724,0.9476363 F,0,54724,54750,0.9476363 F,0,54750,54777,0.9476363 F,0,54777,54803,0.9476363 F,0,54803,54829,0.9476363 F,0,54829,54856,0.9476363 F,0,54856,54882,0.9476363 F,0,54882,54908,0.9476363 F,0,54908,54934,0.9476363 F,0,54934,54961,0.9476363 F,0,54961,54987,0.9476363 F,0,54987,55013,0.9476363 F,0,55013,55040,0.9476363 F,0,55040,55066,0.9476363 F,0,55066,55092,0.9476363 F,0,55092,55119,0.9476363 F,0,55119,55145,0.9476363 F,0,55145,55171,0.9476363 F,0,55171,55198,0.9476363 F,0,55198,55224,0.9476363 F,0,55224,55250,0.9476363 F,0,55250,55277,0.9476363 F,0,55277,55303,0.9476363 F,0,55303,55329,0.9476363 F,0,55329,55356,0.9476363 F,0,55356,55382,0.9476363 F,0,55382,55408,0.9476363 F,0,55408,55434,0.9476363 F,0,55434,55461,0.9476363 F,0,55461,55487,0.9476363 F,0,55487,55513,0.9476363 F,0,55513,55540,0.9476363 F,0,55540,55566,0.9476363 F,0,55566,55592,0.9476363 F,0,55592,55619,0.9476363 F,0,55619,55645,0.9476363,0.9447272
Sprite,Foreground,Centre,"Warnung.png",320,240 S,0,53750,,0.4181818 M,1,53750,54066,300,112
Sprite,Foreground,Centre,"Warnung.png",320,240 S,0,54382,,0.4181818 M,1,54382,54698,300,112
Sprite,Foreground,Centre,"Warnung.png",320,240 M,0,155434,,296,249 S,0,155434,,0.5287271 F,0,155434,155750,1
Sprite,Foreground,Centre,"Warnung.png",320,240 S,0,55013,,0.4181818 M,1,55013,55329,300,112
Sprite,Foreground,Centre,"Warnung.png",320,240 M,0,156066,,296,249 S,0,156066,,0.5287271 F,0,156066,156382,1
Sprite,Foreground,Centre,"Warning.png",320,240 S,0,155434,,0.4298181 F,0,155434,155750,1 M,0,155461,156040,59,250,60,250 M,0,156040,156383,60,250,477,248
Sprite,Foreground,Centre,"Warning.png",320,240 S,0,53119,,0.3425456 F,0,53119,53145,0.9447272,0.9476363 M,0,53119,53750,127,112,116,112 F,0,53145,53171,0.9476363 F,0,53171,53198,0.9476363 F,0,53198,53224,0.9476363 F,0,53224,53250,0.9476363 F,0,53250,53277,0.9476363 F,0,53277,53303,0.9476363 F,0,53303,53329,0.9476363 F,0,53329,53356,0.9476363 F,0,53356,53382,0.9476363 F,0,53382,53408,0.9476363 F,0,53408,53434,0.9476363 F,0,53434,53461,0.9476363 F,0,53461,53487,0.9476363 F,0,53487,53513,0.9476363 F,0,53513,53540,0.9476363 F,0,53540,53566,0.9476363 F,0,53566,53592,0.9476363 F,0,53592,53619,0.9476363 F,0,53619,53645,0.9476363 F,0,53645,53671,0.9476363 F,0,53671,53698,0.9476363 F,0,53698,53724,0.9476363 F,0,53724,53750,0.9476363 F,0,53750,53777,0.9476363 F,0,53777,53803,0.9476363 F,0,53803,53829,0.9476363 F,0,53829,53856,0.9476363 F,0,53856,53882,0.9476363 F,0,53882,53908,0.9476363 F,0,53908,53934,0.9476363 F,0,53934,53961,0.9476363 F,0,53961,53987,0.9476363 F,0,53987,54013,0.9476363 F,0,54013,54040,0.9476363 F,0,54040,54066,0.9476363 F,0,54066,54092,0.9476363 F,0,54092,54119,0.9476363 F,0,54119,54145,0.9476363 F,0,54145,54171,0.9476363 F,0,54171,54198,0.9476363 F,0,54198,54224,0.9476363 F,0,54224,54250,0.9476363 F,0,54250,54277,0.9476363 F,0,54277,54303,0.9476363 F,0,54303,54329,0.9476363 F,0,54329,54356,0.9476363 F,0,54356,54382,0.9476363 F,0,54382,54408,0.9476363 F,0,54408,54434,0.9476363 F,0,54434,54461,0.9476363 F,0,54461,54487,0.9476363 F,0,54487,54513,0.9476363 F,0,54513,54540,0.9476363 F,0,54540,54566,0.9476363 F,0,54566,54592,0.9476363 F,0,54592,54619,0.9476363 F,0,54619,54645,0.9476363 F,0,54645,54671,0.9476363 F,0,54671,54698,0.9476363 F,0,54698,54724,0.9476363 F,0,54724,54750,0.9476363 F,0,54750,54777,0.9476363 F,0,54777,54803,0.9476363 F,0,54803,54829,0.9476363 F,0,54829,54856,0.9476363 F,0,54856,54882,0.9476363 F,0,54882,54908,0.9476363 F,0,54908,54934,0.9476363 F,0,54934,54961,0.9476363 F,0,54961,54987,0.9476363 F,0,54987,55013,0.9476363 F,0,55013,55040,0.9476363 F,0,55040,55066,0.9476363 F,0,55066,55092,0.9476363 F,0,55092,55119,0.9476363 F,0,55119,55145,0.9476363 F,0,55145,55171,0.9476363 F,0,55171,55198,0.9476363 F,0,55198,55224,0.9476363 F,0,55224,55250,0.9476363 F,0,55250,55277,0.9476363 F,0,55277,55303,0.9476363 F,0,55303,55329,0.9476363 F,0,55329,55356,0.9476363 F,0,55356,55382,0.9476363 F,0,55382,55408,0.9476363 F,0,55408,55434,0.9476363 F,0,55434,55461,0.9476363 F,0,55461,55487,0.9476363 F,0,55487,55513,0.9476363 F,0,55513,55540,0.9476363 F,0,55540,55566,0.9476363 F,0,55566,55592,0.9476363 F,0,55592,55619,0.9476363 F,0,55619,55645,0.9476363,0.9447272
Sprite,Foreground,Centre,"Unrankable.png",320,240 M,0,176908,,282,327 F,0,176908,177382,0,1 F,0,177382,183224,1 F,0,183224,183540,1,0
//Storyboard Sound Samples

[TimingPoints]
3856,315.789473684211,4,1,0,60,1,0
5119,-76.9230769230769,4,1,0,60,0,0
53119,-90.9090909090909,4,1,0,60,0,0
53750,-83.3333333333333,4,1,0,60,0,0
54382,-76.9230769230769,4,1,0,60,0,0
55013,-71.4285714285714,4,1,0,60,0,0
55645,-66.6666666666667,4,1,0,60,0,1
61961,-100,4,1,0,60,0,1
63224,-66.6666666666667,4,1,0,60,0,1
75856,-66.6666666666667,4,1,0,60,0,1
80277,-100,4,1,0,60,0,1
80908,-66.6666666666667,4,1,0,60,0,1
96066,-100,4,1,0,60,0,1
96382,-76.9230769230769,4,1,0,60,0,0
127645,-100,4,1,0,60,0,0
131434,-76.9230769230769,4,1,0,60,0,0
156698,-66.6666666666667,4,1,0,60,0,1
166803,-100,4,1,0,60,0,1
168698,-66.6666666666667,4,1,0,60,0,1
174382,-50,4,1,0,60,0,1
176277,-200,4,1,0,60,0,0
176592,-100,4,1,0,5,0,0

[Colours]
Combo1 : 255,55,61
Combo2 : 232,208,77
Combo3 : 249,106,245
Combo4 : 226,146,24

[HitObjects]
96,116,3698,6,0,L|140:84,2,49.9999976158142,0|0|0,0:0|0:0|0:0,2:0:0:0:
204,204,4013,2,0,L|223:153,2,49.9999976158142,0|0|0,0:0|0:0|0:0,2:0:0:0:
340,236,4329,2,0,L|328:182,2,49.9999976158142,0|0|0,0:0|0:0|0:0,2:0:0:0:
476,200,4645,2,0,L|437:161,2,49.9999976158142,0|0|0,0:0|0:0|0:0,2:0:0:0:
484,60,4961,1,0,2:0:0:0:
344,44,5119,6,0,P|248:36|196:48,1,129.99998785019,4|0,0:0|0:0,0:0:0:0:
168,340,5434,2,8,P|264:348|316:336,1,129.99998785019,8|8,0:0|0:0,0:0:0:0:
476,200,5750,2,0,P|384:180|332:192,1,129.99998785019
228,228,6066,2,8,P|136:248|84:236,1,129.99998785019,8|8,0:0|0:0,0:0:0:0:
20,140,6382,2,0,P|112:120|164:132,1,129.99998785019
268,168,6698,2,8,P|360:188|412:176,1,129.99998785019
472,80,7013,2,2,P|392:44|344:40,2,129.99998785019
372,320,7645,6,0,P|264:324|228:316,1,129.99998785019,4|0,0:0|0:0,0:0:0:0:
120,276,7961,2,8,P|27:220|1:194,1,129.99998785019
16,76,8277,2,0,P|31:90|124:146,1,129.99998785019
247,190,8592,2,8,P|267:194|375:190,1,129.99998785019
496,144,8908,5,0,0:0:0:0:
404,52,9066,1,0,0:0:0:0:
273,52,9224,1,8,0:0:0:0:
181,143,9382,1,8,0:0:0:0:
181,273,9540,2,2,P|360:328|432:304,1,259.99997570038,4|4,0:0|0:0,0:0:0:0:
181,143,10171,6,0,B|148:156|148:192|148:192|148:240|88:244,2,129.99998785019,4|8|8,0:0|0:0|0:0,0:0:0:0:
273,52,10645,1,8,0:0:0:0:
364,144,10803,2,0,B|397:157|397:193|397:193|397:241|457:245,2,129.99998785019,0|8|8,0:0|0:0|0:0,0:0:0:0:
273,52,11277,1,0,0:0:0:0:
148,76,11434,2,2,B|113:68|93:99|93:99|67:139|14:110,2,129.99998785019,0|0|0,0:0|0:0|0:0,0:0:0:0:
400,76,11908,2,2,B|434:68|454:99|454:99|480:139|533:110,2,129.99998785019,0|0|0,0:0|0:0|0:0,0:0:0:0:
273,52,12382,1,0,0:0:0:0:
148,76,12540,1,0,0:0:0:0:
56,167,12698,6,0,P|80:248|128:296,1,129.99998785019,4|0,0:0|0:0,0:0:0:0:
236,316,13013,2,8,P|317:292|365:244,1,129.99998785019
296,79,13329,2,0,P|215:103|167:151,1,129.99998785019,4|0,0:0|0:0,0:0:0:0:
236,316,13645,2,8,P|317:292|365:244,1,129.99998785019
400,140,13961,6,2,P|448:72|505:38,2,129.99998785019,6|2|2,0:0|0:0|0:0,0:0:0:0:
350,263,14434,1,0,0:0:0:0:
236,316,14592,2,0,P|152:320|100:292,1,129.99998785019,4|0,0:0|0:0,0:0:0:0:
36,192,14908,1,8,0:0:0:0:
256,52,15224,6,0,B|296:44|296:44|308:100|388:68,2,129.99998785019,4|0|8,0:0|0:0|0:0,0:0:0:0:
132,96,15698,1,8,0:0:0:0:
36,192,15856,2,0,P|65:279|128:327,1,129.99998785019
208,360,16171,2,8,P|300:368|360:352,1,129.99998785019
448,296,16487,5,0,0:0:0:0:
336,224,16645,1,0,0:0:0:0:
448,160,16803,1,8,0:0:0:0:
336,96,16961,1,8,0:0:0:0:
216,40,17119,2,2,P|128:40|128:192,1,259.99997570038
336,96,17750,5,4,0:0:0:0:
336,224,17908,1,0,0:0:0:0:
448,160,18066,1,8,0:0:0:0:
448,296,18224,1,8,0:0:0:0:
328,344,18382,2,0,P|240:352|184:336,1,129.99998785019
96,256,18698,2,8,P|144:248|223:257,1,129.99998785019
328,344,19013,2,0,P|376:352|455:342,1,129.99998785019
504,224,19329,1,8,0:0:0:0:
504,96,19487,1,8,0:0:0:0:
384,40,19645,6,2,B|344:64|344:64|264:40|176:64|176:64|144:32,1,259.99997570038
348,208,20277,6,0,P|420:232|476:240,1,129.99998785019,4|0,0:0|0:0,0:0:0:0:
164,176,20592,2,8,P|92:152|36:144,1,129.99998785019
300,276,20908,2,0,P|347:335|389:372,1,129.99998785019
212,108,21224,2,8,P|164:48|122:11,1,129.99998785019
212,276,21540,6,0,P|164:335|122:372,1,129.99998785019
300,108,21856,2,8,P|347:48|389:11,1,129.99998785019
164,208,22171,2,2,P|92:232|36:240,1,129.99998785019
348,176,22487,2,2,P|420:152|476:144,1,129.99998785019
256,192,22803,12,4,24698,0:0:0:0:
220,64,35434,6,0,B|188:72|188:120|188:120|188:176|148:180,1,129.99998785019,4|0,0:0|0:0,0:0:0:0:
74,266,35750,1,8,0:0:0:0:
165,357,35908,1,8,0:0:0:0:
256,265,36066,1,0,0:0:0:0:
256,265,36224,1,0,0:0:0:0:
347,356,36382,1,2,0:0:0:0:
438,264,36540,1,2,0:0:0:0:
346,172,36698,6,0,B|325:174|325:118|325:118|325:70|293:62,1,129.99998785019
166,172,37013,2,0,B|186:174|186:118|186:118|186:70|218:62,1,129.99998785019
336,260,37329,2,2,P|254:343|175:258,1,259.99997570038,2|0,0:0|0:0,0:0:0:0:
438,264,37961,5,4,0:0:0:0:
438,264,38119,1,0,0:0:0:0:
484,140,38277,2,8,L|376:56,1,129.99998785019
256,28,38592,1,0,0:0:0:0:
256,28,38750,1,0,0:0:0:0:
328,180,38908,6,2,L|288:328,1,129.99998785019
217,305,39224,2,0,L|184:180,1,129.99998785019
130,60,39540,2,0,P|80:96|60:168,1,129.99998785019
52,288,39856,2,2,P|136:328|204:196,1,259.99997570038,2|0,0:0|0:0,0:0:0:0:
240,116,40487,6,0,P|312:156|336:216,1,129.99998785019,4|0,0:0|0:0,0:0:0:0:
276,268,40803,2,8,P|204:228|180:168,1,129.99998785019
184,56,41119,2,0,P|260:40|328:64,1,129.99998785019
328,328,41434,2,2,P|252:344|184:320,1,129.99998785019
92,264,41750,5,8,0:0:0:0:
92,133,41908,1,8,0:0:0:0:
222,133,42066,1,2,0:0:0:0:
222,263,42224,1,2,0:0:0:0:
92,264,42382,2,2,P|92:132|196:52,1,259.99997570038,2|0,0:0|0:0,0:0:0:0:
320,264,43013,6,0,B|376:264|376:264|396:300|448:300,1,129.99998785019,4|0,0:0|0:0,0:0:0:0:
222,263,43329,2,8,L|86:263,1,129.99998785019
320,184,43645,2,0,B|405:184|420:184|448:224,1,129.99998785019
222,183,43961,2,2,L|86:183,1,129.99998785019
48,60,44277,5,8,0:0:0:0:
172,32,44434,1,8,0:0:0:0:
302,32,44592,1,8,0:0:0:0:
428,64,44750,1,8,0:0:0:0:
450,184,44908,2,2,L|320:184,1,129.99998785019
92,183,45224,2,2,L|222:183,1,129.99998785019
256,192,45540,12,4,46803,0:0:0:0:
256,192,47434,5,2,0:0:0:0:
256,192,48066,12,4,49329,0:0:0:0:
256,192,49961,5,2,0:0:0:0:
256,192,50592,12,4,51856,0:0:0:0:
256,192,52487,5,2,0:0:0:0:
104,136,53119,6,0,L|64:244,1,109.999998111725,4|0,0:0|0:0,0:0:0:0:
104,248,53434,2,0,L|64:140,1,109.999998111725
184,112,53750,6,0,L|116:222,1,119.999990615845,4|0,0:0|0:0,2:0:0:0:
184,277,54066,2,0,L|116:166,1,119.999990615845,0|0,0:0|0:0,2:0:0:0:
220,88,54382,6,0,L|128:188,1,129.99998785019,4|0,0:0|0:0,2:0:0:0:
220,303,54698,2,0,L|128:202,1,129.99998785019,0|0,0:0|0:0,2:0:0:0:
176,72,55013,6,0,L|288:155,1,139.999989051819,4|0,0:0|0:0,2:0:0:0:
288,245,55329,2,0,L|176:329,1,139.999989051819,0|0,0:0|0:0,2:0:0:0:
32,280,55645,6,2,B|96:219|56:143|56:143|88:67|192:71,1,299.999997138977,4|0,0:0|0:0,0:0:0:0:
326,70,56119,2,2,B|413:66|445:142|445:142|405:218|469:279,1,299.999997138977,0|0,0:0|0:0,0:0:0:0:
328,332,56592,2,0,P|248:348|176:324,1,149.999998569489
176,176,56908,6,8,B|132:177|116:139|116:139|136:101|104:71,2,149.999998569489
256,248,57382,1,0,0:0:0:0:
336,176,57540,2,2,B|379:177|395:139|395:139|375:101|407:71,2,149.999998569489
256,248,58013,1,0,0:0:0:0:
132,336,58171,6,2,B|84:304|96:244|96:244|156:240|168:172|168:172|184:96|208:96,1,299.999997138977,4|0,0:0|0:0,0:0:0:0:
311,97,58645,2,2,B|328:96|344:172|344:172|356:240|416:244|416:244|428:304|380:336,1,299.999997138977
256,248,59119,1,0,0:0:0:0:
256,136,59277,1,0,0:0:0:0:
256,16,59434,6,2,L|416:48,1,149.999998569489,4|0,0:0|0:0,0:0:0:0:
488,136,59750,2,2,L|340:106,1,149.999998569489,4|0,0:0|0:0,0:0:0:0:
256,16,60066,2,2,L|96:48,1,149.999998569489,4|0,0:0|0:0,0:0:0:0:
24,136,60382,2,2,L|171:106,1,149.999998569489,4|0,0:0|0:0,0:0:0:0:
296,56,60698,6,2,B|332:0|432:36|410:117|362:145|362:145|320:172|296:184|286:221,1,299.999997138977,4|0,0:0|0:0,0:0:0:0:
215,197,61171,2,2,B|216:184|192:172|149:145|149:145|101:117|80:36|180:0|216:56,1,299.999997138977
296,197,61645,1,0,0:0:0:0:
215,197,61803,1,0,0:0:0:0:
100,236,61961,6,0,L|64:276,2,49.9999976158143,8|0|0,0:0|0:0|0:0,0:0:0:0:
192,292,62277,2,0,L|164:338,2,49.9999976158143,8|0|0,0:0|0:0|0:0,0:0:0:0:
320,292,62592,2,0,L|347:338,2,49.9999976158143,8|0|0,0:0|0:0|0:0,0:0:0:0:
412,236,62908,2,0,L|448:276,2,49.9999976158143,8|0|0,0:0|0:0|0:0,0:0:0:0:
444,136,63224,6,2,B|452:36|372:24|372:24|356:144|272:96,1,299.999997138977,4|0,0:0|0:0,0:0:0:0:
68,136,63698,2,2,B|60:36|140:24|140:24|156:144|240:96,1,299.999997138977
352,192,64171,1,0,0:0:0:0:
160,192,64329,1,0,0:0:0:0:
12,224,64487,6,0,P|80:296|144:304,1,149.999998569489,4|0,0:0|0:0,0:0:0:0:
277,305,64803,2,0,P|323:295|391:223,1,149.999998569489,4|0,0:0|0:0,0:0:0:0:
392,140,65119,2,0,P|324:68|260:60,1,149.999998569489,4|0,0:0|0:0,0:0:0:0:
127,59,65434,2,0,P|80:68|12:140,1,149.999998569489,4|0,0:0|0:0,0:0:0:0:
12,224,65750,6,2,B|68:228|112:268|112:268|176:328|268:284|236:212,1,299.999997138977,4|0,0:0|0:0,0:0:0:0:
500,160,66224,2,2,B|444:156|400:116|400:116|336:56|244:100|276:172,1,299.999997138977
376,272,66698,2,0,P|348:360|280:368,1,149.999998569489
119,372,67013,2,8,P|71:359|43:271,1,149.999998569489
42,89,67329,2,8,P|55:41|143:13,1,149.999998569489
324,12,67645,2,8,P|372:25|400:113,1,149.999998569489
248,192,67961,1,4,0:0:0:0:
248,192,68119,1,4,0:0:0:0:
76,136,68277,6,2,B|136:56|224:88|224:88|256:164|348:144,1,299.999997138977,4|0,0:0|0:0,0:0:0:0:
436,248,68750,2,2,B|376:328|288:296|288:296|256:220|164:240,1,299.999997138977
31,236,69224,1,0,0:0:0:0:
31,236,69382,1,0,0:0:0:0:
76,136,69540,6,0,P|160:120|232:132,1,149.999998569489,4|0,0:0|0:0,0:0:0:0:
436,248,69856,2,0,P|352:264|280:252,1,149.999998569489,4|0,0:0|0:0,0:0:0:0:
135,46,70171,2,0,P|214:79|268:128,1,149.999998569489,4|0,0:0|0:0,0:0:0:0:
376,337,70487,2,0,P|297:304|243:255,1,149.999998569489,4|0,0:0|0:0,0:0:0:0:
223,129,70803,6,2,B|280:104|292:40|292:40|416:60|452:144,1,299.999997138977,4|0,0:0|0:0,0:0:0:0:
287,255,71277,2,2,B|232:280|220:344|220:344|96:324|67:255,1,299.999997138977
64,128,71750,2,0,P|104:79|183:47,1,149.999998569489
328,47,72066,2,8,P|407:79|448:128,1,149.999998569489
448,256,72382,2,8,P|407:304|328:336,1,149.999998569489
183,336,72698,2,8,P|104:304|64:256,1,149.999998569489
64,128,73013,1,8,0:0:0:0:
183,47,73171,1,0,0:0:0:0:
328,48,73329,6,2,B|280:148|392:212|392:212|388:276|328:292,1,299.999997138977,4|0,0:0|0:0,0:0:0:0:
175,289,73803,2,2,B|124:276|120:212|120:212|232:148|184:48,1,299.999997138977
64,128,74277,1,8,0:0:0:0:
64,128,74434,1,8,0:0:0:0:
200,228,74592,6,0,B|224:256|208:320|208:320|256:368|304:320|304:320|288:252|320:224,1,299.999997138977,4|4,0:0|0:0,0:0:0:0:
312,156,75224,2,0,B|288:128|304:64|304:64|256:16|208:64|208:64|224:132|192:160,1,299.999997138977,4|4,0:0|0:0,0:0:0:0:
256,344,75856,6,0,P|304:284|256:224,1,149.999998569489,4|0,0:0|0:0,0:0:0:0:
188,164,76171,2,0,P|140:104|188:44,1,149.999998569489,8|0,0:0|0:0,0:0:0:0:
280,52,76487,2,0,P|313:106|265:166,1,149.999998569489,8|0,0:0|0:0,0:0:0:0:
180,232,76803,2,0,P|146:286|194:346,1,149.999998569489,8|0,0:0|0:0,0:0:0:0:
296,320,77119,2,0,B|364:288|364:288|364:212,1,149.999998569489,4|0,0:0|0:0,0:0:0:0:
364,108,77434,2,0,B|332:40|332:40|257:40,1,149.999998569489,8|0,0:0|0:0,0:0:0:0:
152,40,77750,2,0,B|84:72|84:72|84:146,1,149.999998569489,8|0,0:0|0:0,0:0:0:0:
84,252,78066,2,0,B|116:320|116:320|190:320,1,149.999998569489,8|0,0:0|0:0,0:0:0:0:
296,320,78382,6,0,B|448:320|448:320|448:172,1,299.999997138977,4|8,0:0|0:0,0:0:0:0:
272,56,79013,2,0,B|120:56|120:56|120:204,1,299.999997138977,4|8,0:0|0:0,0:0:0:0:
296,320,79645,6,0,B|296:244|296:244|256:224|256:184,1,149.999998569489,4|0,0:0|0:0,0:0:0:0:
152,184,79961,2,0,B|152:221|112:241|112:241|112:317,1,149.999998569489,4|0,0:0|0:0,0:0:0:0:
204,264,80277,2,0,L|204:316,2,49.9999976158143,4|0|0,0:0|0:0|0:0,0:0:0:0:
204,160,80592,2,0,L|204:108,2,49.9999976158143,4|0|0,0:0|0:0|0:0,0:0:0:0:
304,192,80908,6,0,L|456:192,1,149.999998569489,4|0,0:0|0:0,0:0:0:0:
488,120,81224,1,8,0:0:0:0:
488,120,81382,1,8,0:0:0:0:
448,44,81540,2,0,L|284:44,1,149.999998569489,2|2,0:0|0:0,0:0:0:0:
192,44,81856,2,8,P|112:72|96:152,1,149.999998569489
92,233,82171,2,0,P|120:313|200:329,1,149.999998569489,4|0,0:0|0:0,0:0:0:0:
282,332,82487,2,8,P|362:304|378:224,1,149.999998569489
381,141,82803,2,2,P|353:61|273:45,1,149.999998569489
192,44,83119,1,8,0:0:0:0:
192,44,83277,1,8,0:0:0:0:
148,140,83434,6,0,B|208:132|228:184|228:184|300:184,1,149.999998569489,4|0,0:0|0:0,0:0:0:0:
277,304,83750,2,0,B|227:304|227:304|207:356|147:348,1,149.999998569489,4|0,0:0|0:0,0:0:0:0:
44,332,84066,2,0,B|32:288|32:288|80:232|44:180,1,149.999998569489,4|0,0:0|0:0,0:0:0:0:
51,191,84382,2,0,B|80:152|32:96|32:96|44:52,1,149.999998569489,4|0,0:0|0:0,0:0:0:0:
43,53,84698,2,8,B|120:28|192:44,1,149.999998569489
192,44,85013,2,8,B|263:28|339:54,1,149.999998569489
340,55,85329,2,0,B|351:97|351:97|303:153|332:192,1,149.999998569489,4|0,0:0|0:0,0:0:0:0:
332,193,85645,2,0,B|303:232|351:288|351:288|339:332,1,149.999998569489,8|0,0:0|0:0,0:0:0:0:
339,330,85961,6,0,B|208:364|128:276|128:276|236:172|104:104,1,449.999995708466,4|0,0:0|0:0,0:0:0:0:
104,104,86592,2,0,B|196:56|248:40|248:40|360:212|480:56,1,449.999995708466,8|0,0:0|0:0,0:0:0:0:
476,61,87224,2,0,B|428:168|504:240|504:240|412:380|290:283,1,449.999995708466,8|0,0:0|0:0,0:0:0:0:
291,283,87856,2,0,B|240:173|316:101|316:101|224:-38|88:69,1,449.999995708466,4|0,0:0|0:0,0:0:0:0:
103,58,88487,6,0,B|152:140|80:240|80:240|132:368|284:360,1,449.999995708466,8|0,0:0|0:0,0:0:0:0:
284,360,89119,2,0,B|436:367|488:239|488:239|416:139|464:57,1,449.999995708466,4|0,0:0|0:0,0:0:0:0:
464,58,89750,6,0,P|376:28|323:41,1,149.999998569489,4|0,0:0|0:0,0:0:0:0:
324,41,90066,2,0,P|293:129|306:181,1,149.999998569489,4|0,0:0|0:0,0:0:0:0:
307,182,90382,2,8,P|218:212|166:199,1,149.999998569489
166,200,90698,2,8,P|135:111|155:47,1,149.999998569489
324,41,91013,5,4,0:0:0:0:
324,251,91329,1,4,0:0:0:0:
113,251,91645,1,4,0:0:0:0:
113,40,91961,1,4,0:0:0:0:
472,36,92277,6,8,B|472:195|472:195|332:195,1,299.999997138977
40,192,92908,2,0,B|40:33|40:33|180:33,1,299.999997138977,4|4,0:0|0:0,0:0:0:0:
400,32,93540,6,8,B|480:32|480:32|480:112,1,149.999998569489
480,282,93856,2,8,B|480:352|480:352|400:352,1,149.999998569489
112,352,94171,2,8,B|32:352|32:352|32:282,1,149.999998569489
32,102,94487,2,8,B|32:32|32:32|112:32,1,149.999998569489
372,156,94803,6,2,B|372:86|372:86|292:86,1,149.999998569489,0|0,0:0|0:0,0:0:0:0:
292,308,95119,2,2,B|362:308|362:308|362:228,1,149.999998569489,0|0,0:0|0:0,0:0:0:0:
150,228,95434,2,2,B|150:308|150:308|220:308,1,149.999998569489,0|0,0:0|0:0,0:0:0:0:
220,86,95750,2,2,B|140:86|140:86|140:156,1,149.999998569489,0|0,0:0|0:0,0:0:0:0:
256,252,96066,6,0,B|248:248|248:248|264:248|264:248|248:244|248:244|264:244|264:244|248:240|248:240|264:240|264:240|248:236|248:236|264:236|264:236|248:232|248:232|264:232|264:232|248:228|248:228|264:228|264:228|248:224|248:224|264:224|264:224|248:220|248:220|264:220|264:220|248:216|248:216|264:216|264:216|248:212|248:212|264:212|264:212|264:116,1,399.999980926514,4|0,0:0|0:0,0:0:0:0:
12,84,106171,6,0,L|12:220,1,129.99998785019
56,296,106487,2,8,L|120:180,1,129.99998785019
196,132,106803,2,2,L|196:268,1,129.99998785019
500,300,107434,6,0,L|500:164,1,129.99998785019
456,88,107750,2,8,L|392:204,1,129.99998785019
316,252,108066,2,2,L|316:116,1,129.99998785019
228,96,108698,6,2,P|148:84|144:120,1,129.99998785019
142,109,109013,2,8,P|200:180|216:216,1,129.99998785019
215,215,109329,1,4,0:0:0:0:
284,96,109961,6,2,P|364:84|368:120,1,129.99998785019
369,109,110277,2,8,P|312:180|296:216,1,129.99998785019
296,215,110592,1,4,0:0:0:0:
144,300,111224,6,0,L|232:204,1,129.99998785019
200,116,111540,2,8,L|112:212,1,129.99998785019
20,196,111856,2,2,L|108:100,1,129.99998785019
368,84,112487,6,0,L|280:180,1,129.99998785019
312,268,112803,2,8,L|400:172,1,129.99998785019
492,188,113119,2,2,L|404:284,1,129.99998785019
144,300,113750,5,0,0:0:0:0:
144,300,114066,1,8,0:0:0:0:
144,300,114382,2,2,B|188:252|160:192|160:192|120:116|208:68,1,259.99997570038,4|4,0:0|0:0,0:0:0:0:
368,300,115013,5,0,0:0:0:0:
368,300,115329,1,8,0:0:0:0:
368,300,115645,2,2,B|324:252|352:192|352:192|392:116|304:68,1,259.99997570038,2|6,0:0|0:0,0:0:0:0:
148,156,116277,6,8,B|148:88|148:80|156:80|212:80,1,129.99998785019
292,84,116592,2,8,B|360:84|368:84|368:92|368:148,1,129.99998785019
364,228,116908,2,8,B|364:296|364:304|356:304|300:304,1,129.99998785019
220,300,117224,2,0,B|152:300|144:300|144:292|144:236,1,129.99998785019,4|0,0:0|0:0,0:0:0:0:
148,156,117540,6,0,L|148:92,2,64.9999939250949,8|0|8,0:0|0:0|0:0,0:0:0:0:
292,84,117856,2,0,L|356:84,2,64.9999939250949,8|0|8,0:0|0:0|0:0,0:0:0:0:
364,228,118171,2,0,L|364:292,2,64.9999939250949,8|0|8,0:0|0:0|0:0,0:0:0:0:
220,300,118487,2,0,L|156:300,2,64.9999939250949,4|0|0,0:0|0:0|0:0,0:0:0:0:
212,80,118803,5,8,0:0:0:0:
368,148,119119,1,8,0:0:0:0:
299,304,119434,1,8,0:0:0:0:
144,235,119750,1,8,0:0:0:0:
274,138,120066,5,2,0:0:0:0:
310,210,120382,1,2,0:0:0:0:
238,246,120698,1,2,0:0:0:0:
202,174,121013,1,2,0:0:0:0:
360,84,121329,6,0,P|392:164|368:212,1,129.99998785019
320,272,121645,2,8,P|288:192|312:144,1,129.99998785019
360,84,121961,2,0,P|439:117|456:168,2,129.99998785019,2|2|2,0:0|0:0|0:0,0:0:0:0:
302,155,122434,1,2,0:0:0:0:
244,224,122592,5,2,0:0:0:0:
176,284,122750,1,2,0:0:0:0:
172,192,122908,5,8,0:0:0:0:
86,222,123066,1,8,0:0:0:0:
172,112,123224,5,2,0:0:0:0:
80,110,123382,1,2,0:0:0:0:
230,59,123540,5,2,0:0:0:0:
147,23,123698,1,2,0:0:0:0:
56,20,123856,6,0,P|36:128|84:284,1,259.99997570038,4|8,0:0|0:0,0:0:0:0:
456,364,124487,2,0,P|476:256|428:100,1,259.99997570038,4|8,0:0|0:0,0:0:0:0:
256,96,125119,5,0,0:0:0:0:
256,96,125434,1,0,0:0:0:0:
256,96,125750,1,0,0:0:0:0:
256,96,126066,1,0,0:0:0:0:
396,212,126382,6,0,P|328:172|320:100,1,129.99998785019,4|0,0:0|0:0,0:0:0:0:
320,36,126698,2,8,P|208:32|168:44,1,129.99998785019
196,126,127013,2,2,P|184:172|116:212,1,129.99998785019
51,276,127329,1,4,0:0:0:0:
171,276,127645,6,0,L|171:336,1,49.9999976158143
221,276,127803,2,0,L|221:216,1,49.9999976158143,8|0,0:0|0:0,0:0:0:0:
271,276,127961,2,0,L|271:336,1,49.9999976158143
322,276,128119,2,0,L|322:216,1,49.9999976158143,8|0,0:0|0:0,0:0:0:0:
372,276,128277,6,0,L|372:336,1,49.9999976158143
422,276,128434,2,0,L|422:216,1,49.9999976158143,8|0,0:0|0:0,0:0:0:0:
473,276,128592,2,0,L|473:336,1,49.9999976158143
256,192,128908,12,4,130803,0:0:0:0:
152,168,131434,6,8,P|188:248|240:268,2,129.99998785019
360,168,132066,2,8,P|324:248|272:268,2,129.99998785019
88,212,132698,6,2,P|124:292|176:312,2,129.99998785019
424,212,133329,2,2,P|388:292|336:312,2,129.99998785019
256,192,133961,12,4,136171,0:0:0:0:
320,160,136487,6,0,B|288:240|352:304|352:304|256:368|160:304|160:304|224:240|192:160,2,519.99995140076,0|8|4,0:0|0:0|0:0,0:0:0:0:
160,96,138382,2,2,B|208:64|256:80|256:80|304:64|360:104,2,194.999981775285
192,160,139013,2,0,B|128:232|160:304|160:304|256:368|352:304|352:304|384:224|312:152,1,519.99995140076,4|0,0:0|0:0,0:0:0:0:
340,72,139803,2,0,P|404:132|432:180,2,129.99998785019
172,72,140434,2,0,P|108:132|80:180,2,129.99998785019
256,136,141066,1,0,0:0:0:0:
256,136,141224,1,0,0:0:0:0:
172,72,141540,6,0,B|172:172|172:172|172:284|252:284|252:284|340:284|340:172|340:172|340:60,2,519.99995140076,0|8|4,0:0|0:0|0:0,0:0:0:0:
404,64,143434,2,2,P|388:208|292:280,1,259.99997570038,8|0,0:0|0:0,0:0:0:0:
256,196,143908,1,10,0:0:0:0:
208,276,144066,2,2,P|124:208|108:64,2,259.99997570038
303,276,145013,2,2,P|388:208|404:64,2,259.99997570038
208,276,145961,5,4,0:0:0:0:
256,196,146277,1,4,0:0:0:0:
436,196,146592,6,0,B|384:160|336:224|336:224|336:320|256:320|256:320|176:320|176:224|176:224|144:160|64:192,2,519.99995140076,0|8|4,0:0|0:0|0:0,0:0:0:0:
79,187,148487,2,0,P|400:104|436:200,1,519.99995140076,0|4,0:0|0:0,0:0:0:0:
348,296,149908,6,0,B|384:284|416:308|416:308|464:292|472:248,2,129.99998785019
164,296,150540,2,0,B|128:284|96:308|96:308|48:292|40:248,2,129.99998785019
256,168,151171,2,0,B|296:204|220:272|276:312,2,129.99998785019
208,56,151645,6,2,B|188:148|76:100|76:100|40:228|164:288,1,389.99996355057
353,285,152277,2,2,B|472:228|436:100|436:100|324:148|304:56,1,389.99996355057
208,56,152908,1,4,0:0:0:0:
40,192,153540,5,4,0:0:0:0:
472,192,153856,1,0,0:0:0:0:
220,120,154171,6,0,B|164:108|152:168|192:240|192:240|236:320|224:356,1,259.99997570038,4|0,0:0|0:0,0:0:0:0:
292,120,154803,2,0,B|348:108|360:168|320:240|320:240|276:320|288:356,1,259.99997570038,4|0,0:0|0:0,0:0:0:0:
200,48,155434,6,0,B|224:32|224:32|256:52|256:52|288:32|288:32|312:52,1,129.99998785019,4|0,0:0|0:0,0:0:0:0:
372,113,155750,1,4,0:0:0:0:
372,113,155908,1,0,0:0:0:0:
436,177,156066,2,0,B|416:272|360:272|360:272|320:184|240:224,1,259.99997570038,4|0,0:0|0:0,0:0:0:0:
72,192,156698,6,0,L|224:192,1,149.999998569489
440,192,157013,2,8,L|288:192,1,149.999998569489
101,91,157329,2,0,L|229:174,1,149.999998569489
410,292,157645,2,8,L|282:209,1,149.999998569489
181,23,157961,2,2,L|242:162,1,149.999998569489
330,360,158277,2,2,L|269:221,1,149.999998569489
269,160,158592,5,10,0:0:0:0:
344,86,158750,1,8,0:0:0:0:
418,160,158908,1,8,0:0:0:0:
440,192,159224,6,0,L|288:192,1,149.999998569489,4|0,0:0|0:0,0:0:0:0:
72,192,159540,2,8,L|224:192,1,149.999998569489
410,292,159856,2,0,L|282:209,1,149.999998569489
101,91,160171,2,8,L|229:174,1,149.999998569489
330,360,160487,2,2,L|269:221,1,149.999998569489
181,23,160803,2,2,L|242:162,1,149.999998569489
242,223,161119,5,2,0:0:0:0:
168,298,161277,1,2,0:0:0:0:
94,224,161434,1,2,0:0:0:0:
240,130,161750,5,4,0:0:0:0:
303,58,161908,1,8,0:0:0:0:
397,55,162066,1,0,0:0:0:0:
467,118,162224,1,8,0:0:0:0:
471,212,162382,1,0,0:0:0:0:
407,283,162540,1,8,0:0:0:0:
312,287,162698,1,0,0:0:0:0:
243,223,162856,1,8,0:0:0:0:
240,130,163013,5,2,0:0:0:0:
177,58,163171,1,2,0:0:0:0:
83,55,163329,1,2,0:0:0:0:
13,118,163487,1,2,0:0:0:0:
9,212,163645,1,2,0:0:0:0:
73,283,163803,1,2,0:0:0:0:
168,287,163961,1,4,0:0:0:0:
256,192,164277,12,0,165382,0:0:0:0:
96,224,166803,6,0,L|72:272,2,49.9999976158143,4|0|0,0:0|0:0|0:0,0:0:0:0:
208,268,167119,2,0,L|204:328,2,49.9999976158143
328,264,167434,2,0,L|346:321,2,49.9999976158143
440,220,167750,2,0,L|464:268,2,49.9999976158143
440,99,168066,5,4,0:0:0:0:
328,55,168224,1,8,0:0:0:0:
208,51,168382,1,0,0:0:0:0:
96,95,168540,1,8,0:0:0:0:
96,224,168698,2,2,P|152:312|200:336,1,149.999998569489
349,330,169013,2,2,P|387:309|441:218,1,149.999998569489
440,99,169329,5,4,0:0:0:0:
328,55,169487,1,8,0:0:0:0:
96,95,169645,1,0,0:0:0:0:
208,51,169803,1,8,0:0:0:0:
440,99,169961,2,0,P|380:148|308:184,1,149.999998569489,0|8,0:0|0:0,0:0:0:0:
72,285,170277,2,0,P|132:236|196:202,1,149.999998569489,0|8,0:0|0:0,0:0:0:0:
256,192,170592,12,4,171540,0:0:0:0:
4,192,171856,6,0,L|4:40,1,149.999998569489,0|8,0:0|0:0,0:0:0:0:
76,192,172171,2,0,L|76:344,1,149.999998569489,0|8,0:0|0:0,0:0:0:0:
148,192,172487,2,0,L|148:40,1,149.999998569489,0|8,0:0|0:0,0:0:0:0:
220,192,172803,2,0,L|220:344,1,149.999998569489,0|8,0:0|0:0,0:0:0:0:
292,342,173119,6,0,L|292:192,1,149.999998569489,6|2,0:0|0:0,0:0:0:0:
364,42,173434,2,2,L|364:192,1,149.999998569489
436,342,173750,2,2,L|436:192,1,149.999998569489,2|2,0:0|0:0,0:0:0:0:
508,42,174066,2,2,L|508:192,1,149.999998569489
220,260,174382,6,0,P|96:228|44:180,1,199.999990463257
292,260,174698,2,8,P|416:228|468:180,1,199.999990463257
220,184,175013,2,0,P|138:85|124:15,1,199.999990463257,4|0,0:0|0:0,0:0:0:0:
292,184,175329,2,8,P|374:85|388:15,1,199.999990463257,4|0,0:0|0:0,0:0:0:0:
164,108,175645,2,0,P|136:166|204:270,1,199.999990463257,4|0,0:0|0:0,0:0:0:0:
348,108,175961,2,0,P|375:166|307:270,1,199.999990463257,4|0,0:0|0:0,0:0:0:0:
256,336,176277,6,0,L|256:136,1,199.999990463257
