osu file format v12

[General]
AudioFilename: Usatei.mp3
AudioLeadIn: 0
PreviewTime: 156698
Countdown: 0
SampleSet: Normal
StackLeniency: 0.5
Mode: 0
LetterboxInBreaks: 1
WidescreenStoryboard: 0

[Editor]
Bookmarks: 35434,49329,106171,123856,136487,154171
DistanceSpacing: 1
BeatDivisor: 2
GridSize: 4

[Metadata]
Title:Usatei 2011
TitleUnicode:Usatei 2011
Artist:IOSYS
ArtistUnicode:IOSYS
Creator:InC0nceNtrateD
Version:Easy
Source:Touhou
Tags:Toho Remake Tewi Carrot Starzd Nwolf kagome cool&create
BeatmapID:272587
BeatmapSetID:98271

[Difficulty]
HPDrainRate:3
CircleSize:3
OverallDifficulty:1
ApproachRate:3
SliderMultiplier:0.6
SliderTickRate:1

[Events]
//Background and Video events
0,0,"TewiBG.JPG",0,0
Video,0,"Usatei 2011.avi"
//Break Periods
2,25329,33994
2,96266,104731
2,136687,143889
//Storyboard Layer 0 (Background)
//Storyboard Layer 1 (Fail)
//Storyboard Layer 2 (Pass)
//Storyboard Layer 3 (Foreground)
//Storyboard Sound Samples
//Background Colour Transformations
3,100,163,162,255

[TimingPoints]
3856,315.789473684211,4,1,0,60,1,0
53119,-100,4,1,0,30,0,0
53750,-100,4,1,0,40,0,0
54382,-100,4,1,0,50,0,0
55013,-100,4,1,0,60,0,0
55645,-100,4,1,0,60,0,1
75856,-100,4,1,0,60,0,1
96066,-100,4,1,0,60,0,1
96382,-100,4,1,0,60,0,0
156698,-100,4,1,0,60,0,1
166803,-100,4,1,0,60,0,1
176277,-100,4,1,0,60,0,0

[Colours]
Combo1 : 255,55,61
Combo2 : 232,208,77
Combo3 : 249,106,245
Combo4 : 226,146,24

[HitObjects]
48,16,5119,2,0,B|88:76|164:48|164:48|236:48|264:88,1,240,4|0,0:0|0:0,0:0:0:0:
176,168,7013,1,0,0:0:0:0:
96,256,7645,2,0,B|121:292|193:292|193:292|269:264|332:316,1,240,4|0,0:0|0:0,0:0:0:0:
432,348,9540,2,0,P|476:350|507:341,2,60,4|4|4,0:0|0:0|0:0,0:0:0:0:
444,228,10803,5,0,0:0:0:0:
368,136,11434,2,0,B|316:136|316:92|256:92,1,120
140,92,12698,2,0,P|100:104|44:188,1,120,4|8,0:0|0:0,0:0:0:0:
50,281,13961,2,0,P|62:321|146:377,1,120,0|4,0:0|0:0,0:0:0:0:
239,370,15224,6,0,P|279:358|335:274,2,120,4|8|0,0:0|0:0|0:0,0:0:0:0:
220,252,17119,1,0,0:0:0:0:
204,132,17750,2,0,P|164:144|108:228,2,120,4|8|0,0:0|0:0|0:0,0:0:0:0:
220,252,19645,1,4,0:0:0:0:
330,299,20277,6,0,P|342:259|426:203,1,120,4|8,0:0|0:0,0:0:0:0:
508,156,21540,2,0,P|496:116|438:66,1,120
318,66,22803,2,0,P|260:115|248:155,1,120,4|8,0:0|0:0,0:0:0:0:
284,272,24066,2,0,B|300:300|300:300|340:312,2,60,4|4|4,0:0|0:0|0:0,0:0:0:0:
168,96,35434,6,0,B|168:112|128:136|128:136|88:160|88:192,2,120,4|0|0,0:0|0:0|0:0,0:0:0:0:
256,16,37329,1,2,0:0:0:0:
344,96,37961,2,0,B|344:112|384:136|384:136|424:160|424:192,2,120,4|0|0,0:0|0:0|0:0,0:0:0:0:
256,16,39856,1,2,0:0:0:0:
256,136,40487,6,0,B|236:184|260:204|280:224|248:264,1,120,4|0,0:0|0:0,0:0:0:0:
228,368,41750,2,2,P|272:372|292:368,2,60
128,304,43013,2,0,B|76:276|116:236|60:204,1,120,4|0,0:0|0:0,0:0:0:0:
44,88,44277,2,2,P|88:72|188:80,1,120,4|0,0:0|0:0,0:0:0:0:
276,108,45540,6,0,P|348:108|392:92,1,120,4|8,0:0|0:0,0:0:0:0:
496,156,46803,2,0,P|476:188|440:204,2,60,0|0|2,0:0|0:0|0:0,0:0:0:0:
396,87,48066,2,0,P|352:71|280:71,1,120,4|8,0:0|0:0,0:0:0:0:
172,128,49329,2,0,P|192:160|228:176,2,60,0|0|2,0:0|0:0|0:0,0:0:0:0:
256,44,50592,5,4,0:0:0:0:
340,128,51224,1,8,0:0:0:0:
424,212,51856,2,0,P|404:244|368:260,2,60,0|0|2,0:0|0:0|0:0,0:0:0:0:
416,92,53119,6,0,P|360:48|292:68,1,120,4|4,0:0|0:0,0:0:0:0:
196,52,54382,6,0,P|137:50|94:91,1,120,4|4,0:0|0:0,0:0:0:0:
120,208,55645,6,0,P|140:252|208:300,1,120,4|8,0:0|0:0,0:0:0:0:
256,192,56908,1,0,0:0:0:0:
316,295,57540,2,0,P|372:252|392:208,1,120,4|0,0:0|0:0,0:0:0:0:
420,96,58803,1,2,0:0:0:0:
308,56,59434,2,2,P|252:116|168:80,1,180
128,41,60698,6,0,B|120:72|120:72|72:84|40:144,1,120,0|8,0:0|0:0,0:0:0:0:
156,192,61961,2,0,L|224:192,2,60,0|0|2,0:0|0:0|0:0,0:0:0:0:
51,259,63224,2,0,B|72:300|120:312|120:312|128:343,1,120,0|8,0:0|0:0,0:0:0:0:
208,260,64487,2,2,B|240:248|232:224|232:224|264:200|264:200|296:224|296:224|288:248|328:264,1,180
368,300,65750,6,0,P|428:326|484:310,1,120,4|8,0:0|0:0,0:0:0:0:
432,204,67013,2,0,P|372:178|316:194,2,120
479,314,68908,1,8,0:0:0:0:
360,348,69540,2,2,B|324:376|296:356|296:356|280:332|264:356|264:356|236:376|200:340,1,180
172,292,70803,6,0,P|140:248|144:168,1,120,4|8,0:0|0:0,0:0:0:0:
136,64,72066,2,0,P|189:72|236:115,1,120,4|4,0:0|0:0,0:0:0:0:
220,236,73329,2,0,P|283:233|327:201,1,120,0|8,0:0|0:0,0:0:0:0:
380,92,74592,2,2,B|432:104|444:156|444:156|448:204|508:228,1,180
491,280,75856,6,0,P|448:320|324:340,1,180,4|0,0:0|0:0,0:0:0:0:
271,341,77119,2,0,P|154:319|111:279,1,180,4|0,0:0|0:0,0:0:0:0:
69,236,78382,2,0,P|45:136|77:136,1,180,4|0,0:0|0:0,0:0:0:0:
113,92,79645,2,0,P|213:68|213:100,1,180,4|0,0:0|0:0,0:0:0:0:
214,154,80908,6,0,P|314:178|314:146,1,180,4|0,0:0|0:0,0:0:0:0:
315,91,82171,2,0,P|316:64|416:88,1,180,4|0,0:0|0:0,0:0:0:0:
458,131,83434,2,0,B|488:172|488:216|488:216|452:264|388:264,1,180,4|0,0:0|0:0,0:0:0:0:
376,304,84698,2,2,B|340:332|312:312|312:312|296:288|280:312|280:312|252:332|216:296,1,180
176,256,85961,6,0,P|116:248|68:192,2,120
168,136,87856,2,0,P|232:84|284:84,1,120
268,200,89119,1,0,0:0:0:0:
368,264,89750,2,0,P|304:316|252:316,1,120
149,318,91013,6,0,P|91:305|50:262,1,120
148,192,92277,2,0,L|272:192,2,120
28,192,94171,1,0,0:0:0:0:
36,72,94803,2,0,P|76:29|134:16,1,120
132,136,96066,5,0,0:0:0:0:
256,88,106171,6,0,P|300:68|384:108,1,120,2|8,0:0|0:0,0:0:0:0:
430,189,107434,2,0,P|386:209|302:169,1,120,2|8,0:0|0:0,0:0:0:0:
256,88,108698,6,0,P|212:68|128:108,1,120,0|4,0:0|0:0,0:0:0:0:
82,189,109961,2,0,P|126:209|210:169,1,120,0|4,0:0|0:0,0:0:0:0:
290,199,111224,6,2,B|329:234|378:219|378:219|430:199|450:247,1,180,2|8,0:0|0:0,0:0:0:0:
448,304,112487,2,2,B|429:349|377:329|377:329|328:313|289:349,1,180,2|8,0:0|0:0,0:0:0:0:
229,348,113750,2,0,B|189:312|141:328|141:328|89:348|69:300,1,180,4|0,0:0|0:0,0:0:0:0:
71,243,115013,2,0,B|89:197|141:217|141:217|190:233|229:197,1,180,4|0,0:0|0:0,0:0:0:0:
256,144,116277,6,0,P|272:104|356:80,1,120,4|8,0:0|0:0,0:0:0:0:
460,80,117540,2,0,P|460:108|428:144,2,60
256,192,118803,12,4,120066,0:0:0:0:
256,144,121329,6,0,P|240:104|156:80,1,120,4|8,0:0|0:0,0:0:0:0:
52,80,122592,2,0,P|52:108|84:144,2,60
256,192,123856,12,4,125119,0:0:0:0:
184,96,126382,6,2,B|220:96|229:127|229:127|256:145|283:127|283:127|292:96|332:96,1,180,2|8,0:0|0:0,0:0:0:0:
373,138,127645,2,2,B|373:174|341:183|341:183|323:210|341:237|341:237|373:246|373:286,1,180,0|8,0:0|0:0,0:0:0:0:
330,327,128908,6,0,B|293:327|284:295|284:295|257:277|230:295|230:295|221:327|181:327,1,180,4|8,0:0|0:0,0:0:0:0:
141,285,130171,2,0,B|141:248|172:239|172:239|190:212|172:185|172:185|141:176|141:136,1,180,4|8,0:0|0:0,0:0:0:0:
160,80,131434,6,0,B|208:80|260:136|260:136|312:144|372:92,2,240,4|4|4,0:0|0:0|0:0,0:0:0:0:
156,200,134592,1,0,0:0:0:0:
256,192,135224,12,4,136487,0:0:0:0:
256,192,145329,12,4,146592,0:0:0:0:
255,237,147224,6,0,B|240:216|256:192|256:192|276:156|256:124,1,120,8|4,0:0|0:0,0:0:0:0:
164,48,148487,2,0,P|120:84|120:152,1,120,0|2,0:0|0:0,0:0:0:0:
164,252,149750,1,0,0:0:0:0:
272,304,150382,6,0,P|300:280|388:284,2,120,8|0|8,0:0|0:0|0:0,0:0:0:0:
152,284,152277,2,0,P|115:281|55:216,2,120
264,244,154171,6,0,P|324:292|384:292,2,120,4|8|4,0:0|0:0|0:0,0:0:0:0:
252,184,155750,2,0,P|252:152|232:124,1,60,4|4,0:0|0:0,0:0:0:0:
148,44,156698,6,0,P|91:31|43:87,2,120,4|8|0,0:0|0:0|0:0,0:0:0:0:
256,100,158592,1,8,0:0:0:0:
364,48,159224,2,0,P|421:35|469:91,2,120,4|8|0,0:0|0:0|0:0,0:0:0:0:
256,100,161119,2,0,L|256:164,1,60,4|4,0:0|0:0,0:0:0:0:
298,206,161750,6,0,P|299:232|399:208,1,180,4|8,0:0|0:0,0:0:0:0:
399,148,163013,2,2,P|416:128|328:74,1,180,2|8,0:0|0:0,0:0:0:0:
268,74,164277,2,0,P|248:56|194:144,1,180,4|8,0:0|0:0,0:0:0:0:
256,192,165540,12,4,166803,0:0:0:0:
112,104,168066,6,0,P|88:132|116:260,1,180,4|8,0:0|0:0,0:0:0:0:
176,260,169329,1,4,0:0:0:0:
276,196,169961,1,4,0:0:0:0:
368,272,170592,6,2,P|396:144|372:116,1,180,2|8,0:0|0:0,0:0:0:0:
312,112,171855,1,4,0:0:0:0:
192,112,172487,2,0,P|128:144|204:308,1,300,8|8,0:0|0:0,0:0:0:0:
252,276,174382,6,2,L|304:240,1,60
288,184,175013,2,2,L|240:136,1,60
202,98,175645,2,0,L|138:98,2,60,8|8|4,0:0|0:0|0:0,0:0:0:0:
