osu file format v8

[General]
AudioFilename: Taihen na Mono no Shoushitsu.mp3
AudioLeadIn: 0
PreviewTime: 107030
Countdown: 0
SampleSet: Normal
StackLeniency: 0.5
Mode: 0
LetterboxInBreaks: 0

[Editor]
Bookmarks: 27030,43030,59030,75030,91030,107030,123030,139030,155030,171030
DistanceSpacing: 1
BeatDivisor: 2
GridSize: 32

[Metadata]
Title:Taihen na Mono no Shoushitsu
Artist:IOSYS
Creator:DJPop
Version:Lost
Source:Nico Nico Douga
Tags:hatsune miku cosmo bousou-p fujisaku karin alice margatroid CDFA ignorethis KanaRin

[Difficulty]
HPDrainRate:4
CircleSize:5
OverallDifficulty:8
ApproachRate:8
SliderMultiplier:1.28
SliderTickRate:0.5

[Events]
//Background and Video events
0,0,"Taihen na Mono no Shoushitsu.png"
//Break Periods
//Storyboard Layer 0 (Background)
//Storyboard Layer 1 (Fail)
//Storyboard Layer 2 (Pass)
//Storyboard Layer 3 (Foreground)
//Storyboard Sound Samples
//Background Colour Transformations
3,100,0,0,0

[TimingPoints]
27030,250,4,1,2,80,1,0
59155,-100,4,1,1,80,0,0
102967,-100,4,1,2,80,0,0
106030,-100,4,2,1,80,0,0
106530,-100,4,1,1,80,0,0
122905,-100,4,1,2,80,0,0
146967,-100,4,1,2,70,0,0
147905,-66.666666666667,4,1,2,70,0,0
148905,-50,4,1,2,70,0,0
149905,-40,4,1,2,70,0,0
150905,-50,4,1,2,70,0,0
151905,-66.666666666667,4,1,2,70,0,0
152905,-100,4,1,2,70,0,0
154905,-100,4,1,2,80,0,0
175280,-10000000,4,2,1,0,0,0
175780,-100,4,2,1,0,0,0

[Colours]
Combo1 : 191,191,0
Combo2 : 0,191,0
Combo3 : 0,191,191
Combo4 : 191,0,191

[HitObjects]
16,104,27030,6,0,C|48:168,1,64,4|8
80,104,27280,2,0,C|112:168,1,64,0|8
144,104,27530,2,0,C|176:168,1,64,0|8
208,104,27780,2,0,C|240:168,1,64,0|8
272,104,28030,2,0,C|304:168,1,64,4|8
336,104,28280,2,0,C|368:168,1,64,0|8
400,104,28530,2,0,C|432:168,1,64,0|8
464,104,28780,2,0,C|496:168,1,64,0|8
496,280,29030,6,0,C|464:216,1,64,4|8
432,280,29280,2,0,C|400:216,1,64,0|8
368,280,29530,2,0,C|336:216,1,64,0|8
304,280,29780,2,0,C|272:216,1,64,0|8
240,280,30030,2,0,C|208:216,1,64,4|8
176,280,30280,2,0,C|144:216,1,64,0|8
112,280,30530,1,0
80,264,30655,1,0
64,256,30717,1,0
32,240,30811,1,8
32,96,31030,6,0,C|32:32,1,64,4|8
96,48,31280,2,0,C|96:112,1,64,0|8
160,128,31530,2,0,C|160:64,1,64,0|8
224,80,31780,2,0,C|224:144,1,64,0|8
288,160,32030,2,0,C|288:96,1,64,4|8
352,112,32280,2,0,C|352:176,1,64,0|8
416,192,32530,2,0,C|416:128,1,64,0|8
480,144,32780,2,0,C|480:208,1,64,0|8
480,352,33030,6,0,C|480:288,1,64,0|8
416,272,33280,2,0,C|416:336,1,64,0|8
352,320,33530,2,0,C|352:256,1,64,0|8
288,240,33780,2,0,C|288:304,1,64,0|8
224,288,34030,2,0,C|224:224,1,64,0|8
160,208,34280,2,0,C|160:272,1,64,0|8
96,256,34530,1,4
96,235,34623,1,0
96,213,34686,1,0
96,192,34780,1,0
32,128,34936,1,8
32,128,35030,6,0,C|32:160,2,32,4|0|8
64,64,35280,2,0,C|64:32,2,32,0|0|8
96,128,35530,2,0,C|96:160,2,32,0|0|8
128,64,35780,2,0,C|128:32,2,32,0|0|8
160,128,36030,2,0,C|160:160,2,32,0|0|8
192,64,36280,2,0,C|192:32,2,32,0|0|8
224,128,36530,2,0,C|224:160,2,32,0|0|8
256,64,36780,2,0,C|256:32,2,32,0|0|8
256,64,37030,6,0,C|256:96,2,32,0|8|8
288,160,37280,2,0,C|288:128,2,32,0|8|8
320,64,37530,2,0,C|320:96,2,32,0|8|8
352,160,37780,2,0,C|352:128,2,32,0|8|8
384,64,38030,2,0,C|384:96,2,32,0|8|8
416,160,38280,2,0,C|416:128,2,32,0|8|8
448,64,38530,2,0,C|448:96,2,32,0|8|8
480,160,38780,2,0,C|480:128,2,32,0|8|8
496,224,39030,5,0
464,256,39155,1,0
432,288,39280,1,8
400,320,39405,1,8
368,352,39530,1,0
336,320,39655,1,0
304,288,39780,1,8
272,256,39905,1,8
240,256,40030,1,8
208,288,40155,1,8
176,320,40280,1,0
144,352,40405,1,0
112,320,40530,1,8
80,288,40655,1,8
48,256,40780,1,4
16,224,40905,1,0
80,192,41030,5,0
112,160,41155,1,8
144,192,41280,1,0
176,160,41405,1,8
208,128,41530,1,0
216,112,41592,1,0
224,96,41655,1,8
256,64,41780,1,4
288,96,41905,1,8
320,64,42030,1,0
352,96,42155,1,8
384,64,42280,1,0
416,96,42405,1,8
448,128,42530,1,0
456,144,42592,1,8
464,160,42655,1,8
192,224,43030,6,0,C|128:224,2,64,12|0|0
208,272,43405,2,0,C|160:320,2,64,8|0|0
256,288,43780,2,0,C|256:352,2,64,8|0|0
304,272,44155,2,0,C|352:320,2,64,8|0|0
320,224,44530,2,0,C|384:224,2,64,0|0|8
192,160,45030,6,0,C|128:160,2,64,8|0|0
208,112,45405,2,0,C|160:64,2,64,8|0|0
256,96,45780,2,0,C|256:32,2,64,8|0|0
304,112,46155,2,0,C|352:64,2,64,8|0|0
320,160,46530,2,0,C|384:160,2,64,0|0|8
224,288,47030,6,0,C|160:288,2,64,8|0|0
256,320,47405,2,0,C|192:320,2,64,8|0|0
288,352,47780,2,0,C|224:352,2,64,8|0|0
320,320,48155,2,0,C|256:320,2,64,8|0|0
352,288,48530,2,0,C|288:288,2,64,0|0|8
320,96,49030,5,0
192,96,49280,1,8
256,208,49530,1,0
256,160,49655,1,8
256,112,49780,1,0
256,96,49842,1,8
256,80,49905,1,0
256,32,50030,2,0,C|192:96,1,64,8|0
256,32,50280,2,0,C|320:96,1,64,8|0
288,136,50530,2,0,C|224:136,3,64,8|8|8|8
176,128,51030,5,12
128,144,51155,1,0
80,160,51280,1,0
32,176,51405,1,8
80,192,51530,1,0
128,208,51655,1,0
80,224,51780,1,8
32,240,51905,1,0
80,256,52030,1,0
128,272,52155,1,8
80,288,52280,1,0
32,304,52405,1,0
80,320,52530,1,8
128,336,52655,1,8
176,352,52780,1,0
336,352,53030,5,8
384,336,53155,1,0
432,320,53280,1,0
480,304,53405,1,8
432,288,53530,1,0
384,272,53655,1,0
432,256,53780,1,8
480,240,53905,1,0
432,224,54030,1,0
384,208,54155,1,8
432,192,54280,1,0
480,176,54405,1,0
432,160,54530,1,8
384,144,54655,1,0
336,128,54780,1,8
256,32,55030,5,8
232,64,55155,1,0
208,96,55280,1,0
256,96,55405,1,8
280,128,55530,1,0
304,160,55655,1,0
256,160,55780,1,8
232,192,55905,1,0
208,224,56030,1,0
256,224,56155,1,8
280,256,56280,1,0
304,288,56405,1,0
256,288,56530,1,8
232,320,56655,1,8
208,352,56780,1,0
144,192,57030,6,8,C|112:192,23,32,4|0|0|0|0|0|0|0|4|0|0|0|0|0|0|0|4|0|0|0|4|0|0|0
96,192,58530,1,8
88,192,58592,1,8
80,192,58655,1,8
72,192,58717,1,8
64,192,58780,1,8
56,192,58842,1,8
48,192,58905,1,8
40,192,58967,1,8
32,192,59030,5,4
32,64,59280,2,0,B|80:40|112:32|123:48|136:32|168:40|216:64|216:64,1,192,2|2
280,64,59780,2,0,B|304:48|328:40|340:45|352:40|376:48|400:64|400:64,1,128,2|0
448,192,60280,1,2
480,64,60530,1,0
448,128,60655,1,2
384,160,60780,1,2
256,160,61030,6,0,C|256:288,1,128,0|2
448,320,61655,1,2
448,320,61780,1,2
320,352,62030,2,0,C|192:352,1,128,0|2
64,320,62530,1,0
64,320,62655,1,2
64,320,62780,1,2
32,192,63030,5,0
160,192,63280,2,0,B|192:240|239:258|288:240|320:192|320:192,1,192,2|2
384,192,63780,2,0,B|400:224|416:232|432:236|448:232|464:224|480:192|480:192,1,128,2|0
480,64,64280,1,2
352,64,64530,1,0
288,64,64655,1,2
224,64,64780,1,2
96,64,65030,6,0,B|20:79|32:160|32:160,1,128,0|2
32,352,65655,1,2
32,352,65780,1,2
128,256,66030,2,0,B|118:340|192:352|192:352,1,128,0|2
320,352,66530,1,0
384,352,66655,1,2
448,352,66780,1,2
480,224,67030,5,0
352,224,67280,1,2
464,160,67530,1,0
416,120,67655,1,2
368,160,67780,1,2
320,32,68030,1,0
192,32,68280,1,2
304,96,68530,1,0
256,136,68655,1,2
208,96,68780,1,2
128,192,69030,5,0
96,64,69280,1,2
64,128,69405,1,0
64,256,69655,1,2
96,320,69780,1,2
224,352,70030,1,0
224,224,70280,1,2
352,224,70530,1,0
352,288,70655,1,2
352,352,70780,1,2
480,352,71030,6,0,C|480:224,2,128,0|2|0
416,320,71655,1,2
416,256,71780,1,2
288,224,72030,2,0,C|288:352,1,128,0|2
192,256,72530,1,0
128,288,72655,1,2
96,352,72780,1,2
32,208,73030,5,0
80,88,73280,1,2
192,24,73530,1,2
192,24,73655,1,2
320,24,73905,1,2
432,88,74155,1,2
432,88,74280,1,2
480,208,74530,1,2
32,352,75030,5,4
128,256,75280,1,8
128,256,75405,2,0,L|128:352|224:352,1,192,0|8
352,352,76030,2,0,L|480:352,1,128,0|8
352,288,76530,1,0
480,288,76780,1,8
480,160,77030,6,0,L|480:32,1,128,0|8
480,32,77405,1,0
368,192,77780,2,0,B|336:224|304:256|256:251|208:256|176:224|144:192,2,256,8|8|8
384,64,79030,5,0
320,64,79155,1,0
256,64,79280,2,0,L|128:64,1,128,8|0
128,192,79780,1,8
192,192,79905,1,0
256,192,80030,2,0,L|384:192,1,128,0|8
480,272,80530,1,0
384,352,80780,1,8
320,352,80905,1,8
256,352,81030,6,0,L|128:352,1,128,0|8
64,352,81405,1,0
256,288,81780,1,8
256,160,82030,2,0,L|256:32,3,128,0|8|0|8
128,32,83030,5,4
32,128,83280,1,8
32,128,83405,2,0,L|128:128|128:224,1,192,0|8
32,320,84030,2,0,B|40:344|56:360|80:364|104:360|120:344|128:320|128:320,1,128,0|8
256,320,84530,1,0
256,320,84780,1,8
384,320,85030,6,0,B|392:344|408:360|432:364|456:360|472:344|480:320|480:320,1,128,0|8
480,256,85405,2,0,B|472:232|456:216|432:212|408:216|392:232|384:256|384:256,1,128
320,288,85780,1,8
256,192,86030,2,0,L|256:320,1,128,0|8
256,192,86530,1,0
256,64,86780,1,8
384,64,87030,6,0,B|466:53|480:128|480:128,2,128,0|8|0
256,64,87780,1,8
192,64,87905,1,0
128,64,88030,2,0,B|46:53|32:128|32:128,1,128,0|8
160,128,88530,2,0,C|288:128,1,128,0|8
352,128,88905,1,8
416,160,89030,6,0,C|416:288,1,128,0|8
304,352,89530,2,0,C|304:224,1,128,0|8
208,352,90030,2,0,C|208:224,1,128,0|8
96,160,90530,2,0,C|96:288,1,128,0|8
480,32,91280,5,12
448,160,91530,1,0
416,288,91780,1,8
416,288,91905,1,0
288,288,92155,2,0,C|240:336,2,64,0|8|0
256,160,92655,1,0
192,128,92780,1,8
224,64,92905,1,0
160,32,93030,1,0
32,32,93280,5,8
64,160,93530,1,0
96,288,93780,1,8
96,288,93905,1,0
224,288,94155,2,0,C|272:336,2,64,0|8|0
256,160,94655,1,0
320,128,94780,1,8
288,64,94905,1,0
352,32,95030,1,0
480,32,95280,5,8
480,160,95530,1,0
480,288,95780,1,8
480,352,95905,1,0
352,288,96155,2,0,C|352:352,2,64,0|8|0
352,224,96530,1,0
352,96,96780,1,8
224,32,97030,6,0,B|146:18|128:96|128:96,1,128,0|8
32,160,97530,2,0,B|114:171|128:96|128:96,1,128,0|8
32,224,98030,2,0,B|112:211|128:288|128:288,1,128,0|8
224,352,98530,2,0,B|144:365|128:288|128:288,1,128,0|8
224,192,99030,6,0,L|224:224|256:224|256:256|288:256,1,128,0|8
320,320,99405,2,0,L|352:320|352:288|384:288|384:256,1,128
448,224,99780,2,0,L|448:192|416:192|416:160|384:160,1,128,8|0
320,128,100155,2,0,C|256:128,2,64,0|8|0
384,96,100530,1,0
480,32,100780,1,8
320,32,101030,5,4
160,32,101280,2,0,L|96:32,1,64,8|8
32,80,101530,2,0,L|96:80,1,64,8|8
160,128,101780,2,0,L|96:128,1,64,8|8
32,176,102030,2,0,L|96:176,1,64,8|8
160,224,102280,1,8
32,288,102530,1,8
96,288,102655,1,8
160,288,102780,1,8
256,192,103030,6,0,C|256:160,2,32
256,352,103405,1,8
256,352,103530,1,8
128,112,104030,5,0
176,64,104155,1,8
336,64,104405,1,0
384,112,104530,1,8
256,192,104592,12,0,106280
256,352,107030,6,0,C|256:224,1,128,4|8
256,224,107405,1,0
384,96,107780,1,8
320,64,107905,1,0
256,32,108030,1,0
144,96,108280,1,8
32,160,108530,1,0
32,288,108780,1,8
96,320,108905,1,0
160,352,109030,5,0
288,320,109280,1,8
352,352,109405,1,0
480,288,109655,1,0
416,320,109780,1,8
320,224,110030,1,0
192,192,110280,1,8
320,160,110530,1,0
192,128,110780,1,8
320,96,111030,6,0,C|448:96,1,128,0|8
320,32,111530,1,0
192,32,111780,1,8
64,32,112030,2,0,C|32:160,1,128,0|8
32,227,112405,2,0,C|64:352,1,128
128,352,112780,1,12
256,352,113030,5,0
368,288,113280,1,8
480,224,113530,1,0
480,96,113780,1,8
480,32,113905,1,0
256,32,114280,1,10
256,96,114405,1,2
256,160,114530,1,2
256,288,114780,1,2
144,352,115030,6,0,B|65:384|32:320|32:320,1,128,4|8
96,288,115405,1,0
32,96,115780,1,8
96,64,115905,1,0
160,32,116030,1,0
128,160,116280,1,8
96,288,116530,1,0
208,352,116780,1,8
256,304,116905,1,0
304,352,117030,5,0
448,352,117280,1,8
480,288,117405,1,0
448,160,117655,1,0
480,224,117780,1,8
352,256,118030,1,0
352,128,118280,1,8
480,96,118530,1,0
352,64,118780,1,8
224,32,119030,6,0,B|144:19|128:96|128:96,1,128,0|8
32,32,119530,1,0
32,160,119780,1,8
32,288,120030,2,0,B|112:301|128:224|128:224,1,128,0|8
192,224,120405,2,0,C|192:352,1,128
192,352,120780,1,12
304,256,121030,5,0
304,128,121280,1,8
432,128,121530,1,10
432,128,121655,1,10
432,256,121905,1,10
432,256,122030,1,10
320,192,122280,1,4
192,192,122530,1,0
64,192,122780,1,0
32,32,123030,6,0,C|32:96,1,64,12|0
96,32,123280,2,0,C|96:96,1,64,8|0
160,32,123530,2,0,C|160:96,1,64,8|0
224,32,123780,2,0,C|224:96,1,64,8|0
288,32,124030,2,0,C|288:96,1,64,8|0
352,32,124280,2,0,C|352:96,1,64,8|0
416,32,124530,2,0,C|416:96,1,64,8|0
480,32,124780,2,0,C|480:96,1,64,8|0
448,208,125030,6,0,C|448:144,1,64,8|0
384,208,125280,2,0,C|384:144,1,64,8|0
320,208,125530,2,0,C|320:144,1,64,8|0
256,208,125780,2,0,C|256:144,1,64,8|0
192,208,126030,2,0,C|192:144,1,64,8|0
128,208,126280,2,0,C|128:144,1,64,8|0
64,208,126530,1,8
64,184,126655,1,8
64,168,126717,1,8
64,144,126811,1,0
32,256,127030,6,0,C|32:320,1,64,8|0
96,352,127280,2,0,C|96:288,1,64,8|0
160,256,127530,2,0,C|160:320,1,64,8|0
224,352,127780,2,0,C|224:288,1,64,8|0
288,256,128030,2,0,C|288:320,1,64,8|0
352,352,128280,2,0,C|352:288,1,64,8|0
416,256,128530,2,0,C|416:320,1,64,8|0
480,352,128780,2,0,C|480:288,1,64,12|0
480,160,129030,6,0,C|480:224,1,64,8|0
416,192,129280,2,0,C|416:128,1,64,8|0
352,160,129530,2,0,C|352:224,1,64,8|0
288,192,129780,2,0,C|288:128,1,64,8|0
224,160,130030,2,0,C|224:224,1,64,8|0
160,192,130280,2,0,C|160:128,1,64,8|0
96,160,130530,1,8
96,181,130623,1,8
96,203,130686,1,8
96,224,130780,1,8
32,160,130936,1,0
32,160,131030,6,0,C|16:128,2,32,12|8|0
48,112,131280,2,0,C|32:80,2,32,8|8|0
64,64,131530,2,0,C|48:32,2,32,8|8|0
112,48,131780,2,0,C|112:16,2,32,8|8|0
160,48,132030,2,0,C|160:16,2,32,8|8|0
208,64,132280,2,0,C|216:32,2,32,8|8|0
224,112,132530,2,0,C|240:80,2,32,8|8|0
240,160,132780,2,0,C|256:128,2,32,8|8|0
272,224,133030,6,0,C|256:256,2,32,8|0|0
288,272,133280,2,0,C|272:304,2,32,8|0|0
304,320,133530,2,0,C|296:352,2,32,8|0|0
352,336,133780,2,0,C|352:368,2,32,8|0|0
400,336,134030,2,0,C|400:368,2,32,8|0|0
448,320,134280,2,0,C|456:352,2,32,8|0|0
464,272,134530,2,0,C|480:304,2,32,8|0|0
480,224,134780,2,0,C|496:256,2,32,8|0|0
480,160,135030,5,8
464,112,135155,1,8
448,64,135280,1,0
400,48,135405,1,0
352,64,135530,1,8
336,112,135655,1,8
320,160,135780,1,0
277,181,135905,1,0
235,203,136030,1,0
192,224,136155,1,0
176,272,136280,1,8
160,320,136405,1,8
112,336,136530,1,0
64,320,136655,1,0
48,272,136780,1,12
32,224,136905,1,8
32,160,137030,5,12
72,144,137155,1,0
112,128,137280,1,8
152,112,137405,1,0
192,96,137530,1,8
194,88,137592,1,8
196,80,137655,1,0
236,64,137780,1,8
276,48,137905,1,0
316,32,138030,1,12
356,48,138155,1,0
396,64,138280,1,12
436,80,138405,1,0
476,96,138530,1,8
478,104,138592,1,0
480,112,138655,1,0
32,352,139030,6,0,C|64:320,2,32,4|8|8
96,352,139280,2,0,C|128:320,2,32,0|8|8
160,352,139530,2,0,C|192:320,2,32,0|8|8
224,352,139780,2,0,C|256:320,2,32,0|8|8
288,352,140030,2,0,C|320:320,2,32,4|8|8
352,352,140280,2,0,C|384:320,2,32,0|8|8
416,352,140530,2,0,C|448:320,2,32,0|8|8
480,352,140780,2,0,C|512:320,2,32,0|8|8
480,256,141030,6,0,C|448:224,2,32,4|8|8
416,256,141280,2,0,C|384:224,2,32,0|8|8
352,256,141530,2,0,C|320:224,2,32,0|8|8
288,256,141780,2,0,C|256:224,2,32,0|8|8
224,256,142030,2,0,C|192:224,2,32,4|8|8
160,256,142280,2,0,C|128:224,2,32,0|8|8
96,256,142530,2,0,C|64:224,2,32,0|8|8
32,256,142780,1,0
32,192,142905,1,0
32,128,143030,6,0,C|64:96,2,32,4|8|8
96,144,143280,2,0,C|128:112,2,32,0|8|8
160,160,143530,2,0,C|192:128,2,32,0|8|8
224,176,143780,1,0
256,128,143905,1,0
288,80,144030,2,0,C|320:112,2,32,4|8|8
352,64,144280,2,0,C|384:96,2,32,0|8|8
416,48,144530,2,0,C|448:80,2,32,0|8|8
480,32,144780,1,4
480,96,144905,1,0
480,160,145030,5,4
480,160,145155,1,0
448,224,145280,1,8
384,192,145405,5,0
384,192,145530,1,0
352,256,145655,1,8
288,224,145780,5,0
288,224,145905,1,8
256,288,146030,1,4
192,256,146155,5,8
192,256,146280,1,8
160,320,146405,6,0,C|128:352,2,32,8|8|8
96,288,146655,5,8
32,320,146780,6,0,C|64:352,2,32,8|8|8
32,256,147030,5,4
128,160,147280,1,4
32,64,147530,1,4
128,160,147780,1,4
224,64,148030,1,4
128,160,148280,1,4
224,256,148530,1,4
128,160,148780,1,4
288,64,149030,5,4
384,160,149280,1,4
480,64,149530,1,4
384,160,149780,1,4
480,256,150030,1,4
384,160,150280,1,4
288,256,150530,1,4
384,160,150780,1,4
384,352,151030,5,4
256,352,151280,1,4
128,352,151530,1,4
192,224,151780,1,4
320,224,152030,1,4
384,96,152280,1,4
256,96,152530,1,4
128,96,152780,1,4
32,32,153030,5,4
48,32,153092,1,0
64,32,153155,1,0
80,32,153217,1,0
96,32,153280,5,12
112,32,153342,1,8
128,32,153405,1,8
144,32,153467,1,8
160,32,153530,5,4
176,32,153592,1,0
192,32,153655,1,0
208,32,153717,1,0
224,32,153780,5,12
240,32,153842,1,8
256,32,153905,1,8
272,32,153967,1,8
288,32,154030,5,4
304,32,154092,5,8
320,32,154155,5,0
336,32,154217,5,8
352,32,154280,5,4
368,32,154342,1,0
384,32,154405,1,0
400,32,154467,1,0
416,32,154530,5,12
432,32,154592,1,8
448,32,154655,1,8
464,32,154717,1,8
480,32,154780,5,4
480,192,155030,6,0,C|480:320,1,128,4|8
368,320,155530,2,0,B|400:352|424:355|448:352|480:320|480:320,1,128,0|8
368,320,156030,2,0,C|368:192,1,128,0|8
256,192,156530,2,0,B|288:160|312:157|336:160|368:192|368:192,1,128,0|8
256,192,157030,6,0,B|224:160|200:157|176:160|144:192|144:192,1,128,0|8
144,320,157530,2,0,C|144:192,1,128,0|8
144,320,158030,2,0,B|112:352|88:355|64:352|32:320|32:320,1,128,0|8
32,192,158530,2,0,C|32:320,1,128,0|8
32,192,159030,6,0,C|64:128,1,64,0|8
64,128,159280,2,0,C|96:64,1,64,0|8
96,64,159530,2,0,C|160:32,1,64,0|8
160,32,159780,2,0,C|224:64,1,64,0|8
224,64,160030,2,0,C|256:128,1,64,0|8
256,128,160280,2,0,C|288:192,1,64,0|8
288,192,160530,2,0,C|256:256,1,64,0|8
256,256,160780,2,0,C|224:320,1,64,0|8
224,320,161030,6,0,C|288:352,1,64,0|8
288,352,161280,2,0,C|352:320,1,64,0|8
352,320,161530,2,0,C|416:352,1,64,0|8
416,352,161780,2,0,C|480:320,1,64,0|8
480,320,162030,2,0,C|480:256,1,64,0|8
480,248,162280,2,0,C|480:184,1,64,0|8
480,176,162530,2,0,C|480:112,1,64,0|8
480,104,162780,2,0,C|480:40,1,64,0|8
480,32,163030,5,4
440,32,163155,1,0
400,32,163280,1,0
360,32,163405,1,0
376,80,163530,1,0
336,80,163655,1,0
296,80,163780,1,0
256,80,163905,1,0
272,128,164030,5,0
232,128,164155,1,0
192,128,164280,1,0
152,128,164405,1,0
168,176,164530,1,0
128,176,164655,1,0
88,176,164780,1,0
48,176,164905,1,0
32,224,165030,5,0
64,256,165155,1,0
96,288,165280,1,0
128,320,165405,1,0
160,352,165530,1,0
192,320,165655,1,0
224,288,165780,1,0
256,256,165905,1,0
256,256,166030,5,0
288,288,166155,1,0
320,320,166280,1,0
352,352,166405,1,0
384,320,166530,1,0
416,288,166655,1,0
448,256,166780,1,0
480,224,166905,1,0
480,160,167030,6,0,C|464:160,3,16
466,144,167155,2,0,C|450:144,3,16
452,160,167280,2,0,C|436:160,3,16
438,144,167405,2,0,C|422:144,3,16
424,160,167530,2,0,C|408:160,3,16
410,144,167655,2,0,C|394:144,3,16
396,160,167780,2,0,C|380:160,3,16
382,144,167905,2,0,C|366:144,3,16
368,160,168030,6,0,C|352:160,3,16
354,144,168155,2,0,C|338:144,3,16
340,160,168280,2,0,C|324:160,3,16
326,144,168405,2,0,C|310:144,3,16
312,160,168530,2,0,C|296:160,3,16
298,144,168655,2,0,C|282:144,3,16
284,160,168780,2,0,C|268:160,3,16
270,144,168905,2,0,C|254:144,3,16
256,160,169030,6,0,C|240:160,3,16
242,144,169155,2,0,C|226:144,3,16
228,160,169280,2,0,C|212:160,3,16
214,144,169405,2,0,C|198:144,3,16
200,160,169530,2,0,C|184:160,3,16
186,144,169655,2,0,C|170:144,3,16
172,160,169780,2,0,C|156:160,3,16
158,144,169905,2,0,C|142:144,3,16
144,160,170030,6,0,C|128:160,3,16
130,144,170155,2,0,C|114:144,3,16
116,160,170280,2,0,C|100:160,3,16
102,144,170405,2,0,C|86:144,3,16
88,160,170530,2,0,C|72:160,3,16
74,144,170655,2,0,C|58:144,3,16
60,160,170780,2,0,C|44:160,3,16
46,144,170905,2,0,C|30:144,3,16
32,160,171030,5,6
256,192,171092,12,0,175280
256,192,175592,5,12
