osu file format v7

[General]
AudioFilename: Taihen na Mono no Shoushitsu.mp3
AudioLeadIn: 0
PreviewTime: 107030
Countdown: 0
SampleSet: Normal
StackLeniency: 0.4
Mode: 0
LetterboxInBreaks: 0

[Editor]
Bookmarks: 27030,43030,59030,75030,91030,107030,123030,139030,155030,171030
DistanceSpacing: 1
BeatDivisor: 4
GridSize: 8

[Metadata]
Title:Taihen na Mono no Shoushitsu
Artist:IOSYS
Creator:DJPop
Version:Hard
Source:Nico Nico Douga
Tags:hatsune miku cosmo bousou-p fujisaku karin alice margatroid CDFA ignorethis KanaRin

[Difficulty]
HPDrainRate:3
CircleSize:4
OverallDifficulty:6
SliderMultiplier:0.96
SliderTickRate:0.5

[Events]
//Background and Video events
0,0,"Taihen na Mono no Shoushitsu.png"
//Break Periods
//Storyboard Layer 0 (Background)
//Storyboard Layer 1 (Fail)
//Storyboard Layer 2 (Pass)
//Storyboard Layer 3 (Foreground)
//Storyboard Sound Samples
//Background Colour Transformations
3,100,0,0,0

[TimingPoints]
27030,250,4,1,1,80,1,0
34780,-100,4,1,2,80,0,0
42405,-100,4,1,1,80,0,0
42842,-100,4,1,2,80,0,0
74780,-100,4,1,0,80,0,0
105780,-100,4,2,1,80,0,0
106530,-100,4,1,1,80,0,0
122905,-100,4,1,2,80,0,0
126405,-100,4,1,1,80,0,0
126780,-100,4,1,2,80,0,0
130405,-100,4,1,1,80,0,0
130780,-100,4,1,2,80,0,0
138405,-100,4,1,1,80,0,0
138842,-100,4,1,2,80,0,0
146967,-100,4,1,2,70,0,0
154905,-100,4,1,2,80,0,0
174780,-100,4,2,1,0,0,0

[Colours]
Combo1 : 191,191,0
Combo2 : 0,191,0
Combo3 : 0,191,191
Combo4 : 191,0,191

[HitObjects]
480,32,27030,6,0,C|416:104,1,96,4|0
352,32,27530,2,0,C|288:104,1,96
224,32,28030,2,0,C|160:104,1,96,4|0
96,32,28530,2,0,C|32:104,1,96
64,192,29030,6,0,C|128:264,1,96,4|0
192,192,29530,2,0,C|256:264,1,96
320,192,30030,2,0,C|384:264,1,96,4|0
448,192,30530,1,2
448,352,31030,6,0,C|352:352,1,96,4|0
352,352,31530,2,0,C|256:352,1,96
256,352,32030,2,0,C|160:352,1,96,4|0
160,352,32530,2,0,C|64:352,1,96
112,224,33030,6,0,C|208:224,1,96
208,224,33530,2,0,C|304:224,1,96
304,224,34030,2,0,C|400:224,1,96
400,224,34530,1,6
480,40,35030,5,4
384,40,35280,1,8
368,136,35530,1,0
272,136,35780,1,8
256,40,36030,1,0
160,40,36280,1,8
144,136,36530,1,0
48,136,36780,1,8
48,248,37030,5,0
144,248,37280,1,8
160,344,37530,1,0
256,344,37780,1,8
272,248,38030,1,0
368,248,38280,1,8
384,344,38530,1,0
480,344,38780,1,8
480,248,39030,5,0
480,248,39280,1,8
448,152,39530,1,0
448,152,39780,1,8
352,128,40030,1,0
352,128,40280,1,8
320,32,40530,1,0
320,32,40780,1,12
192,32,41030,5,0
192,32,41280,1,8
160,128,41530,1,0
160,128,41780,1,12
64,152,42030,1,0
64,152,42280,1,8
32,248,42530,1,0
32,248,42655,1,2
256,352,43030,6,0,C|304:352,5,48,4|0|0|0|0|0
256,352,43780,2,0,C|208:352,5,48
256,352,44530,2,0,C|256:304,2,48,0|0|8
256,216,45029,6,0,C|208:216,5,48
256,216,45780,2,0,C|304:216,5,48
256,216,46530,2,0,C|256:168,2,48,0|0|8
256,80,47030,6,0,C|304:80,5,48
256,80,47780,2,0,C|208:80,5,48
256,80,48530,2,0,C|256:32,2,48,0|0|8
352,32,49030,5,0
408,96,49280,1,8
464,160,49530,1,0
480,192,49655,1,0
464,224,49780,1,8
408,288,50030,1,0
352,352,50280,1,0
272,352,50530,1,0
256,352,50655,1,0
240,352,50780,1,0
224,352,50905,1,0
208,352,51030,6,0,B|144:352,2,48,4|0|0
208,304,51405,2,0,B|208:240,2,48
160,304,51780,2,0,B|96:304,2,48
160,256,52155,2,0,B|160:192,2,48
112,256,52530,2,0,B|48:256,2,48
48,144,53030,6,0,B|32:96,2,48
96,128,53405,2,0,B|112:176,2,48
144,112,53780,2,0,B|128:64,2,48
192,96,54155,2,0,B|208:144,2,48
240,80,54530,2,0,B|224:32,2,48
336,32,55030,6,0,B|336:88,2,48
384,32,55405,2,0,B|448:32,2,48
384,80,55780,2,0,B|384:144,2,48
432,80,56155,2,0,B|496:80,2,48
432,128,56530,2,0,B|432:192,2,48
256,192,57030,6,0,C|256:168,24,24,4|0|0|0|0|0|0|0|4|0|0|0|0|0|0|0|4|0|0|0|4|0|0|0|0
72,288,59030,6,0,B|176:336|256:363|336:336|440:288|440:288,1,384,4|0
256,192,60530,1,8
352,160,60780,1,8
392,72,61030,6,0,B|328:32|256:8|184:32|120:72|120:72,1,288
32,128,62030,1,0
64,320,62530,1,8
160,352,62780,1,8
256,320,63030,6,0,C|256:128,1,192,0|8
448,96,64030,1,0
448,288,64530,1,8
288,192,65030,6,0,B|256:152|208:148|176:160|160:192|144:224|112:238|64:232|32:192|32:192,1,288,0|8
32,96,66030,1,0
32,288,66530,1,8
224,352,67030,6,0,B|395:351|480:240|480:240,1,288,0|8
479,143,68030,2,0,B|480:144|395:33|224:32,1,288,0|8
128,48,69030,5,0
128,192,69405,1,8
128,336,69780,1,8
32,336,70030,1,0
32,240,70280,1,8
32,144,70530,1,0
32,48,70780,1,8
128,48,71030,6,0,C|320:48,1,192,0|8
448,192,72030,1,0
320,336,72530,1,8
128,336,73030,6,0,C|224:336,1,96,0|8
272,256,73530,1,0
272,256,73655,2,0,C|176:256,1,96
224,176,74155,1,0
224,176,74280,2,0,C|320:176,1,96
184,48,75030,6,0,C|328:48,2,144,4|0|8
256,224,76280,2,0,C|256:320,2,96,8|0|8
160,224,77030,5,0
256,120,77405,1,0
352,224,77780,1,8
352,32,78280,2,0,C|160:32,1,192,8|8
64,56,79030,6,0,B|32:112|16:160|15:193|16:224|32:272|64:328|64:328,1,288,0|8
160,352,80030,1,0
352,352,80530,1,8
256,192,81030,5,0
128,128,81405,1,0
256,64,81780,1,8
352,32,82030,2,0,B|488:1|480:128|480:128,1,192,0|8
480,352,83030,6,0,C|480:208,2,144,4|0|8
288,352,84280,2,0,C|192:352,2,96,8|0|8
384,320,85030,5,0
320,192,85405,1,0
256,64,85780,1,8
160,32,86030,1,0
32,192,86530,1,0
96,120,86780,1,8
160,192,87030,6,0,B|144:256|132:336|224:352|288:352|320:288|320:288,1,288,0|8
352,192,88030,1,0
480,32,88530,1,8
256,32,89030,5,0
96,192,89530,1,8
256,352,90030,1,0
416,192,90530,1,8
32,32,91280,5,12
64,128,91530,1,0
96,224,91780,2,0,B|117:301|160:352|160:352,1,144,8|8
256,352,92405,1,0
352,352,92655,1,8
480,32,93280,5,8
448,128,93530,1,0
416,224,93780,2,0,B|395:301|352:352|352:352,1,144,8|8
256,352,94405,1,0
160,352,94655,1,8
256,32,95280,5,8
256,120,95530,1,0
256,208,95780,2,0,C|256:352,1,144,8|8
304,168,96530,1,0
208,168,96780,1,8
160,80,97030,6,0,C|352:80,3,192,0|8|0|8
480,224,99030,5,0
416,352,99405,1,0
352,224,99780,1,8
288,352,100155,1,0
224,224,100530,1,0
192,288,100780,1,8
160,352,101030,5,4
96,224,101405,1,0
32,352,101780,1,8
112,64,102280,1,8
208,32,102530,1,8
304,32,102780,1,8
400,64,103030,1,4
256,192,103092,12,0,106030
320,352,107030,6,0,C|464:352,2,144,4|0|8
224,352,108030,1,0
128,320,108280,1,8
96,224,108530,1,0
128,128,108780,1,8
192,32,109030,6,0,C|48:32,2,144,0|0|8
288,32,110030,1,0
384,64,110280,1,8
416,160,110530,1,0
448,256,110780,1,8
480,352,111030,5,0
240,352,111530,1,0
144,352,111780,1,8
176,256,112030,2,0,C|32:256,2,144,0|0|12
144,160,113030,5,0
240,160,113280,1,8
272,256,113530,1,0
304,352,113780,2,0,B|427:369|448:256|448:256,1,192,8|10
480,160,114530,1,2
448,64,114780,1,2
328,43,115030,6,0,C|184:43,2,144,4|0|8
256,112,116030,1,0
208,192,116280,1,8
304,192,116530,1,0
256,272,116780,1,8
184,341,117030,6,0,C|328:341,2,144,0|0|8
256,272,118030,1,0
304,192,118280,1,8
208,192,118530,1,0
256,112,118780,1,8
256,112,119030,5,0
256,352,119530,1,0
256,352,119780,1,8
192,272,120030,2,0,B|224:240|255:233|288:240|320:272|320:272,2,144,0|0|12
96,224,121030,5,0
128,128,121280,1,8
160,32,121530,2,2,C|352:32,1,192,10|10
352,32,122280,1,4
384,128,122530,1,0
416,224,122780,1,0
464,312,123030,6,0,C|376:352,1,96,4|8
352,280,123530,2,0,C|264:320,1,96,0|8
240,248,124030,2,0,C|152:288,1,96,0|8
128,216,124530,2,0,C|40:256,1,96,0|8
64,128,125030,6,0,C|152:168,1,96,0|8
192,96,125530,2,0,C|280:136,1,96,0|8
320,64,126030,2,0,C|408:104,1,96,0|8
448,32,126530,1,2
448,256,127030,6,0,C|448:352,1,96,0|8
352,352,127530,2,0,C|448:352,1,96,0|8
352,352,128030,2,0,C|352:256,1,96,0|8
256,256,128530,2,0,C|352:256,1,96,0|12
256,256,129030,6,0,C|256:352,1,96,0|8
160,352,129530,2,0,C|256:352,1,96,0|8
160,352,130030,2,0,C|160:256,1,96,0|8
64,256,130530,1,2
32,128,131030,5,4
32,128,131280,1,8
64,32,131530,1,0
64,32,131780,1,8
160,32,132030,1,0
160,32,132280,1,8
192,128,132530,1,0
192,128,132780,1,8
320,128,133030,5,0
320,128,133280,1,8
352,32,133530,1,0
352,32,133780,1,8
448,32,134030,1,0
448,32,134280,1,8
480,128,134530,1,0
480,128,134780,1,8
480,256,135030,5,0
448,352,135280,1,8
416,256,135530,1,0
384,352,135780,1,8
352,256,136030,1,0
320,160,136280,1,8
288,256,136530,1,0
256,160,136780,1,12
224,256,137030,5,4
192,352,137280,1,8
160,256,137530,1,0
128,160,137780,1,8
96,256,138030,1,4
64,352,138280,1,12
32,256,138530,1,0
32,256,138655,1,2
32,32,139030,6,0,C|128:32,3,96,4|8|0|8
224,96,140030,2,0,C|128:96,3,96,4|8|0|8
224,160,141030,2,0,C|320:160,3,96,4|8|0|8
416,224,142030,2,0,C|320:224,3,96,4|8|0|8
288,232,142905,1,8
256,240,143030,6,0,C|256:336,3,96,4|8|0|8
288,344,143905,1,8
320,352,144030,2,0,C|416:352,3,96,4|8|0|12
448,344,144905,1,8
480,336,145030,2,0,C|480:240,1,96,0|8
480,240,145405,2,0,C|480:144,1,96,0|8
480,144,145780,2,0,C|480:48,1,96,0|4
448,32,146155,2,0,C|400:32,6,48,8|8|8|8|8|8|8
448,32,147030,5,4
384,128,147280,1,4
320,224,147530,1,4
256,320,147780,1,4
256,320,148030,1,4
192,224,148280,1,4
128,128,148530,1,4
64,32,148780,1,4
32,192,149030,5,4
96,288,149280,1,4
192,352,149530,1,4
200,240,149780,1,4
315,240,150030,1,4
320,352,150280,1,4
416,288,150530,1,4
480,192,150780,1,4
352,96,151030,5,4
256,32,151280,1,4
160,96,151530,1,4
256,160,151780,1,4
160,288,152030,1,4
256,352,152280,1,4
352,288,152530,1,4
256,224,152780,1,4
32,192,153030,5,4
96,192,153280,1,4
160,192,153530,1,4
224,192,153780,1,4
288,192,154030,1,4
352,192,154280,1,4
416,192,154530,1,4
480,192,154780,1,4
480,64,155030,6,0,B|440:32|393:11|344:32|304:64|304:64,1,192,4|8
32,64,156030,2,0,B|72:32|119:11|168:32|208:64|208:64,1,192,0|8
32,320,157030,6,0,B|72:352|119:373|168:352|208:320|208:320,1,192,0|8
480,320,158030,2,0,B|440:352|393:373|344:352|304:320|304:320,1,192,0|8
464,192,159030,6,0,C|432:96,1,96,0|8
408,192,159530,2,0,C|376:288,1,96,0|8
352,192,160030,2,0,C|320:96,1,96,0|8
296,192,160530,2,0,C|264:288,1,96,0|8
240,192,161030,6,0,C|208:96,1,96,0|8
184,192,161530,2,0,C|152:288,1,96,0|8
128,192,162030,2,0,C|96:96,1,96,0|8
72,192,162530,2,0,C|40:288,1,96,0|8
32,80,163030,6,0,B|32:16,3,48,4|0|0|0
80,64,163530,2,0,B|80:128,3,48
128,80,164030,2,0,B|128:16,3,48
176,64,164530,2,0,B|176:128,3,48
224,80,165030,6,0,B|272:64,3,48
320,96,165530,2,0,B|272:112,3,48
320,144,166030,2,0,B|368:128,3,48
416,160,166530,2,0,B|368:176,3,48
400,224,167030,6,0,C|400:256,12,24
304,224,168030,2,0,C|304:256,12,24
208,224,169030,2,0,C|208:256,12,24
112,224,170030,2,0,C|112:256,12,24
256,336,171030,5,6
256,192,171092,12,0,175280
256,192,175592,5,12
