osu file format v8

[General]
AudioFilename: Taihen na Mono no Shoushitsu.mp3
AudioLeadIn: 0
PreviewTime: 107030
Countdown: 0
SampleSet: Soft
StackLeniency: 0.4
Mode: 0
LetterboxInBreaks: 0

[Editor]
Bookmarks: 27030,43030,59030,75030,91030,107030,123030,139030,155030,171030
DistanceSpacing: 1
BeatDivisor: 4
GridSize: 32

[Metadata]
Title:Taihen na Mono no Shoushitsu
Artist:IOSYS
Creator:DJPop
Version:Easy
Source:Nico Nico Douga
Tags:hatsune miku cosmo bousou-p fujisaku karin alice margatroid CDFA ignorethis KanaRin

[Difficulty]
HPDrainRate:1
CircleSize:3
OverallDifficulty:3
ApproachRate:3
SliderMultiplier:0.64
SliderTickRate:1

[Events]
//Background and Video events
0,0,"Taihen na Mono no Shoushitsu.png"
//Break Periods
//Storyboard Layer 0 (Background)
//Storyboard Layer 1 (Fail)
//Storyboard Layer 2 (Pass)
//Storyboard Layer 3 (Foreground)
//Storyboard Sound Samples
//Background Colour Transformations
3,100,0,0,0

[TimingPoints]
27030,250,4,1,2,80,1,0
74780,-100,4,1,1,80,0,0
105780,-100,4,2,1,80,0,0
106530,-100,4,1,1,80,0,0
122780,-100,4,1,2,80,0,0
174780,-100,4,2,1,0,0,0

[Colours]
Combo1 : 191,191,0
Combo2 : 0,191,0
Combo3 : 0,191,191
Combo4 : 191,0,191

[HitObjects]
96,352,27030,5,4
416,352,28030,1,4
96,32,29030,1,4
416,32,30030,1,4
256,352,31030,5,4
96,192,32030,1,4
256,32,33030,1,0
416,192,34030,1,0
128,352,35030,5,4
48,256,35530,1,8
128,160,36030,1,0
192,48,36530,1,8
320,48,37030,5,0
384,160,37530,1,8
464,256,38030,1,0
384,352,38530,1,8
256,352,39030,5,0
128,320,39530,1,8
96,192,40030,1,0
128,64,40530,1,8
256,32,41030,5,0
384,64,41530,1,8
416,192,42030,1,0
384,320,42530,1,8
256,352,43030,6,0,L|224:352|224:320|192:320|192:288|160:288|160:256|128:256|128:224|96:224|96:192|64:192|64:160|32:160|32:128,1,448,4|8
32,64,45030,2,0,C|480:64,1,448,0|8
480,128,47030,2,0,L|480:160|448:160|448:192|416:192|416:224|384:224|384:256|352:256|352:288|320:288|320:320|288:320|288:352|256:352,1,448
256,288,49030,6,0,C|256:160,3,128,0|8|0|8
320,32,51030,6,0,C|416:32,4,96,4|0|0|0|0
192,32,53030,2,0,C|96:32,4,96
256,144,55030,2,0,C|256:240,4,96
160,240,57030,5,12
256,352,57530,1,12
352,240,58030,1,12
440,96,59030,6,0,B|352:48|256:25|160:48|72:96|72:96,1,384,4|8
128,192,61030,2,0,C|384:192,1,256
480,232,62530,1,8
384,272,63030,6,0,C|128:272,1,256,0|8
32,312,64530,1,8
128,352,65030,2,0,C|384:352,1,256,0|8
480,312,66530,1,8
384,272,67030,6,0,C|128:272,2,256
192,32,70030,6,0,C|320:32,1,128,8|8
320,160,71030,2,0,B|320:224|320:256|256:282|192:256|192:224|192:160|192:160,1,256,0|8
96,256,72530,1,8
192,352,73030,2,0,C|320:352,3,128,0|8|0|8
416,256,75030,5,4
256,32,76030,1,8
64,192,77030,1,0
320,192,78030,1,8
480,352,79030,5,0
224,352,80030,1,8
32,192,81030,1,0
224,32,82030,1,8
480,32,83030,5,4
480,352,84030,1,8
256,352,85030,1,0
256,32,86030,1,8
32,32,87030,5,0
32,352,88030,1,8
256,352,89030,1,0
256,32,90030,1,8
96,288,91280,6,2,B|160:344|232:368|256:346|280:368|352:344|416:288|416:288,1,352,6|2
415,95,93280,2,2,B|416:96|352:40|280:16|256:38|232:16|160:40|96:96,1,352
96,256,95280,2,2,C|416:256,1,320
320,336,97030,6,2,C|192:336,1,128
192,192,98030,2,2,C|320:192,1,128
416,96,99030,6,0,B|426:41|480:32|480:32,4,96
288,96,101030,5,6
192,80,101405,1,2
96,64,101780,2,2,B|32:96|0:144|11:192|0:240|32:288|96:320|96:320,1,320,6|4
256,192,103530,12,4,106030
448,352,107030,6,0,C|320:352,1,128,4|8
192,352,108030,1,0
64,352,108530,1,8
64,224,109030,6,0,C|192:224,1,128,0|8
320,224,110030,1,0
448,224,110530,1,8
448,96,111030,5,0
320,96,111530,1,8
192,96,112030,2,0,C|64:96,1,128,0|8
160,192,113030,6,0,C|352:192,2,192,0|0|10
64,288,115030,6,0,C|192:288,1,128,4|8
320,288,116030,1,0
448,288,116530,1,8
448,160,117030,6,0,C|320:160,1,128,0|8
192,160,118030,1,0
64,160,118530,1,8
64,32,119030,5,0
192,32,119530,1,8
320,32,120030,2,0,C|448:32,1,128,0|8
352,128,121030,6,0,C|160:128,2,192,0|4|0
480,224,123030,5,4
416,352,123530,1,8
352,224,124030,1,0
288,352,124530,1,8
224,224,125030,5,0
160,352,125530,1,8
96,224,126030,1,0
32,352,126530,1,8
32,224,127030,5,0
96,352,127530,1,8
160,224,128030,1,0
224,352,128530,1,8
288,224,129030,5,0
352,352,129530,1,8
416,224,130030,1,0
480,352,130530,1,8
480,224,131030,5,4
480,96,131530,1,8
368,32,132030,1,0
256,96,132530,1,8
144,32,133030,5,0
32,96,133530,1,8
32,224,134030,1,0
32,352,134530,1,8
96,192,135030,5,0
128,320,135530,1,8
256,352,136030,1,0
384,320,136530,1,8
416,192,137030,5,4
384,64,137530,1,8
256,32,138030,1,4
128,64,138530,1,8
128,192,139030,6,0,C|256:192,1,128,4|8
256,320,140030,2,0,C|256:192,1,128,4|8
384,192,141030,2,0,C|256:192,1,128,4|8
256,64,142030,2,0,C|256:192,1,128,4|8
347,282,143030,6,0,C|256:192,1,128,4|8
164,282,144030,2,0,C|256:192,1,128,4|8
164,103,145030,2,0,C|256:192,1,128,4|8
347,103,146030,2,0,C|256:192,1,128,4|8
32,192,147030,5,4
32,192,147530,1,4
64,320,148030,1,4
64,320,148530,1,4
192,352,149030,5,4
192,352,149530,1,4
320,352,150030,1,4
320,352,150530,1,4
448,320,151030,5,4
448,320,151530,1,4
480,192,152030,1,4
480,192,152530,1,4
336,192,153030,5,4
336,192,153530,1,4
176,192,154030,1,4
176,192,154530,1,4
136,72,155030,6,0,B|184:40|216:32|256:23|296:32|328:40|376:72|376:72,3,256,4|0|0|0
448,224,159030,6,0,C|448:352,1,128,0|8
320,352,160030,2,0,C|320:224,1,128,0|8
192,224,161030,2,0,C|192:352,1,128,0|8
64,352,162030,2,0,C|64:224,1,128,0|8
40,112,163030,5,4
112,32,163530,1,0
184,112,164030,1,0
256,32,164530,1,0
256,32,165030,5,0
328,112,165530,1,0
400,32,166030,1,0
472,112,166530,1,0
256,192,167030,6,0,C|256:208,64,16,0|0|0|0|0|0|0|0|0|0|0|0|0|0|0|0|0|0|0|0|0|0|0|0|0|0|0|0|0|0|0|0|0|0|0|0|0|0|0|0|0|0|0|0|0|0|0|0|0|0|0|0|0|0|0|0|0|0|0|0|0|0|0|0|6
256,192,171092,12,12,175592
