osu file format v12

[General]
AudioFilename: IOSYS - Stalemate.mp3
AudioLeadIn: 0
PreviewTime: 50304
Countdown: 0
SampleSet: Normal
StackLeniency: 0.7
Mode: 0
LetterboxInBreaks: 1
WidescreenStoryboard: 1

[Editor]
DistanceSpacing: 0.6
BeatDivisor: 4
GridSize: 8
TimelineZoom: 1.4

[Metadata]
Title:Stalemate
TitleUnicode:Stalemate
Artist:IOSYS
ArtistUnicode:IOSYS
Creator:gretay
Version:Normal
Source:D-Frag
Tags:Anime , D-Frag , Stalemate , IOSYS
BeatmapID:401742
BeatmapSetID:165140

[Difficulty]
HPDrainRate:4
CircleSize:4
OverallDifficulty:5
ApproachRate:5
SliderMultiplier:1.59999990463257
SliderTickRate:2

[Events]
//Background and Video events
0,0,"BG.jpg",0,0
Video,0,"D-Frag Opening Subtitle.flv"
//Break Periods
//Storyboard Layer 0 (Background)
//Storyboard Layer 1 (Fail)
//Storyboard Layer 2 (Pass)
//Storyboard Layer 3 (Foreground)
//Storyboard Sound Samples
//Background Colour Transformations
3,100,163,162,255

[TimingPoints]
541,419.58041958042,4,1,0,40,1,0
50890,-100,4,1,0,50,0,1
71030,-100,4,1,0,40,0,0

[Colours]
Combo1 : 0,128,64
Combo2 : 255,151,255
Combo3 : 82,224,61
Combo4 : 255,164,47

[HitObjects]
48,32,551,6,0,P|24:120|88:176,1,159.999990463257
112,112,1387,2,0,P|216:72|256:128,1,159.999990463257
304,96,2223,6,0,P|384:56|456:104,1,159.999990463257
368,152,3059,2,0,P|272:184|224:160,1,159.999990463257
200,216,3895,6,0,P|184:104|208:56,1,159.999990463257
296,288,4732,6,0,P|320:184|288:128,1,159.999990463257
488,96,5568,2,0,L|328:96,3,159.999990463257
328,112,7240,6,0,P|176:64|24:112,1,319.999980926514
40,192,8494,2,0,P|192:264|336:192,1,319.999980926514
296,144,9748,2,0,P|384:96|408:144,1,159.999990463257
424,192,10584,6,0,L|424:272,2,79.9999952316285
424,112,11421,2,0,L|424:24,2,79.9999952316285
336,176,12257,2,0,L|168:168,3,159.999990463257
56,160,13967,6,0,P|104:64|176:64,1,159.999990463257
152,160,14806,2,0,P|240:152|264:80,1,159.999990463257
232,40,15645,2,0,P|320:40|344:112,1,159.999990463257
264,104,16485,2,0,P|336:208|240:352,1,319.999980926514
160,248,17743,6,0,L|160:344,2,79.9999952316285
168,168,18582,1,0,0:0:0:0:
128,80,19002,2,0,L|32:80,6,79.9999952316285
208,96,20680,6,0,P|288:72|376:112,1,159.999990463257
376,168,21520,2,0,P|280:208|216:168,1,159.999990463257
152,152,22359,1,0,0:0:0:0:
88,256,24037,6,0,P|48:160|80:96,1,159.999990463257
136,160,24876,1,0,0:0:0:0:
200,88,25296,2,0,P|216:208|176:248,1,159.999990463257
144,256,26135,1,0,0:0:0:0:
224,272,26554,2,0,L|384:272,2,159.999990463257
216,192,27813,5,0,0:0:0:0:
288,192,28233,2,0,L|456:192,2,159.999990463257
288,120,29492,2,0,L|200:120,2,79.9999952316285
376,120,30331,1,0,0:0:0:0:
440,136,30750,2,0,P|480:240|448:312,2,159.999990463257
352,192,32009,1,0,0:0:0:0:
256,216,32429,2,0,P|224:64|280:8,2,239.999985694885
288,200,34107,1,0,0:0:0:0:
288,200,34422,1,0,0:0:0:0:
288,200,34631,1,0,0:0:0:0:
104,280,35773,6,0,P|104:128|248:112,1,319.999980926514
176,200,37027,2,0,P|320:208|360:56,1,319.999980926514
280,80,38268,2,0,P|200:184|216:224,1,159.999990463257
192,232,39142,6,0,P|280:304|480:304,1,319.999980926514
480,256,40401,2,0,P|472:120|432:88,3,159.999990463257
416,160,42492,1,0,0:0:0:0:
488,160,42910,2,0,L|488:-8,2,159.999990463257
400,160,44164,1,0,0:0:0:0:
304,152,44582,6,0,L|304:-32,2,159.999990463257
216,40,45836,2,0,P|112:72|72:112,1,159.999990463257
48,184,46672,2,0,P|72:288|128:296,1,159.999990463257
184,328,47508,2,0,L|352:328,1,159.999990463257
416,344,48345,1,0,0:0:0:0:
432,256,48763,2,0,P|456:112|432:80,3,159.999990463257
160,72,50435,6,0,P|56:56|32:104,1,159.999990463257
104,152,51296,2,0,P|168:232|232:216,1,159.999990463257
304,200,52133,1,0,0:0:0:0:
344,200,52551,1,0,0:0:0:0:
376,200,52969,1,0,0:0:0:0:
408,200,53387,1,0,0:0:0:0:
352,16,53805,6,0,P|168:16|96:120,1,319.999980926514
232,112,55059,2,0,P|336:96|384:128,2,159.999990463257
128,184,56313,2,0,P|88:288|120:320,1,159.999990463257
176,328,57149,6,0,P|288:352|360:328,1,159.999990463257
408,336,58023,2,0,P|480:208|472:176,1,159.999990463257
464,112,58862,1,0,0:0:0:0:
440,32,59282,2,0,L|256:32,3,159.999990463257
200,16,60960,1,0,0:0:0:0:
136,32,61380,6,0,P|56:48|72:104,1,159.999990463257
144,176,62219,2,0,P|256:152|280:208,1,159.999990463257
240,248,63058,2,0,P|336:264|384:224,1,159.999990463257
408,208,63897,6,0,P|384:88|328:72,1,159.999990463257
296,64,64736,2,0,P|176:32|136:64,1,159.999990463257
104,96,65560,1,0,0:0:0:0:
160,136,65990,2,0,P|240:216|96:248,1,319.999980926514
32,224,67232,6,0,B|64:80|160:248|208:272|288:120,1,319.999980926514
352,128,68487,2,0,L|360:296,1,159.999990463257
440,224,69323,1,0,0:0:0:0:
440,224,69741,1,0,0:0:0:0:
440,224,70159,1,0,0:0:0:0:
440,224,70577,1,0,0:0:0:0:
440,128,71030,6,0,P|392:32|320:40,1,159.999990463257
272,40,71869,2,0,L|120:136,1,159.999990463257
72,200,72708,2,0,P|64:280|152:328,1,159.999990463257
176,336,73547,2,0,L|344:336,1,159.999990463257
408,328,74387,2,0,P|464:176|328:112,1,319.999980926514
376,32,75645,6,0,L|208:32,1,159.999990463257
136,32,76485,2,0,L|-24:32,1,159.999990463257
16,48,77324,2,0,L|136:160,1,159.999990463257
272,72,78163,2,0,L|120:168,1,159.999990463257
128,320,79002,2,0,L|128:160,1,159.999990463257
128,168,79670,6,0,L|232:168,3,79.9999952316285
304,168,80611,1,0,0:0:0:0:
384,168,81029,2,0,L|480:168,4,79.9999952316285
296,168,82283,1,0,0:0:0:0:
296,168,82701,1,0,0:0:0:0:
296,168,83119,1,0,0:0:0:0:
296,168,83328,1,0,0:0:0:0:
296,168,83537,1,0,0:0:0:0:
296,168,83955,2,0,L|128:168,1,159.999990463257
296,168,84791,2,0,L|288:8,1,159.999990463257
296,168,85627,2,0,L|480:176,1,159.999990463257
256,192,86554,12,0,88226,0:0:0:0:
256,184,88862,5,0,0:0:0:0:
256,184,89072,1,0,0:0:0:0:
