osu file format v12

[General]
AudioFilename: IOSYS - Stalemate.mp3
AudioLeadIn: 0
PreviewTime: 50304
Countdown: 0
SampleSet: Normal
StackLeniency: 0.7
Mode: 0
LetterboxInBreaks: 1
WidescreenStoryboard: 1

[Editor]
DistanceSpacing: 0.6
BeatDivisor: 4
GridSize: 8
TimelineZoom: 1.4

[Metadata]
Title:Stalemate
TitleUnicode:Stalemate
Artist:IOSYS
ArtistUnicode:IOSYS
Creator:gretay
Version:Insane
Source:D-Frag
Tags:Anime , D-Frag , Stalemate , IOSYS
BeatmapID:406533
BeatmapSetID:165140

[Difficulty]
HPDrainRate:9
CircleSize:5
OverallDifficulty:10
ApproachRate:8
SliderMultiplier:1.79999990463257
SliderTickRate:2

[Events]
//Background and Video events
Video,0,"D-Frag Opening Subtitle.flv"
0,0,"BG.jpg",0,0
//Break Periods
//Storyboard Layer 0 (Background)
//Storyboard Layer 1 (Fail)
//Storyboard Layer 2 (Pass)
//Storyboard Layer 3 (Foreground)
//Storyboard Sound Samples
//Background Colour Transformations
3,100,163,162,255

[TimingPoints]
541,419.58041958042,4,2,0,40,1,0
50890,-100,4,2,0,50,0,1
71030,-100,4,1,0,40,0,0

[Colours]
Combo1 : 0,128,64
Combo2 : 255,151,255
Combo3 : 82,224,61
Combo4 : 255,164,47

[HitObjects]
104,96,541,6,0,L|104:192,1,89.9999952316285
104,224,960,1,0,0:0:0:0:
104,224,1170,1,0,0:0:0:0:
112,280,1380,2,0,L|200:280,1,44.9999976158143
240,280,1799,1,0,0:0:0:0:
432,96,2219,6,0,L|432:208,1,89.9999952316285
432,232,2638,1,0,0:0:0:0:
432,232,2848,1,0,0:0:0:0:
432,288,3058,2,0,L|344:288,1,44.9999976158143
304,288,3478,1,0,0:0:0:0:
256,240,3897,6,0,L|256:72,1,134.999992847443
256,90,4527,1,0,0:0:0:0:
256,90,4736,2,0,L|168:96,2,44.9999976158143
256,90,5156,2,0,L|336:96,2,44.9999976158143
256,90,5575,1,0,0:0:0:0:
352,128,7254,6,0,P|416:192|344:264,1,179.999990463257
328,192,7883,1,0,0:0:0:0:
328,264,8093,2,0,P|256:184|280:136,1,134.999992847443
360,72,8932,6,0,L|264:72,1,89.9999952316285
200,72,9352,2,0,L|80:72,1,89.9999952316285
56,80,9771,2,0,L|56:176,1,89.9999952316285
56,224,10191,1,0,0:0:0:0:
216,112,10610,6,0,P|192:192|240:272,1,179.999990463257
272,192,11240,1,0,0:0:0:0:
328,120,11450,2,0,P|360:184|304:272,1,179.999990463257
200,184,12289,2,0,L|400:184,1,179.999990463257
264,192,12918,1,0,0:0:0:0:
264,192,13128,1,0,0:0:0:0:
24,64,13967,6,0,L|24:160,1,89.9999952316285
88,152,14387,2,0,L|88:56,1,89.9999952316285
464,56,14806,2,0,L|464:176,1,89.9999952316285
392,152,15226,2,0,L|392:48,1,89.9999952316285
256,112,15645,1,0,0:0:0:0:
256,112,15855,1,0,0:0:0:0:
248,192,16065,2,0,L|176:120,1,89.9999952316285
248,192,16485,2,0,L|328:128,1,89.9999952316285
248,192,16904,2,0,L|248:288,1,89.9999952316285
56,192,17324,5,0,0:0:0:0:
56,192,17429,1,0,0:0:0:0:
56,192,17534,1,0,0:0:0:0:
56,192,17743,2,0,P|96:256|136:256,1,89.9999952316285
176,256,18163,1,0,0:0:0:0:
176,256,18268,1,0,0:0:0:0:
176,256,18373,1,0,0:0:0:0:
240,248,18582,2,0,P|288:208|288:160,1,89.9999952316285
408,304,19002,6,0,P|424:232|408:208,1,89.9999952316285
424,112,19422,2,0,P|352:104|328:120,1,89.9999952316285
232,136,19841,1,0,0:0:0:0:
232,136,19946,1,0,0:0:0:0:
232,136,20051,1,0,0:0:0:0:
232,136,20156,1,0,0:0:0:0:
232,136,20261,1,0,0:0:0:0:
256,184,20680,5,0,0:0:0:0:
256,184,20890,1,0,0:0:0:0:
256,184,21100,1,0,0:0:0:0:
256,184,21310,1,0,0:0:0:0:
256,184,21520,1,0,0:0:0:0:
256,184,21729,1,0,0:0:0:0:
256,184,21939,1,0,0:0:0:0:
256,184,22149,1,0,0:0:0:0:
256,184,22359,1,0,0:0:0:0:
64,64,24037,6,0,L|64:160,1,89.9999952316285
64,224,24457,1,0,0:0:0:0:
128,224,24666,2,0,L|232:224,1,89.9999952316285
280,224,25086,1,0,0:0:0:0:
352,224,25296,2,0,P|432:160|416:80,1,179.999990463257
360,80,25925,1,0,0:0:0:0:
296,80,26135,2,0,L|176:88,3,89.9999952316285
144,88,26974,1,0,0:0:0:0:
400,328,27394,6,0,L|400:272,4,44.9999976158143
408,248,28023,1,0,0:0:0:0:
408,216,28233,2,0,L|416:128,4,44.9999976158143
416,128,28862,1,0,0:0:0:0:
408,48,29072,2,0,L|304:48,1,89.9999952316285
256,56,29492,1,0,0:0:0:0:
200,64,29701,2,0,L|96:64,1,89.9999952316285
48,64,30121,1,0,0:0:0:0:
48,64,30226,1,0,0:0:0:0:
48,64,30331,1,0,0:0:0:0:
264,192,30750,5,0,0:0:0:0:
200,192,30960,1,0,0:0:0:0:
264,128,31170,1,0,0:0:0:0:
264,256,31380,1,0,0:0:0:0:
328,192,31589,1,0,0:0:0:0:
264,192,31799,1,0,0:0:0:0:
264,192,32009,1,0,0:0:0:0:
208,104,32429,2,0,B|64:376|512:368|344:80,1,539.999971389771
256,192,34107,5,0,0:0:0:0:
256,192,34317,1,0,0:0:0:0:
256,192,34527,1,0,0:0:0:0:
256,192,34736,1,0,0:0:0:0:
256,192,34946,1,0,0:0:0:0:
88,56,35575,5,0,0:0:0:0:
80,144,35785,2,0,P|80:208|112:240,1,89.9999952316285
168,192,36205,1,0,0:0:0:0:
176,296,36415,2,0,P|232:264|232:224,1,89.9999952316285
248,168,36834,1,0,0:0:0:0:
312,304,37044,2,0,P|312:248|288:224,1,89.9999952316285
248,168,37464,1,0,0:0:0:0:
128,64,37673,2,0,P|160:136|200:152,1,89.9999952316285
248,168,38093,1,0,0:0:0:0:
376,72,38303,2,0,P|328:88|296:120,1,89.9999952316285
248,168,38722,1,0,0:0:0:0:
72,80,39142,5,0,0:0:0:0:
72,80,39352,1,0,0:0:0:0:
72,80,39561,1,0,0:0:0:0:
168,64,39771,2,0,P|232:80|224:104,1,89.9999952316285
176,128,40191,1,0,0:0:0:0:
80,160,40401,2,0,P|128:208|176:192,1,89.9999952316285
176,128,40820,1,0,0:0:0:0:
176,128,40925,1,0,0:0:0:0:
176,128,41030,1,0,0:0:0:0:
176,128,41135,1,0,0:0:0:0:
176,128,41240,1,0,0:0:0:0:
176,128,41345,1,0,0:0:0:0:
176,128,41450,1,0,0:0:0:0:
400,208,41869,6,0,P|416:128|392:104,1,89.9999952316285
392,64,42289,1,0,0:0:0:0:
296,32,42499,2,0,P|240:64|232:112,1,89.9999952316285
192,192,42918,1,0,0:0:0:0:
192,192,43023,1,0,0:0:0:0:
64,296,43338,2,0,P|128:336|176:328,1,89.9999952316285
208,328,43757,1,0,0:0:0:0:
280,320,43967,2,0,P|336:296|352:248,1,89.9999952316285
360,192,44387,5,0,0:0:0:0:
360,192,44492,1,0,0:0:0:0:
360,192,44596,1,0,0:0:0:0:
472,160,44806,2,0,P|448:104|408:72,1,89.9999952316285
360,64,45226,1,0,0:0:0:0:
288,64,45436,2,0,P|208:80|192:104,1,89.9999952316285
200,168,45855,1,0,0:0:0:0:
200,168,45960,1,0,0:0:0:0:
200,168,46065,1,0,0:0:0:0:
200,168,46170,1,0,0:0:0:0:
200,168,46275,1,0,0:0:0:0:
200,168,46380,1,0,0:0:0:0:
200,168,46485,1,0,0:0:0:0:
144,136,46694,6,0,P|120:176|136:224,1,89.9999952316285
160,272,47114,1,0,0:0:0:0:
224,288,47324,2,0,P|304:288|320:264,1,89.9999952316285
336,232,47743,1,0,0:0:0:0:
336,232,47848,1,0,0:0:0:0:
336,232,47953,1,0,0:0:0:0:
336,232,48058,1,0,0:0:0:0:
336,232,48163,1,0,0:0:0:0:
336,232,48268,1,0,0:0:0:0:
336,232,48373,1,0,0:0:0:0:
256,192,48582,12,0,50051,0:0:0:0:
464,56,50471,6,0,L|360:56,1,89.9999952316285
320,56,50890,1,0,0:0:0:0:
320,56,50995,1,0,0:0:0:0:
320,56,51100,1,0,0:0:0:0:
320,56,51205,1,0,0:0:0:0:
272,56,51520,2,0,P|216:40|152:64,1,89.9999952316285
120,56,51939,1,0,0:0:0:0:
120,56,52044,1,0,0:0:0:0:
120,56,52149,1,0,0:0:0:0:
96,152,52359,6,0,P|64:208|80:240,1,89.9999952316285
88,296,52778,1,0,0:0:0:0:
88,296,52883,1,0,0:0:0:0:
88,296,52988,1,0,0:0:0:0:
88,296,53093,1,0,0:0:0:0:
88,296,53198,1,0,0:0:0:0:
272,144,53408,2,0,P|248:200|256:248,1,89.9999952316285
336,184,53827,5,0,0:0:0:0:
336,184,53932,1,0,0:0:0:0:
336,184,54037,1,0,0:0:0:0:
368,328,54247,2,0,P|296:328|248:296,1,89.9999952316285
168,232,54666,2,0,P|168:160|192:152,1,89.9999952316285
352,104,55086,2,0,P|400:128|400:168,1,89.9999952316285
296,224,55506,1,0,0:0:0:0:
296,224,55715,1,0,0:0:0:0:
296,224,55925,1,0,0:0:0:0:
296,224,56135,1,0,0:0:0:0:
296,224,56345,1,0,0:0:0:0:
296,224,56554,1,0,0:0:0:0:
296,224,56764,1,0,0:0:0:0:
296,224,56974,1,0,0:0:0:0:
392,248,57184,6,0,P|432:192|432:144,1,89.9999952316285
432,104,57603,1,0,0:0:0:0:
392,48,57813,2,0,P|312:32|280:56,1,89.9999952316285
240,48,58233,1,0,0:0:0:0:
160,64,58443,2,0,P|112:120|120:152,1,89.9999952316285
112,200,58862,1,0,0:0:0:0:
112,200,58967,1,0,0:0:0:0:
112,200,59072,1,0,0:0:0:0:
80,272,59282,2,0,L|208:288,1,89.9999952316285
232,288,59701,1,0,0:0:0:0:
304,296,59911,2,0,P|368:288|384:248,1,89.9999952316285
392,200,60331,1,0,0:0:0:0:
392,200,60541,1,0,0:0:0:0:
392,200,60750,1,0,0:0:0:0:
328,96,61170,6,0,P|264:64|224:88,1,89.9999952316285
176,96,61589,1,0,0:0:0:0:
112,136,61799,2,0,P|112:200|136:240,1,89.9999952316285
160,280,62219,1,0,0:0:0:0:
160,280,62429,1,0,0:0:0:0:
224,288,62638,2,0,P|336:232|368:160,1,179.999990463257
368,120,63268,1,0,0:0:0:0:
368,120,63478,1,0,0:0:0:0:
64,80,63897,6,0,L|72:192,2,89.9999952316285
128,80,64527,2,0,P|176:48|216:64,1,89.9999952316285
272,72,64946,1,0,0:0:0:0:
336,176,65156,2,0,P|272:208|232:184,1,89.9999952316285
192,144,65575,1,0,0:0:0:0:
376,64,65785,2,0,P|416:136|416:160,1,89.9999952316285
384,240,66205,1,0,0:0:0:0:
384,240,66415,1,0,0:0:0:0:
384,240,66624,1,0,0:0:0:0:
384,240,66834,1,0,0:0:0:0:
112,232,67254,6,0,L|112:160,2,44.9999976158143
192,288,67673,2,0,P|240:216|240:184,1,89.9999952316285
304,256,68093,1,0,0:0:0:0:
368,168,68303,2,0,P|416:224|400:256,1,89.9999952316285
400,304,68722,1,0,0:0:0:0:
400,304,68932,1,0,0:0:0:0:
400,304,69142,1,0,0:0:0:0:
400,304,69352,1,0,0:0:0:0:
400,304,69561,1,0,0:0:0:0:
400,304,69771,1,0,0:0:0:0:
400,304,69981,1,0,0:0:0:0:
400,304,70191,1,0,0:0:0:0:
400,232,70401,2,0,L|336:176,2,44.9999976158143
112,56,71030,6,0,P|80:112|120:152,1,89.9999952316285
96,200,71450,1,0,0:0:0:0:
192,280,71659,2,0,P|272:248|280:224,1,89.9999952316285
192,200,72079,1,0,0:0:0:0:
216,104,72289,2,0,P|288:96|288:128,1,89.9999952316285
360,176,72708,1,0,0:0:0:0:
104,312,72918,2,0,P|80:240|96:208,1,89.9999952316285
176,256,73338,1,0,0:0:0:0:
256,272,73547,2,0,P|256:208|216:192,1,89.9999952316285
168,160,73967,1,0,0:0:0:0:
96,104,74177,2,0,P|184:48|248:80,1,179.999990463257
244,76,74806,1,0,0:0:0:0:
464,208,75645,6,0,P|432:280|408:304,1,89.9999952316285
384,216,76065,1,0,0:0:0:0:
304,232,76275,2,0,P|336:160|360:144,1,89.9999952316285
216,288,76694,1,0,0:0:0:0:
112,288,76904,2,0,P|128:216|168:192,1,89.9999952316285
208,160,77324,1,0,0:0:0:0:
288,160,77534,2,0,P|288:104|256:80,1,89.9999952316285
184,88,77953,1,0,0:0:0:0:
296,80,78163,2,0,P|352:80|368:136,1,89.9999952316285
368,184,78582,1,0,0:0:0:0:
256,240,78792,2,0,P|192:192|208:160,1,89.9999952316285
256,176,79212,1,0,0:0:0:0:
256,176,79841,5,0,0:0:0:0:
256,176,79946,1,0,0:0:0:0:
256,176,80051,1,0,0:0:0:0:
256,176,80156,1,0,0:0:0:0:
256,176,80261,1,0,0:0:0:0:
184,184,80471,2,0,P|232:104|320:128,1,179.999990463257
256,176,81100,5,0,0:0:0:0:
256,176,81205,1,0,0:0:0:0:
256,176,81310,1,0,0:0:0:0:
256,176,81415,1,0,0:0:0:0:
256,176,81520,1,0,0:0:0:0:
264,264,81729,2,0,P|344:216|328:136,1,179.999990463257
256,176,82359,1,0,0:0:0:0:
128,88,82778,5,0,0:0:0:0:
128,88,82883,1,0,0:0:0:0:
128,88,82988,1,0,0:0:0:0:
128,88,83093,1,0,0:0:0:0:
128,88,83198,1,0,0:0:0:0:
416,96,83408,5,0,0:0:0:0:
416,96,83513,1,0,0:0:0:0:
416,96,83617,1,0,0:0:0:0:
416,96,83722,1,0,0:0:0:0:
416,96,83827,1,0,0:0:0:0:
400,264,84247,5,0,0:0:0:0:
400,264,84352,1,0,0:0:0:0:
400,264,84457,1,0,0:0:0:0:
400,264,84561,1,0,0:0:0:0:
400,264,84666,1,0,0:0:0:0:
128,256,85086,5,0,0:0:0:0:
128,256,85191,1,0,0:0:0:0:
128,256,85296,1,0,0:0:0:0:
128,256,85401,1,0,0:0:0:0:
128,256,85506,1,0,0:0:0:0:
256,192,86135,12,0,88443,0:0:0:0:
248,192,88862,5,0,0:0:0:0:
248,192,88967,1,0,0:0:0:0:
248,192,89072,1,0,0:0:0:0:
