osu file format v12

[General]
AudioFilename: IOSYS - Stalemate.mp3
AudioLeadIn: 0
PreviewTime: 50304
Countdown: 0
SampleSet: Normal
StackLeniency: 0.7
Mode: 0
LetterboxInBreaks: 1
WidescreenStoryboard: 1

[Editor]
DistanceSpacing: 0.6
BeatDivisor: 2
GridSize: 8
TimelineZoom: 1.4

[Metadata]
Title:Stalemate
TitleUnicode:Stalemate
Artist:IOSYS
ArtistUnicode:IOSYS
Creator:gretay
Version:Hard
Source:D-Frag
Tags:Anime , D-Frag , Stalemate , IOSYS
BeatmapID:403507
BeatmapSetID:165140

[Difficulty]
HPDrainRate:6
CircleSize:5
OverallDifficulty:7
ApproachRate:6
SliderMultiplier:1.49999990463257
SliderTickRate:2

[Events]
//Background and Video events
Video,0,"D-Frag Opening Subtitle.flv"
0,0,"BG.jpg",0,0
//Break Periods
//Storyboard Layer 0 (Background)
//Storyboard Layer 1 (Fail)
//Storyboard Layer 2 (Pass)
//Storyboard Layer 3 (Foreground)
//Storyboard Sound Samples
//Background Colour Transformations
3,100,163,162,255

[TimingPoints]
541,419.58041958042,4,1,0,40,1,0
50890,-100,4,1,0,50,0,1
71030,-100,4,1,0,40,0,0

[Colours]
Combo1 : 0,128,64
Combo2 : 255,151,255
Combo3 : 82,224,61
Combo4 : 255,164,47

[HitObjects]
168,152,541,6,0,P|72:112|32:160,2,149.999990463257
232,160,1799,1,0,0:0:0:0:
296,144,2219,2,0,P|368:96|408:152,2,149.999990463257
240,160,3477,1,0,0:0:0:0:
224,216,3895,6,0,P|144:224|152:288,1,149.999990463257
200,272,4732,2,0,P|288:272|280:200,1,149.999990463257
312,144,5575,2,0,L|408:136,2,74.9999952316285
248,32,6415,2,0,L|160:32,2,74.9999952316285
272,216,7254,6,0,L|272:120,1,74.9999952316285
280,72,7673,1,0,0:0:0:0:
216,72,8093,2,0,L|136:72,1,74.9999952316285
80,72,8513,1,0,0:0:0:0:
88,144,8932,6,0,L|88:240,3,74.9999952316285
96,280,9771,2,0,L|184:280,1,74.9999952316285
240,280,10191,1,0,0:0:0:0:
320,280,10610,6,0,P|416:240|400:200,1,149.999990463257
320,192,11450,2,0,P|352:88|320:56,1,149.999990463257
264,120,12289,2,0,L|176:128,3,74.9999952316285
176,48,13128,1,0,0:0:0:0:
80,128,13967,6,0,L|80:40,2,74.9999952316285
80,192,14806,2,0,L|80:288,2,74.9999952316285
192,104,15645,2,0,P|264:40|320:40,1,149.999990463257
272,112,16485,2,0,P|168:216|144:200,1,149.999990463257
432,160,17324,6,0,L|432:248,2,74.9999952316285
368,160,18163,2,0,L|368:256,2,74.9999952316285
320,96,19002,2,0,P|168:56|176:160,1,299.999980926514
264,128,20261,1,0,0:0:0:0:
192,192,20680,1,0,0:0:0:0:
328,192,21100,1,0,0:0:0:0:
256,256,21476,1,0,0:0:0:0:
256,192,21899,1,0,0:0:0:0:
256,192,22321,1,0,0:0:0:0:
64,328,24037,6,0,P|176:288|176:224,1,149.999990463257
88,152,24876,2,0,P|128:64|168:88,1,149.999990463257
280,88,25715,2,0,P|256:200|304:224,1,149.999990463257
344,264,26554,2,0,L|368:176,2,74.9999952316285
440,176,27394,6,0,L|448:80,3,74.9999952316285
392,56,28233,2,0,L|312:56,3,74.9999952316285
240,64,29072,2,0,L|72:64,3,149.999990463257
256,192,30740,5,0,0:0:0:0:
152,184,31163,1,0,0:0:0:0:
256,288,31585,1,0,0:0:0:0:
256,96,32008,1,0,0:0:0:0:
352,192,32430,1,0,0:0:0:0:
264,184,34120,5,0,0:0:0:0:
264,184,34332,1,0,0:0:0:0:
264,184,34543,1,0,0:0:0:0:
264,184,34754,1,0,0:0:0:0:
264,184,34966,1,0,0:0:0:0:
80,48,35366,6,0,P|40:144|80:200,1,149.999990463257
80,256,36205,2,0,P|112:328|176:312,1,149.999990463257
256,304,37044,2,0,P|336:272|376:224,1,149.999990463257
320,200,37883,1,0,0:0:0:0:
408,152,38303,2,0,L|416:64,2,74.9999952316285
336,136,39142,6,0,P|304:56|240:80,1,149.999990463257
160,72,39981,2,0,P|56:128|64:160,1,149.999990463257
168,168,40820,1,0,0:0:0:0:
168,168,41041,1,0,0:0:0:0:
168,168,41240,1,0,0:0:0:0:
168,168,41869,1,0,0:0:0:0:
168,168,42079,1,0,0:0:0:0:
96,152,42499,6,0,P|176:64|280:176,1,299.999980926514
336,184,43757,1,0,0:0:0:0:
424,272,44177,2,0,P|304:312|208:184,1,299.999980926514
312,176,45436,1,0,0:0:0:0:
312,112,45855,6,0,L|304:24,2,74.9999952316285
240,32,46694,2,0,L|240:120,2,74.9999952316285
168,112,47534,2,0,L|168:24,1,74.9999952316285
104,40,47953,2,0,L|104:128,1,74.9999952316285
136,176,48373,1,0,0:0:0:0:
168,232,48792,6,0,P|120:336|64:328,1,149.999990463257
72,272,49631,2,0,P|64:184|128:160,1,149.999990463257
176,168,50471,6,0,L|176:56,1,74.9999952316285
248,112,50890,2,0,L|328:112,1,74.9999952316285
320,32,51295,1,0,0:0:0:0:
432,40,51503,2,0,L|432:136,1,74.9999952316285
496,120,51939,1,0,0:0:0:0:
408,168,52149,2,0,P|472:280|416:320,2,224.999985694885
328,128,53827,6,0,L|240:128,2,74.9999952316285
328,128,54666,1,0,0:0:0:0:
424,136,55086,2,0,P|392:248|224:176,1,299.999980926514
232,120,56345,1,0,0:0:0:0:
152,192,56764,1,0,0:0:0:0:
288,200,57184,1,0,0:0:0:0:
64,136,57603,6,0,L|64:48,2,74.9999952316285
128,64,58233,2,0,L|128:152,2,74.9999952316285
200,144,58862,2,0,L|200:56,2,74.9999952316285
256,112,59492,2,0,L|352:112,1,74.9999952316285
400,128,59911,2,0,P|424:208|376:224,2,149.999990463257
328,112,61170,6,0,L|152:112,1,149.999990463257
96,144,61799,2,0,P|48:216|80:256,1,149.999990463257
160,216,62638,2,0,P|224:128|280:144,1,149.999990463257
336,144,63478,1,0,0:0:0:0:
280,200,63887,6,0,L|288:312,2,74.9999952316285
352,272,64528,2,0,L|352:176,2,74.9999952316285
424,200,65157,2,0,L|424:304,2,74.9999952316285
336,128,65996,2,0,P|288:24|136:80,1,299.999980926514
176,136,67254,6,0,L|96:136,1,74.9999952316285
48,144,67675,2,0,L|48:232,1,74.9999952316285
48,280,68093,2,0,L|48:360,1,74.9999952316285
112,352,68513,2,0,L|112:264,1,74.9999952316285
120,216,68932,2,0,L|120:128,1,74.9999952316285
120,141,69352,1,0,0:0:0:0:
120,141,69771,1,0,0:0:0:0:
120,141,70191,1,0,0:0:0:0:
120,141,70610,1,0,0:0:0:0:
344,112,71030,6,0,P|472:128|400:240,1,299.999980926514
336,192,72289,2,0,P|232:144|344:56,1,299.999980926514
392,72,73547,2,0,P|272:104|264:88,1,149.999990463257
240,32,74387,1,0,0:0:0:0:
192,48,75645,6,0,L|96:48,3,74.9999952316285
64,64,76485,2,0,L|64:160,3,74.9999952316285
136,120,77324,2,0,L|136:208,3,74.9999952316285
64,232,78163,2,0,L|64:328,1,74.9999952316285
128,320,78582,2,0,L|208:312,1,74.9999952316285
264,320,79002,2,0,P|352:312|376:240,1,149.999990463257
320,200,79841,6,0,L|240:208,1,74.9999952316285
184,208,80261,1,0,0:0:0:0:
112,216,80471,2,0,L|112:104,1,74.9999952316285
184,128,80890,1,0,0:0:0:0:
248,136,81100,2,0,L|336:136,1,74.9999952316285
384,136,81520,1,0,0:0:0:0:
416,80,81729,2,0,P|488:168|408:200,1,224.999985694885
256,192,82778,5,0,0:0:0:0:
256,192,82988,1,0,0:0:0:0:
256,192,83408,1,0,0:0:0:0:
256,192,83617,1,0,0:0:0:0:
256,192,83827,1,0,0:0:0:0:
256,192,84247,1,0,0:0:0:0:
256,192,84457,1,0,0:0:0:0:
256,192,84666,1,0,0:0:0:0:
256,192,85086,1,0,0:0:0:0:
256,192,85296,1,0,0:0:0:0:
256,192,85506,1,0,0:0:0:0:
256,192,85715,1,0,0:0:0:0:
256,192,85925,1,0,0:0:0:0:
256,192,86135,1,0,0:0:0:0:
256,192,86554,12,0,88455,0:0:0:0:
256,192,88862,5,0,0:0:0:0:
256,192,89072,1,0,0:0:0:0:
