osu file format v13

[General]
AudioFilename: VocalIOSYS - .mp3
AudioLeadIn: 0
PreviewTime: 66911
Countdown: 1
SampleSet: Normal
StackLeniency: 0.7
Mode: 1
LetterboxInBreaks: 1
WidescreenStoryboard: 0

[Editor]
DistanceSpacing: 0.8
BeatDivisor: 8
GridSize: 8
TimelineZoom: 2.4

[Metadata]
Title:Sadoaiya
TitleUnicode:サードアイや!
Artist:IOSYS
ArtistUnicode:IOSYS
Creator:Stefan
Version:Sugoi Oni
Source:
Tags:knife party bonfire parody dubstep satori komeiji camellia koko lettuce shichijou d.watt nothing but the toho edm 3rd eye maiden subterranean animism stage 4 boss tng thenutritiousguy taiko
BeatmapID:562983
BeatmapSetID:244242

[Difficulty]
HPDrainRate:5
CircleSize:5
OverallDifficulty:5
ApproachRate:5
SliderMultiplier:2.6
SliderTickRate:1

[Events]
//Background and Video events
0,0,"6c9351c99959872d3234249950faa546c26513b42.jpg",0,155
//Break Periods
//Storyboard Layer 0 (Background)
//Storyboard Layer 1 (Fail)
//Storyboard Layer 2 (Pass)
//Storyboard Layer 3 (Foreground)
//Storyboard Sound Samples

[TimingPoints]
705,689.655172413793,4,1,0,65,1,0
705,-111.111111111111,4,1,0,65,0,0
22601,-105.263157894737,4,1,0,65,0,0
22773,-100,4,1,0,80,0,0
66911,-83.3333333333333,4,1,0,80,0,1
75015,-90.9090909090909,4,1,0,80,0,1
75187,-95.2380952380952,4,1,0,80,0,0
75360,-100,4,1,0,80,0,0
77946,-83.3333333333333,4,1,0,80,0,1
86049,-90.9090909090909,4,1,0,80,0,1
86222,-95.2380952380952,4,1,0,80,0,0
86394,-100,4,1,0,80,0,0
111049,-83.3333333333333,4,1,0,80,0,1
119153,-90.9090909090909,4,1,0,80,0,1
119325,-95.2380952380952,4,1,0,80,0,0
119498,-100,4,1,0,80,0,0
122084,-83.3333333333333,4,1,0,80,0,1
130187,-90.9090909090909,4,1,0,80,0,1
130360,-95.2380952380952,4,1,0,80,0,0
130532,-100,4,1,0,80,0,0
166222,-100,4,1,0,65,0,0

[HitObjects]
256,192,705,5,4,0:0:0:0:
256,192,1222,1,0,0:0:0:0:
256,192,1394,1,8,0:0:0:0:
256,192,1739,1,0,0:0:0:0:
256,192,2084,1,8,0:0:0:0:
256,192,2256,1,0,0:0:0:0:
256,192,2429,1,0,0:0:0:0:
256,192,2601,1,0,0:0:0:0:
256,192,2773,1,8,0:0:0:0:
256,192,3118,1,8,0:0:0:0:
256,192,3463,1,4,0:0:0:0:
256,192,3808,1,0,0:0:0:0:
256,192,4153,1,8,0:0:0:0:
256,192,4498,1,0,0:0:0:0:
256,192,4842,1,0,0:0:0:0:
256,192,5187,1,0,0:0:0:0:
256,192,5360,1,0,0:0:0:0:
256,192,5532,1,8,0:0:0:0:
256,192,5877,1,4,0:0:0:0:
256,192,6222,1,4,0:0:0:0:
256,192,6567,1,0,0:0:0:0:
256,192,6911,1,8,0:0:0:0:
256,192,7256,1,0,0:0:0:0:
256,192,7601,1,8,0:0:0:0:
256,192,7773,1,0,0:0:0:0:
256,192,7946,1,0,0:0:0:0:
256,192,8118,1,0,0:0:0:0:
256,192,8291,1,8,0:0:0:0:
256,192,8636,1,8,0:0:0:0:
256,192,8980,1,4,0:0:0:0:
256,192,9498,1,0,0:0:0:0:
256,192,9670,1,8,0:0:0:0:
256,192,10015,1,0,0:0:0:0:
256,192,10360,1,0,0:0:0:0:
256,192,10877,1,0,0:0:0:0:
256,192,11049,1,8,0:0:0:0:
256,192,11394,1,4,0:0:0:0:
256,192,11739,1,4,0:0:0:0:
256,192,12084,1,0,0:0:0:0:
256,192,12256,1,0,0:0:0:0:
256,192,12429,1,8,0:0:0:0:
256,192,12773,1,0,0:0:0:0:
256,192,12946,1,8,0:0:0:0:
256,192,13118,1,0,0:0:0:0:
256,192,13291,1,0,0:0:0:0:
256,192,13463,1,0,0:0:0:0:
256,192,13636,1,0,0:0:0:0:
256,192,13808,1,8,0:0:0:0:
256,192,14153,1,8,0:0:0:0:
256,192,14498,1,0,0:0:0:0:
256,192,14842,1,0,0:0:0:0:
256,192,15015,1,0,0:0:0:0:
256,192,15187,1,8,0:0:0:0:
256,192,15532,1,0,0:0:0:0:
256,192,15877,1,0,0:0:0:0:
256,192,16049,1,0,0:0:0:0:
256,192,16222,1,8,0:0:0:0:
256,192,16394,1,0,0:0:0:0:
256,192,16567,1,8,0:0:0:0:
256,192,16911,1,0,0:0:0:0:
256,192,17256,1,0,0:0:0:0:
256,192,17601,1,0,0:0:0:0:
256,192,17946,1,8,0:0:0:0:
256,192,18291,1,0,0:0:0:0:
256,192,18636,1,8,0:0:0:0:
256,192,18808,1,0,0:0:0:0:
256,192,18980,1,0,0:0:0:0:
256,192,19153,1,0,0:0:0:0:
256,192,19325,1,8,0:0:0:0:
256,192,19670,1,8,0:0:0:0:
256,192,20015,1,0,0:0:0:0:
256,192,20360,1,0,0:0:0:0:
256,192,20532,1,0,0:0:0:0:
256,192,20704,1,8,0:0:0:0:
256,192,21049,1,0,0:0:0:0:
256,192,21394,1,0,0:0:0:0:
256,192,21739,1,0,0:0:0:0:
256,192,21911,1,0,0:0:0:0:
256,192,22084,1,8,0:0:0:0:
256,192,22256,1,0,0:0:0:0:
256,192,22342,1,0,0:0:0:0:
256,192,22429,1,0,0:0:0:0:
256,192,22601,1,0,0:0:0:0:
252,204,22773,1,4,0:0:0:0:
252,204,22946,1,8,0:0:0:0:
252,204,23118,1,0,0:0:0:0:
252,204,23291,1,0,0:0:0:0:
252,204,23463,1,8,0:0:0:0:
372,308,23636,1,0,0:0:0:0:
372,308,23722,1,0,0:0:0:0:
372,308,23808,1,8,0:0:0:0:
372,308,23980,1,0,0:0:0:0:
372,308,24153,1,8,0:0:0:0:
372,308,24239,1,0,0:0:0:0:
372,308,24325,1,8,0:0:0:0:
372,308,24411,1,0,0:0:0:0:
304,184,24498,1,8,0:0:0:0:
376,296,24670,1,0,0:0:0:0:
376,296,24842,1,8,0:0:0:0:
372,308,24929,1,0,0:0:0:0:
376,296,25015,1,0,0:0:0:0:
376,296,25187,1,8,0:0:0:0:
376,296,25532,1,8,0:0:0:0:
376,296,25704,1,0,0:0:0:0:
320,256,25877,1,8,0:0:0:0:
320,256,26049,1,0,0:0:0:0:
376,232,26222,1,8,0:0:0:0:
376,232,26308,1,8,0:0:0:0:
288,128,26394,1,0,0:0:0:0:
320,256,26480,1,0,0:0:0:0:
312,264,26567,1,8,0:0:0:0:
320,256,26739,1,0,0:0:0:0:
64,96,26911,1,8,0:0:0:0:
352,128,27084,1,0,0:0:0:0:
288,160,27256,1,8,0:0:0:0:
288,160,27342,1,0,0:0:0:0:
288,160,27429,1,8,0:0:0:0:
288,160,27601,1,8,0:0:0:0:
280,200,27773,1,0,0:0:0:0:
160,224,27946,1,8,0:0:0:0:
252,204,28291,1,4,0:0:0:0:
252,204,28463,1,8,0:0:0:0:
252,204,28549,1,0,0:0:0:0:
252,204,28636,1,0,0:0:0:0:
252,204,28808,1,0,0:0:0:0:
252,204,28980,1,8,0:0:0:0:
252,204,29153,1,0,0:0:0:0:
252,204,29239,1,0,0:0:0:0:
256,192,29325,1,8,0:0:0:0:
252,204,29498,1,0,0:0:0:0:
252,204,29670,1,8,0:0:0:0:
252,204,29842,1,0,0:0:0:0:
252,204,29929,1,0,0:0:0:0:
304,184,30015,1,8,0:0:0:0:
256,160,30187,1,0,0:0:0:0:
320,160,30360,1,8,0:0:0:0:
252,204,30446,1,0,0:0:0:0:
200,152,30532,1,0,0:0:0:0:
256,192,30618,1,0,0:0:0:0:
256,192,30704,1,8,0:0:0:0:
256,192,31049,1,0,0:0:0:0:
256,192,31394,1,8,0:0:0:0:
256,192,31567,1,0,0:0:0:0:
236,224,31739,1,8,0:0:0:0:
236,224,31911,1,8,0:0:0:0:
256,192,31998,1,0,0:0:0:0:
256,192,32084,1,8,0:0:0:0:
256,192,32256,1,0,0:0:0:0:
256,192,32429,1,8,0:0:0:0:
256,192,32773,1,8,0:0:0:0:
256,192,32860,1,0,0:0:0:0:
256,192,32946,1,0,0:0:0:0:
256,192,33032,1,8,0:0:0:0:
256,192,33118,1,0,0:0:0:0:
276,160,33291,1,8,0:0:0:0:
320,256,33636,1,8,0:0:0:0:
364,264,33808,1,4,0:0:0:0:
240,160,33980,1,0,0:0:0:0:
240,160,34067,1,0,0:0:0:0:
372,268,34153,1,8,0:0:0:0:
320,240,34325,1,0,0:0:0:0:
372,268,34498,1,8,0:0:0:0:
372,268,34584,1,0,0:0:0:0:
320,240,34670,1,8,0:0:0:0:
240,160,34756,1,0,0:0:0:0:
240,160,34842,1,8,0:0:0:0:
180,168,35015,1,0,0:0:0:0:
96,256,35187,1,8,0:0:0:0:
332,216,35360,1,0,0:0:0:0:
332,216,35446,1,0,0:0:0:0:
332,216,35532,1,8,0:0:0:0:
180,168,35704,1,0,0:0:0:0:
180,168,35877,1,8,0:0:0:0:
240,160,36222,1,8,0:0:0:0:
208,144,36308,1,8,0:0:0:0:
208,144,36394,1,0,0:0:0:0:
208,144,36567,1,8,0:0:0:0:
208,144,36739,1,0,0:0:0:0:
352,288,36911,1,8,0:0:0:0:
352,256,37084,1,0,0:0:0:0:
352,256,37256,1,8,0:0:0:0:
352,256,37342,1,0,0:0:0:0:
352,256,37429,1,8,0:0:0:0:
352,256,37515,1,0,0:0:0:0:
180,168,37601,1,8,0:0:0:0:
352,256,37773,1,0,0:0:0:0:
352,256,37946,1,8,0:0:0:0:
352,288,38032,1,0,0:0:0:0:
256,128,38118,1,0,0:0:0:0:
256,128,38204,1,8,0:0:0:0:
256,128,38291,1,0,0:0:0:0:
256,128,38463,1,8,0:0:0:0:
136,176,38636,1,8,0:0:0:0:
136,176,38722,1,0,0:0:0:0:
136,176,38808,1,0,0:0:0:0:
136,176,38980,1,8,0:0:0:0:
364,264,39325,1,4,0:0:0:0:
240,160,39498,1,0,0:0:0:0:
240,160,39584,1,0,0:0:0:0:
372,268,39670,1,8,0:0:0:0:
320,240,39842,1,0,0:0:0:0:
372,268,40015,1,8,0:0:0:0:
372,268,40101,1,0,0:0:0:0:
320,240,40187,1,8,0:0:0:0:
240,160,40273,1,0,0:0:0:0:
240,160,40360,1,8,0:0:0:0:
180,168,40532,1,0,0:0:0:0:
96,256,40704,1,8,0:0:0:0:
332,216,40877,1,0,0:0:0:0:
332,216,40963,1,0,0:0:0:0:
332,216,41049,1,8,0:0:0:0:
180,168,41222,1,0,0:0:0:0:
180,168,41394,1,8,0:0:0:0:
240,160,41739,1,8,0:0:0:0:
256,192,42084,1,0,0:0:0:0:
256,192,42429,1,8,0:0:0:0:
256,192,42601,1,0,0:0:0:0:
236,224,42773,1,8,0:0:0:0:
236,224,42946,1,8,0:0:0:0:
256,192,43032,1,0,0:0:0:0:
256,192,43118,1,8,0:0:0:0:
256,192,43291,1,0,0:0:0:0:
256,192,43463,1,8,0:0:0:0:
256,192,43808,1,8,0:0:0:0:
256,192,43894,1,0,0:0:0:0:
256,192,43980,1,0,0:0:0:0:
256,192,44067,1,8,0:0:0:0:
256,192,44153,1,0,0:0:0:0:
276,160,44325,1,8,0:0:0:0:
256,192,44842,1,4,0:0:0:0:
256,192,45187,1,4,0:0:0:0:
256,192,45532,1,0,0:0:0:0:
256,192,45704,1,0,0:0:0:0:
256,192,45877,1,8,0:0:0:0:
256,192,46222,1,0,0:0:0:0:
256,192,46394,1,0,0:0:0:0:
256,192,46567,1,8,0:0:0:0:
256,192,46739,1,8,0:0:0:0:
256,192,47084,1,4,0:0:0:0:
256,192,47429,1,0,0:0:0:0:
256,192,47601,1,4,0:0:0:0:
256,192,47946,1,4,0:0:0:0:
256,192,48118,1,0,0:0:0:0:
256,192,48291,1,0,0:0:0:0:
256,192,48636,1,8,0:0:0:0:
256,192,48980,1,0,0:0:0:0:
256,192,49325,1,8,0:0:0:0:
256,192,49498,1,8,0:0:0:0:
256,192,49842,1,0,0:0:0:0:
256,192,50015,1,8,0:0:0:0:
256,192,50187,1,0,0:0:0:0:
256,192,50360,1,4,0:0:0:0:
256,192,50704,1,8,0:0:0:0:
256,192,51049,1,0,0:0:0:0:
256,192,51222,1,0,0:0:0:0:
256,192,51394,1,8,0:0:0:0:
256,192,51739,1,0,0:0:0:0:
256,192,51911,1,0,0:0:0:0:
256,192,52084,1,8,0:0:0:0:
256,192,52256,1,8,0:0:0:0:
256,192,52601,1,4,0:0:0:0:
256,192,52946,1,0,0:0:0:0:
256,192,53118,1,4,0:0:0:0:
256,192,53463,1,4,0:0:0:0:
256,192,53636,1,0,0:0:0:0:
256,192,53808,1,0,0:0:0:0:
256,192,54153,1,8,0:0:0:0:
256,192,54498,1,0,0:0:0:0:
256,192,54842,1,8,0:0:0:0:
256,192,55015,1,8,0:0:0:0:
256,192,55360,1,0,0:0:0:0:
256,192,55532,1,8,0:0:0:0:
256,192,55704,1,0,0:0:0:0:
256,192,55877,1,4,0:0:0:0:
256,192,56222,1,4,0:0:0:0:
256,192,56567,1,4,0:0:0:0:
256,192,56739,1,4,0:0:0:0:
256,192,56911,1,4,0:0:0:0:
256,192,57256,1,4,0:0:0:0:
256,192,57601,1,4,0:0:0:0:
256,192,57773,1,4,0:0:0:0:
256,192,58118,1,4,0:0:0:0:
256,192,58291,1,4,0:0:0:0:
256,192,58636,1,4,0:0:0:0:
256,192,58980,1,4,0:0:0:0:
256,192,59325,1,4,0:0:0:0:
256,192,59498,1,4,0:0:0:0:
256,192,59670,1,4,0:0:0:0:
256,192,60015,1,4,0:0:0:0:
256,192,60360,1,4,0:0:0:0:
256,192,60532,1,4,0:0:0:0:
256,192,60877,1,4,0:0:0:0:
256,192,61049,1,4,0:0:0:0:
256,192,61394,1,4,0:0:0:0:
256,192,61567,1,0,0:0:0:0:
256,192,61653,1,0,0:0:0:0:
256,192,61739,1,8,0:0:0:0:
256,192,61911,1,0,0:0:0:0:
256,192,62084,1,4,0:0:0:0:
256,192,62256,1,0,0:0:0:0:
256,192,62342,1,0,0:0:0:0:
256,192,62429,1,8,0:0:0:0:
256,192,62601,1,0,0:0:0:0:
256,192,62773,1,4,0:0:0:0:
256,192,62946,1,0,0:0:0:0:
256,192,63032,1,0,0:0:0:0:
256,192,63118,1,8,0:0:0:0:
256,192,63291,1,0,0:0:0:0:
256,192,63463,1,4,0:0:0:0:
256,192,63636,1,0,0:0:0:0:
256,192,63722,1,0,0:0:0:0:
256,192,63808,1,8,0:0:0:0:
256,192,63980,1,0,0:0:0:0:
256,192,64153,1,8,0:0:0:0:
256,192,64239,1,0,0:0:0:0:
256,192,64325,1,0,0:0:0:0:
256,192,64411,1,0,0:0:0:0:
256,192,64498,1,8,0:0:0:0:
256,192,64584,1,0,0:0:0:0:
256,192,64670,1,8,0:0:0:0:
256,192,64756,1,0,0:0:0:0:
256,192,64842,1,8,0:0:0:0:
256,192,64929,1,0,0:0:0:0:
256,192,65015,1,8,0:0:0:0:
256,192,65101,1,0,0:0:0:0:
256,192,65187,1,8,0:0:0:0:
256,192,65273,1,0,0:0:0:0:
256,192,65360,1,8,0:0:0:0:
256,192,65446,1,0,0:0:0:0:
256,192,65532,1,8,0:0:0:0:
256,192,66567,1,8,0:0:0:0:
256,192,66911,1,8,0:0:0:0:
256,192,66998,1,0,0:0:0:0:
256,192,67084,1,0,0:0:0:0:
256,192,67170,1,0,0:0:0:0:
256,192,67256,1,0,0:0:0:0:
256,192,67342,1,0,0:0:0:0:
256,192,67429,1,0,0:0:0:0:
256,192,67515,1,0,0:0:0:0:
256,192,67601,1,8,0:0:0:0:
256,192,67687,1,0,0:0:0:0:
256,192,67773,1,8,0:0:0:0:
256,192,67860,1,0,0:0:0:0:
256,192,67946,1,8,0:0:0:0:
256,192,68032,1,0,0:0:0:0:
256,192,68118,1,8,0:0:0:0:
256,192,68291,1,0,0:0:0:0:
256,192,68463,1,0,0:0:0:0:
256,192,68549,1,0,0:0:0:0:
256,192,68636,1,8,0:0:0:0:
256,192,68808,1,0,0:0:0:0:
256,192,68980,1,8,0:0:0:0:
256,192,69153,1,0,0:0:0:0:
256,192,69239,1,0,0:0:0:0:
256,192,69325,1,8,0:0:0:0:
256,192,69411,1,0,0:0:0:0:
256,192,69498,1,8,0:0:0:0:
256,192,69670,1,4,0:0:0:0:
256,192,70360,1,8,0:0:0:0:
256,192,70446,1,0,0:0:0:0:
256,192,70532,1,8,0:0:0:0:
256,192,70618,1,0,0:0:0:0:
256,192,70705,1,8,0:0:0:0:
256,192,70791,1,0,0:0:0:0:
256,192,70877,1,8,0:0:0:0:
256,192,71049,1,0,0:0:0:0:
256,192,71222,1,0,0:0:0:0:
256,192,71308,1,0,0:0:0:0:
256,192,71394,1,8,0:0:0:0:
256,192,71480,1,0,0:0:0:0:
256,192,71567,1,0,0:0:0:0:
256,192,71739,1,8,0:0:0:0:
256,192,71911,1,0,0:0:0:0:
256,192,71998,1,0,0:0:0:0:
256,192,72084,1,8,0:0:0:0:
256,192,72256,1,8,0:0:0:0:
256,192,72429,1,4,0:0:0:0:
256,192,72601,1,8,0:0:0:0:
256,192,72773,1,8,0:0:0:0:
256,192,72946,1,8,0:0:0:0:
256,192,73118,1,8,0:0:0:0:
256,192,73205,1,0,0:0:0:0:
256,192,73291,1,8,0:0:0:0:
256,192,73377,1,0,0:0:0:0:
256,192,73463,1,8,0:0:0:0:
256,192,73549,1,0,0:0:0:0:
256,192,73636,1,8,0:0:0:0:
256,192,73722,1,0,0:0:0:0:
256,192,73808,1,0,0:0:0:0:
256,192,73980,1,8,0:0:0:0:
256,192,74067,1,0,0:0:0:0:
256,192,74153,1,8,0:0:0:0:
256,192,74325,1,8,0:0:0:0:
256,192,74498,1,8,0:0:0:0:
256,192,74670,1,0,0:0:0:0:
256,192,74756,1,0,0:0:0:0:
256,192,74842,1,0,0:0:0:0:
256,192,75015,1,0,0:0:0:0:
256,192,75187,1,4,0:0:0:0:
256,192,75360,1,0,0:0:0:0:
256,192,75446,1,0,0:0:0:0:
256,192,75532,1,8,0:0:0:0:
256,192,75618,1,8,0:0:0:0:
256,192,75705,1,8,0:0:0:0:
256,192,75791,1,8,0:0:0:0:
256,192,75877,1,0,0:0:0:0:
256,192,76049,1,0,0:0:0:0:
256,192,76136,1,0,0:0:0:0:
256,192,76222,1,0,0:0:0:0:
256,192,76394,1,0,0:0:0:0:
256,192,76567,1,8,0:0:0:0:
256,192,76911,1,8,0:0:0:0:
256,192,77084,1,8,0:0:0:0:
256,192,77429,1,8,0:0:0:0:
256,192,77946,1,8,0:0:0:0:
256,192,78032,1,0,0:0:0:0:
256,192,78118,1,0,0:0:0:0:
256,192,78205,1,0,0:0:0:0:
256,192,78291,1,0,0:0:0:0:
256,192,78377,1,0,0:0:0:0:
256,192,78463,1,0,0:0:0:0:
256,192,78549,1,0,0:0:0:0:
256,192,78636,1,8,0:0:0:0:
256,192,78722,1,0,0:0:0:0:
256,192,78808,1,8,0:0:0:0:
256,192,78894,1,0,0:0:0:0:
256,192,78980,1,8,0:0:0:0:
256,192,79067,1,0,0:0:0:0:
256,192,79153,1,8,0:0:0:0:
256,192,79325,1,0,0:0:0:0:
256,192,79498,1,0,0:0:0:0:
256,192,79584,1,0,0:0:0:0:
256,192,79670,1,8,0:0:0:0:
256,192,79842,1,0,0:0:0:0:
256,192,80015,1,8,0:0:0:0:
256,192,80187,1,0,0:0:0:0:
256,192,80273,1,0,0:0:0:0:
256,192,80360,1,8,0:0:0:0:
256,192,80446,1,0,0:0:0:0:
256,192,80532,1,8,0:0:0:0:
256,192,80705,1,4,0:0:0:0:
256,192,81394,1,8,0:0:0:0:
256,192,81480,1,0,0:0:0:0:
256,192,81567,1,8,0:0:0:0:
256,192,81653,1,0,0:0:0:0:
256,192,81739,1,8,0:0:0:0:
256,192,81825,1,0,0:0:0:0:
256,192,81911,1,8,0:0:0:0:
256,192,82084,1,0,0:0:0:0:
256,192,82256,1,0,0:0:0:0:
256,192,82342,1,0,0:0:0:0:
256,192,82429,1,8,0:0:0:0:
256,192,82515,1,0,0:0:0:0:
256,192,82601,1,0,0:0:0:0:
256,192,82773,1,8,0:0:0:0:
256,192,82946,1,0,0:0:0:0:
256,192,83032,1,0,0:0:0:0:
256,192,83118,1,8,0:0:0:0:
256,192,83291,1,8,0:0:0:0:
256,192,83463,1,4,0:0:0:0:
256,192,83636,1,8,0:0:0:0:
256,192,83808,1,8,0:0:0:0:
256,192,83980,1,8,0:0:0:0:
256,192,84153,1,8,0:0:0:0:
256,192,84239,1,0,0:0:0:0:
256,192,84325,1,8,0:0:0:0:
256,192,84411,1,0,0:0:0:0:
256,192,84498,1,8,0:0:0:0:
256,192,84584,1,0,0:0:0:0:
256,192,84670,1,8,0:0:0:0:
256,192,84756,1,0,0:0:0:0:
256,192,84842,1,0,0:0:0:0:
256,192,85015,1,8,0:0:0:0:
256,192,85101,1,0,0:0:0:0:
256,192,85187,1,8,0:0:0:0:
256,192,85360,1,8,0:0:0:0:
256,192,85532,1,8,0:0:0:0:
256,192,85705,1,0,0:0:0:0:
256,192,85791,1,0,0:0:0:0:
256,192,85877,1,0,0:0:0:0:
256,192,86049,1,0,0:0:0:0:
256,192,86222,1,4,0:0:0:0:
256,192,86394,1,0,0:0:0:0:
256,192,86480,1,0,0:0:0:0:
256,192,86567,1,8,0:0:0:0:
256,192,86653,1,8,0:0:0:0:
256,192,86739,1,8,0:0:0:0:
256,192,86825,1,8,0:0:0:0:
256,192,86911,1,0,0:0:0:0:
256,192,87084,1,0,0:0:0:0:
256,192,87170,1,0,0:0:0:0:
256,192,87256,1,0,0:0:0:0:
256,192,87429,1,0,0:0:0:0:
256,192,87601,1,8,0:0:0:0:
256,192,87946,1,8,0:0:0:0:
256,192,88118,1,8,0:0:0:0:
256,192,88463,1,8,0:0:0:0:
200,156,88980,1,4,0:0:0:0:
200,156,89152,1,0,0:0:0:0:
200,156,89324,1,8,0:0:0:0:
164,180,89497,1,0,0:0:0:0:
200,156,89584,1,8,0:0:0:0:
164,180,89669,1,0,0:0:0:0:
200,156,89842,1,0,0:0:0:0:
200,156,90015,1,8,0:0:0:0:
164,180,90187,1,0,0:0:0:0:
200,156,90359,1,8,0:0:0:0:
200,156,90532,1,8,0:0:0:0:
200,156,90704,1,0,0:0:0:0:
200,156,90876,1,8,0:0:0:0:
200,156,91049,1,8,0:0:0:0:
200,156,91393,1,0,0:0:0:0:
240,192,91738,1,0,0:0:0:0:
200,156,91911,1,0,0:0:0:0:
200,156,91997,1,0,0:0:0:0:
200,156,92083,1,8,0:0:0:0:
240,192,92255,1,8,0:0:0:0:
200,156,92342,1,0,0:0:0:0:
200,156,92428,1,8,0:0:0:0:
200,156,92601,1,0,0:0:0:0:
200,156,92773,1,0,0:0:0:0:
200,156,92946,1,8,0:0:0:0:
240,192,93117,1,8,0:0:0:0:
240,192,93204,1,0,0:0:0:0:
64,176,93290,1,8,0:0:0:0:
240,192,93377,1,0,0:0:0:0:
240,192,93462,1,8,0:0:0:0:
64,176,93549,1,0,0:0:0:0:
240,192,93635,1,8,0:0:0:0:
88,156,93808,1,8,0:0:0:0:
200,156,93980,1,0,0:0:0:0:
240,192,94152,1,12,0:0:0:0:
200,156,94325,1,0,0:0:0:0:
120,172,94497,1,4,0:0:0:0:
240,192,94670,1,0,0:0:0:0:
120,172,94842,1,8,0:0:0:0:
120,172,94929,1,0,0:0:0:0:
120,172,95014,1,0,0:0:0:0:
120,172,95101,1,0,0:0:0:0:
120,172,95186,1,8,0:0:0:0:
240,192,95359,1,0,0:0:0:0:
240,192,95531,1,8,0:0:0:0:
240,192,95704,1,0,0:0:0:0:
120,172,95877,1,8,0:0:0:0:
240,192,95962,1,8,0:0:0:0:
120,172,96049,1,0,0:0:0:0:
120,172,96221,1,0,0:0:0:0:
240,192,96394,1,8,0:0:0:0:
120,172,96566,1,8,0:0:0:0:
120,172,96911,1,0,0:0:0:0:
240,192,97255,1,0,0:0:0:0:
240,192,97600,1,8,0:0:0:0:
120,172,97773,1,0,0:0:0:0:
240,192,97860,1,0,0:0:0:0:
120,172,97945,1,8,0:0:0:0:
120,172,98118,1,0,0:0:0:0:
240,192,98290,1,8,0:0:0:0:
120,172,98463,1,0,0:0:0:0:
120,172,98635,1,8,0:0:0:0:
120,172,98722,1,0,0:0:0:0:
120,172,98808,1,0,0:0:0:0:
240,192,98980,1,8,0:0:0:0:
120,172,99067,1,0,0:0:0:0:
240,192,99152,1,8,0:0:0:0:
120,172,99324,1,8,0:0:0:0:
120,172,99497,1,0,0:0:0:0:
120,172,99583,1,0,0:0:0:0:
52,172,99670,1,8,0:0:0:0:
52,172,99842,1,0,0:0:0:0:
200,156,100015,1,4,0:0:0:0:
200,156,100187,1,0,0:0:0:0:
200,156,100359,1,8,0:0:0:0:
164,180,100532,1,0,0:0:0:0:
200,156,100619,1,8,0:0:0:0:
164,180,100704,1,0,0:0:0:0:
200,156,100877,1,0,0:0:0:0:
200,156,101050,1,8,0:0:0:0:
164,180,101222,1,0,0:0:0:0:
200,156,101394,1,8,0:0:0:0:
200,156,101567,1,8,0:0:0:0:
200,156,101739,1,0,0:0:0:0:
200,156,101911,1,8,0:0:0:0:
200,156,102084,1,8,0:0:0:0:
200,156,102428,1,0,0:0:0:0:
240,192,102773,1,0,0:0:0:0:
200,156,102946,1,0,0:0:0:0:
200,156,103032,1,0,0:0:0:0:
200,156,103118,1,8,0:0:0:0:
240,192,103290,1,8,0:0:0:0:
200,156,103377,1,0,0:0:0:0:
200,156,103463,1,8,0:0:0:0:
200,156,103636,1,0,0:0:0:0:
200,156,103808,1,0,0:0:0:0:
200,156,103981,1,8,0:0:0:0:
240,192,104152,1,8,0:0:0:0:
240,192,104239,1,0,0:0:0:0:
64,176,104325,1,8,0:0:0:0:
240,192,104412,1,0,0:0:0:0:
240,192,104497,1,8,0:0:0:0:
64,176,104584,1,0,0:0:0:0:
240,192,104670,1,8,0:0:0:0:
88,156,104843,1,8,0:0:0:0:
200,156,105015,1,0,0:0:0:0:
240,192,105187,1,4,0:0:0:0:
200,156,105360,1,0,0:0:0:0:
120,172,105532,1,4,0:0:0:0:
240,192,105705,1,0,0:0:0:0:
120,172,105877,1,8,0:0:0:0:
120,172,105964,1,0,0:0:0:0:
120,172,106049,1,0,0:0:0:0:
120,172,106136,1,0,0:0:0:0:
120,172,106221,1,8,0:0:0:0:
240,192,106394,1,0,0:0:0:0:
240,192,106566,1,8,0:0:0:0:
240,192,106739,1,0,0:0:0:0:
120,172,106912,1,8,0:0:0:0:
240,192,106997,1,8,0:0:0:0:
120,172,107084,1,0,0:0:0:0:
120,172,107256,1,0,0:0:0:0:
240,192,107429,1,8,0:0:0:0:
120,172,107601,1,8,0:0:0:0:
120,172,107946,1,0,0:0:0:0:
176,236,108290,1,8,0:0:0:0:
176,236,108376,1,0,0:0:0:0:
176,236,108462,1,8,0:0:0:0:
176,236,108549,1,0,0:0:0:0:
176,236,108635,1,0,0:0:0:0:
176,236,108721,1,0,0:0:0:0:
176,236,108807,1,8,0:0:0:0:
176,236,108893,1,0,0:0:0:0:
176,236,108980,1,8,0:0:0:0:
136,196,109066,1,0,0:0:0:0:
176,236,109152,1,8,0:0:0:0:
176,236,109238,1,0,0:0:0:0:
176,236,109324,1,8,0:0:0:0:
136,196,109411,1,0,0:0:0:0:
276,216,109498,1,8,0:0:0:0:
276,216,109583,1,0,0:0:0:0:
276,216,109670,1,8,0:0:0:0:
276,216,110015,1,8,0:0:0:0:
276,216,110187,1,8,0:0:0:0:
276,216,110532,1,8,0:0:0:0:
256,192,111049,1,8,0:0:0:0:
256,192,111136,1,0,0:0:0:0:
256,192,111222,1,0,0:0:0:0:
256,192,111308,1,0,0:0:0:0:
256,192,111394,1,0,0:0:0:0:
256,192,111480,1,0,0:0:0:0:
256,192,111567,1,0,0:0:0:0:
256,192,111653,1,0,0:0:0:0:
256,192,111739,1,8,0:0:0:0:
256,192,111825,1,0,0:0:0:0:
256,192,111911,1,8,0:0:0:0:
256,192,111998,1,0,0:0:0:0:
256,192,112084,1,8,0:0:0:0:
256,192,112170,1,0,0:0:0:0:
256,192,112256,1,8,0:0:0:0:
256,192,112429,1,8,0:0:0:0:
256,192,112601,1,0,0:0:0:0:
256,192,112687,1,0,0:0:0:0:
256,192,112773,1,8,0:0:0:0:
256,192,112946,1,0,0:0:0:0:
256,192,113118,1,8,0:0:0:0:
256,192,113205,1,0,0:0:0:0:
256,192,113291,1,0,0:0:0:0:
256,192,113377,1,0,0:0:0:0:
256,192,113463,1,8,0:0:0:0:
256,192,113549,1,8,0:0:0:0:
256,192,113636,1,8,0:0:0:0:
256,192,113808,1,4,0:0:0:0:
256,192,114498,1,8,0:0:0:0:
256,192,114584,1,0,0:0:0:0:
256,192,114670,1,8,0:0:0:0:
256,192,114756,1,0,0:0:0:0:
256,192,114842,1,8,0:0:0:0:
256,192,114929,1,0,0:0:0:0:
256,192,115015,1,8,0:0:0:0:
256,192,115187,1,8,0:0:0:0:
256,192,115360,1,0,0:0:0:0:
256,192,115446,1,0,0:0:0:0:
256,192,115532,1,8,0:0:0:0:
256,192,115704,1,0,0:0:0:0:
256,192,115877,1,8,0:0:0:0:
256,192,115963,1,0,0:0:0:0:
256,192,116049,1,0,0:0:0:0:
256,192,116136,1,0,0:0:0:0:
256,192,116222,1,8,0:0:0:0:
256,192,116394,1,8,0:0:0:0:
256,192,116567,1,4,0:0:0:0:
256,192,116739,1,8,0:0:0:0:
256,192,116825,1,0,0:0:0:0:
256,192,116911,1,8,0:0:0:0:
256,192,117084,1,8,0:0:0:0:
256,192,117256,1,8,0:0:0:0:
256,192,117342,1,0,0:0:0:0:
256,192,117429,1,8,0:0:0:0:
256,192,117515,1,0,0:0:0:0:
256,192,117601,1,8,0:0:0:0:
256,192,117687,1,0,0:0:0:0:
256,192,117773,1,8,0:0:0:0:
256,192,117860,1,0,0:0:0:0:
256,192,117946,1,0,0:0:0:0:
256,192,118118,1,8,0:0:0:0:
256,192,118205,1,0,0:0:0:0:
256,192,118291,1,8,0:0:0:0:
256,192,118463,1,8,0:0:0:0:
256,192,118636,1,8,0:0:0:0:
256,192,118808,1,0,0:0:0:0:
256,192,118894,1,0,0:0:0:0:
256,192,118980,1,8,0:0:0:0:
256,192,119153,1,0,0:0:0:0:
256,192,119325,1,4,0:0:0:0:
256,192,119498,1,0,0:0:0:0:
256,192,119584,1,0,0:0:0:0:
256,192,119670,1,8,0:0:0:0:
256,192,119756,1,8,0:0:0:0:
256,192,119842,1,8,0:0:0:0:
256,192,119929,1,8,0:0:0:0:
256,192,120015,1,0,0:0:0:0:
256,192,120187,1,0,0:0:0:0:
256,192,120273,1,0,0:0:0:0:
256,192,120360,1,0,0:0:0:0:
256,192,120532,1,0,0:0:0:0:
256,192,120704,1,8,0:0:0:0:
256,192,121049,1,8,0:0:0:0:
256,192,121222,1,8,0:0:0:0:
256,192,121567,1,8,0:0:0:0:
256,192,122084,1,8,0:0:0:0:
256,192,122170,1,0,0:0:0:0:
256,192,122256,1,0,0:0:0:0:
256,192,122342,1,0,0:0:0:0:
256,192,122429,1,0,0:0:0:0:
256,192,122515,1,0,0:0:0:0:
256,192,122601,1,0,0:0:0:0:
256,192,122687,1,0,0:0:0:0:
256,192,122773,1,8,0:0:0:0:
256,192,122860,1,0,0:0:0:0:
256,192,122946,1,8,0:0:0:0:
256,192,123032,1,0,0:0:0:0:
256,192,123118,1,8,0:0:0:0:
256,192,123204,1,0,0:0:0:0:
256,192,123291,1,8,0:0:0:0:
256,192,123463,1,8,0:0:0:0:
256,192,123636,1,0,0:0:0:0:
256,192,123722,1,0,0:0:0:0:
256,192,123808,1,8,0:0:0:0:
256,192,123980,1,0,0:0:0:0:
256,192,124153,1,8,0:0:0:0:
256,192,124239,1,0,0:0:0:0:
256,192,124325,1,0,0:0:0:0:
256,192,124411,1,0,0:0:0:0:
256,192,124498,1,8,0:0:0:0:
256,192,124584,1,8,0:0:0:0:
256,192,124670,1,8,0:0:0:0:
256,192,124842,1,4,0:0:0:0:
256,192,125532,1,8,0:0:0:0:
256,192,125618,1,0,0:0:0:0:
256,192,125704,1,8,0:0:0:0:
256,192,125791,1,0,0:0:0:0:
256,192,125877,1,8,0:0:0:0:
256,192,125963,1,0,0:0:0:0:
256,192,126049,1,8,0:0:0:0:
256,192,126222,1,8,0:0:0:0:
256,192,126394,1,0,0:0:0:0:
256,192,126480,1,0,0:0:0:0:
256,192,126567,1,8,0:0:0:0:
256,192,126739,1,0,0:0:0:0:
256,192,126911,1,8,0:0:0:0:
256,192,126998,1,0,0:0:0:0:
256,192,127084,1,0,0:0:0:0:
256,192,127170,1,0,0:0:0:0:
256,192,127256,1,8,0:0:0:0:
256,192,127429,1,8,0:0:0:0:
256,192,127601,1,4,0:0:0:0:
256,192,127773,1,8,0:0:0:0:
256,192,127860,1,0,0:0:0:0:
256,192,127946,1,8,0:0:0:0:
256,192,128118,1,8,0:0:0:0:
256,192,128291,1,8,0:0:0:0:
256,192,128377,1,0,0:0:0:0:
256,192,128463,1,8,0:0:0:0:
256,192,128549,1,0,0:0:0:0:
256,192,128636,1,8,0:0:0:0:
256,192,128722,1,0,0:0:0:0:
256,192,128808,1,8,0:0:0:0:
256,192,128894,1,0,0:0:0:0:
256,192,128980,1,0,0:0:0:0:
256,192,129153,1,8,0:0:0:0:
256,192,129239,1,0,0:0:0:0:
256,192,129325,1,8,0:0:0:0:
256,192,129498,1,8,0:0:0:0:
256,192,129670,1,8,0:0:0:0:
256,192,129842,1,0,0:0:0:0:
256,192,129929,1,0,0:0:0:0:
256,192,130015,1,8,0:0:0:0:
256,192,130187,1,0,0:0:0:0:
256,192,130360,1,4,0:0:0:0:
256,192,130532,1,0,0:0:0:0:
256,192,130618,1,0,0:0:0:0:
256,192,130704,1,8,0:0:0:0:
256,192,130791,1,8,0:0:0:0:
256,192,130877,1,8,0:0:0:0:
256,192,130963,1,8,0:0:0:0:
256,192,131049,1,0,0:0:0:0:
256,192,131222,1,0,0:0:0:0:
256,192,131308,1,0,0:0:0:0:
256,192,131394,1,0,0:0:0:0:
256,192,131567,1,0,0:0:0:0:
256,192,131739,1,8,0:0:0:0:
256,192,132084,1,8,0:0:0:0:
256,192,132256,1,8,0:0:0:0:
256,192,132601,1,8,0:0:0:0:
200,156,133118,1,4,0:0:0:0:
200,156,133290,1,0,0:0:0:0:
200,156,133462,1,8,0:0:0:0:
164,180,133635,1,0,0:0:0:0:
164,180,133807,1,8,0:0:0:0:
200,156,133980,1,0,0:0:0:0:
200,156,134153,1,8,0:0:0:0:
164,180,134325,1,0,0:0:0:0:
200,156,134497,1,8,0:0:0:0:
200,156,134584,1,0,0:0:0:0:
200,156,134670,1,8,0:0:0:0:
200,156,134842,1,0,0:0:0:0:
200,156,135014,1,8,0:0:0:0:
200,156,135187,1,8,0:0:0:0:
200,156,135273,1,0,0:0:0:0:
200,156,135360,1,0,0:0:0:0:
200,156,135446,1,0,0:0:0:0:
200,156,135531,1,8,0:0:0:0:
240,192,135876,1,8,0:0:0:0:
200,156,136049,1,0,0:0:0:0:
200,156,136135,1,0,0:0:0:0:
200,156,136221,1,8,0:0:0:0:
240,192,136393,1,0,0:0:0:0:
200,156,136566,1,8,0:0:0:0:
200,156,136739,1,0,0:0:0:0:
200,156,136911,1,8,0:0:0:0:
200,156,137084,1,8,0:0:0:0:
240,192,137255,1,8,0:0:0:0:
240,192,137342,1,0,0:0:0:0:
64,176,137428,1,8,0:0:0:0:
240,192,137515,1,0,0:0:0:0:
240,192,137600,1,8,0:0:0:0:
240,192,137773,1,0,0:0:0:0:
88,156,137946,1,8,0:0:0:0:
200,156,138118,1,0,0:0:0:0:
240,192,138290,1,12,0:0:0:0:
200,156,138463,1,0,0:0:0:0:
252,204,138636,1,4,0:0:0:0:
252,204,138808,1,8,0:0:0:0:
252,204,138894,1,0,0:0:0:0:
252,204,138981,1,0,0:0:0:0:
252,204,139153,1,0,0:0:0:0:
252,204,139325,1,8,0:0:0:0:
252,204,139498,1,0,0:0:0:0:
252,204,139584,1,0,0:0:0:0:
256,192,139670,1,8,0:0:0:0:
240,192,139842,1,0,0:0:0:0:
120,172,140015,1,8,0:0:0:0:
240,192,140100,1,8,0:0:0:0:
120,172,140187,1,0,0:0:0:0:
120,172,140273,1,8,0:0:0:0:
120,172,140359,1,0,0:0:0:0:
240,192,140532,1,0,0:0:0:0:
120,172,140704,1,8,0:0:0:0:
120,172,141049,1,8,0:0:0:0:
240,192,141393,1,0,0:0:0:0:
240,192,141738,1,8,0:0:0:0:
120,172,141911,1,0,0:0:0:0:
240,192,141998,1,0,0:0:0:0:
120,172,142083,1,8,0:0:0:0:
120,172,142256,1,0,0:0:0:0:
240,192,142428,1,8,0:0:0:0:
120,172,142601,1,0,0:0:0:0:
120,172,142773,1,8,0:0:0:0:
120,172,142860,1,0,0:0:0:0:
120,172,142946,1,8,0:0:0:0:
120,172,143032,1,0,0:0:0:0:
240,192,143118,1,8,0:0:0:0:
240,192,143290,1,0,0:0:0:0:
120,172,143462,1,8,0:0:0:0:
120,172,143635,1,0,0:0:0:0:
120,172,143721,1,0,0:0:0:0:
52,172,143808,1,8,0:0:0:0:
52,172,143980,1,0,0:0:0:0:
364,264,144153,1,4,0:0:0:0:
240,160,144325,1,0,0:0:0:0:
240,160,144412,1,0,0:0:0:0:
372,268,144498,1,8,0:0:0:0:
320,240,144670,1,0,0:0:0:0:
372,268,144843,1,8,0:0:0:0:
372,268,144929,1,0,0:0:0:0:
320,240,145015,1,8,0:0:0:0:
240,160,145101,1,0,0:0:0:0:
240,160,145187,1,8,0:0:0:0:
180,168,145360,1,0,0:0:0:0:
96,256,145532,1,8,0:0:0:0:
332,216,145705,1,0,0:0:0:0:
332,216,145791,1,0,0:0:0:0:
332,216,145877,1,8,0:0:0:0:
180,168,146049,1,0,0:0:0:0:
180,168,146222,1,8,0:0:0:0:
180,168,146308,1,0,0:0:0:0:
180,168,146394,1,0,0:0:0:0:
180,168,146480,1,0,0:0:0:0:
240,160,146567,1,8,0:0:0:0:
208,144,146653,1,8,0:0:0:0:
208,144,146739,1,0,0:0:0:0:
208,144,146912,1,8,0:0:0:0:
208,144,147084,1,0,0:0:0:0:
180,168,147170,1,0,0:0:0:0:
352,288,147256,1,8,0:0:0:0:
352,256,147429,1,0,0:0:0:0:
352,256,147601,1,8,0:0:0:0:
352,256,147687,1,0,0:0:0:0:
352,256,147774,1,8,0:0:0:0:
352,256,147860,1,0,0:0:0:0:
180,168,147946,1,8,0:0:0:0:
352,256,148118,1,0,0:0:0:0:
352,256,148291,1,8,0:0:0:0:
352,288,148377,1,0,0:0:0:0:
256,128,148463,1,0,0:0:0:0:
256,128,148549,1,8,0:0:0:0:
256,128,148636,1,0,0:0:0:0:
256,128,148808,1,8,0:0:0:0:
136,176,148981,1,8,0:0:0:0:
136,176,149067,1,0,0:0:0:0:
136,176,149153,1,0,0:0:0:0:
136,176,149325,1,8,0:0:0:0:
364,264,149670,1,4,0:0:0:0:
240,160,149843,1,0,0:0:0:0:
240,160,149929,1,0,0:0:0:0:
372,268,150015,1,8,0:0:0:0:
320,240,150187,1,0,0:0:0:0:
372,268,150360,1,8,0:0:0:0:
372,268,150446,1,0,0:0:0:0:
320,240,150532,1,8,0:0:0:0:
240,160,150618,1,0,0:0:0:0:
240,160,150705,1,8,0:0:0:0:
180,168,150877,1,0,0:0:0:0:
96,256,151049,1,8,0:0:0:0:
332,216,151222,1,0,0:0:0:0:
332,216,151308,1,0,0:0:0:0:
332,216,151394,1,8,0:0:0:0:
180,168,151567,1,0,0:0:0:0:
180,168,151739,1,8,0:0:0:0:
240,160,152084,1,8,0:0:0:0:
256,192,152429,1,0,0:0:0:0:
256,192,152774,1,8,0:0:0:0:
256,192,152946,1,0,0:0:0:0:
236,224,153118,1,8,0:0:0:0:
236,224,153291,1,8,0:0:0:0:
256,192,153377,1,0,0:0:0:0:
256,192,153463,1,8,0:0:0:0:
256,192,153636,1,0,0:0:0:0:
256,192,153808,1,8,0:0:0:0:
256,192,154153,1,8,0:0:0:0:
256,192,154239,1,0,0:0:0:0:
256,192,154325,1,0,0:0:0:0:
256,192,154412,1,8,0:0:0:0:
256,192,154498,1,0,0:0:0:0:
276,160,154670,1,8,0:0:0:0:
256,192,155187,1,4,0:0:0:0:
256,192,155532,1,8,0:0:0:0:
256,192,155877,1,0,0:0:0:0:
256,192,156222,1,8,0:0:0:0:
256,192,156739,1,0,0:0:0:0:
256,192,156911,1,8,0:0:0:0:
256,192,157256,1,0,0:0:0:0:
256,192,157601,1,8,0:0:0:0:
256,192,157946,1,4,0:0:0:0:
256,192,158291,1,8,0:0:0:0:
256,192,158636,1,0,0:0:0:0:
256,192,158980,1,8,0:0:0:0:
256,192,159498,1,0,0:0:0:0:
256,192,159670,1,8,0:0:0:0:
256,192,160015,1,0,0:0:0:0:
256,192,160360,1,12,0:0:0:0:
256,192,160704,1,4,0:0:0:0:
256,192,161049,1,8,0:0:0:0:
256,192,161394,1,0,0:0:0:0:
256,192,161739,1,8,0:0:0:0:
256,192,162256,1,0,0:0:0:0:
256,192,162429,1,8,0:0:0:0:
256,192,162601,1,0,0:0:0:0:
256,192,162773,1,0,0:0:0:0:
256,192,163118,1,8,0:0:0:0:
256,192,163463,1,4,0:0:0:0:
256,192,163808,1,8,0:0:0:0:
256,192,164153,1,0,0:0:0:0:
256,192,164498,1,8,0:0:0:0:
256,192,165015,1,0,0:0:0:0:
256,192,165187,1,8,0:0:0:0:
256,192,165360,1,0,0:0:0:0:
256,192,165532,1,0,0:0:0:0:
256,192,165877,1,8,0:0:0:0:
256,192,166222,1,0,0:0:0:0:
256,192,166567,1,8,0:0:0:0:
256,192,166911,1,0,0:0:0:0:
256,192,167256,1,8,0:0:0:0:
256,192,167601,1,8,0:0:0:0:
256,192,167773,1,0,0:0:0:0:
256,192,167946,1,0,0:0:0:0:
256,192,168118,1,0,0:0:0:0:
256,192,168291,1,8,0:0:0:0:
256,192,168636,1,8,0:0:0:0:
256,192,168980,1,0,0:0:0:0:
256,192,169325,1,8,0:0:0:0:
256,192,169670,1,0,0:0:0:0:
256,192,170015,1,8,0:0:0:0:
256,192,170532,1,0,0:0:0:0:
256,192,170704,1,8,0:0:0:0:
256,192,171049,1,0,0:0:0:0:
256,192,171394,1,8,0:0:0:0:
256,192,171739,1,0,0:0:0:0:
256,192,172084,1,8,0:0:0:0:
256,192,172429,1,0,0:0:0:0:
256,192,172773,1,8,0:0:0:0:
256,192,173118,1,8,0:0:0:0:
256,192,173291,1,0,0:0:0:0:
256,192,173463,1,0,0:0:0:0:
256,192,173636,1,0,0:0:0:0:
256,192,173808,1,8,0:0:0:0:
256,192,174153,1,8,0:0:0:0:
256,192,174498,1,0,0:0:0:0:
256,192,174842,1,8,0:0:0:0:
256,192,175532,1,8,0:0:0:0:
256,192,176222,1,8,0:0:0:0:
256,192,176911,1,8,0:0:0:0:
256,192,177256,1,4,0:0:0:0:
