osu file format v12

[General]
AudioFilename: Reward to the dog.mp3
AudioLeadIn: 0
PreviewTime: 58500
Countdown: 0
SampleSet: Soft
StackLeniency: 0.7
Mode: 0
LetterboxInBreaks: 0
WidescreenStoryboard: 0

[Editor]
Bookmarks: 36306,102961,207995
DistanceSpacing: 1
BeatDivisor: 4
GridSize: 4
TimelineZoom: 1

[Metadata]
Title:Reward to the dog
TitleUnicode:Reward to the dog
Artist:IOSYS
ArtistUnicode:IOSYS
Creator:KokoroStudiox3
Version:Hard
Source:Touhou
Tags:remilia scarlet sister sakuya izayoi Tennenjemini Magical Comical Fancymat Dead Princess and Luna Dial inu gero
BeatmapID:221384
BeatmapSetID:79296

[Difficulty]
HPDrainRate:6
CircleSize:4
OverallDifficulty:6
ApproachRate:7
SliderMultiplier:1.8
SliderTickRate:1

[Events]
//Background and Video events
Video,0,"Reward to the dog Touhou PV(360p_H.264-AAC).flv"
0,0,"BG.jpg",0,0
//Break Periods
//Storyboard Layer 0 (Background)
//Storyboard Layer 1 (Fail)
//Storyboard Layer 2 (Pass)
//Storyboard Layer 3 (Foreground)
//Storyboard Sound Samples
//Background Colour Transformations
3,100,163,162,255

[TimingPoints]
728,555.555555555556,4,2,0,30,1,0
8504,-100,4,2,1,40,0,0
49615,-100,4,2,1,60,0,0
54060,-100,4,2,1,50,0,0
58504,-100,4,2,1,60,0,0
67393,-100,4,2,1,65,0,1
84616,-100,4,2,1,65,0,0
85171,-100,4,2,1,65,0,1
102950,-100,4,2,1,30,0,0

[Colours]
Combo1 : 255,138,138
Combo2 : 192,192,192
Combo3 : 128,128,255

[HitObjects]
208,32,8505,6,0,L|148:32,1,45,2|0,0:0|0:0,0:0:0:0:
80,64,8922,1,0,0:0:0:0:
80,64,9061,2,0,P|40:136|76:220,1,180,2|4,0:0|0:0,0:0:0:0:
124,296,9894,5,0,0:0:0:0:
212,312,10172,1,0,0:0:0:0:
268,240,10450,1,0,0:0:0:0:
228,160,10728,2,0,P|288:132|348:160,2,135,2|0|2,0:0|0:0|0:0,0:0:0:0:
268,240,11839,5,0,0:0:0:0:
332,300,12116,1,0,0:0:0:0:
400,240,12394,1,0,0:0:0:0:
464,304,12672,2,0,L|508:304,2,45
400,368,13228,1,0,0:0:0:0:
332,300,13505,1,0,0:0:0:0:
244,300,13783,5,0,0:0:0:0:
244,300,13922,1,0,0:0:0:0:
244,300,14061,2,0,P|152:280|104:208,1,180,2|0,0:0|0:0,0:0:0:0:
120,124,14894,1,2,0:0:0:0:
176,52,15172,2,0,B|240:76|240:20|312:52,1,135,2|0,0:0|0:0,0:0:0:0:
436,92,16005,2,0,P|488:160|440:228,1,180,2|0,0:0|0:0,0:0:0:0:
352,248,16839,5,0,0:0:0:0:
262,248,17116,1,0,0:0:0:0:
217,170,17394,1,0,0:0:0:0:
264,92,17672,2,0,L|308:92,2,45
172,92,18228,1,0,0:0:0:0:
108,28,18505,6,0,P|32:60|24:148,1,180,4|0,0:0|0:0,0:0:0:0:
84,216,19339,1,0,0:0:0:0:
176,216,19616,2,0,L|272:216,1,90
292,300,20172,2,0,L|404:300,1,90
444,236,20728,6,0,P|488:160|440:88,1,180,4|0,0:0|0:0,0:0:0:0:
360,60,21561,1,0,0:0:0:0:
272,44,21839,2,0,L|176:44,1,90
212,128,22394,2,0,L|120:128,1,90
56,192,22950,6,0,P|60:304|188:292,1,270,4|0,0:0|0:0,0:0:0:0:
236,216,24061,2,0,P|316:184|400:216,1,180,4|0,0:0|0:0,0:0:0:0:
452,44,25172,2,4,B|412:48|384:44|384:44|356:52|328:76|328:76|292:52|260:44|260:44|236:48|196:44,1,270
408,268,26839,6,0,P|420:228|408:180,1,90
360,104,27394,2,0,P|260:36|148:108,1,270,2|0,0:0|0:0,0:0:0:0:
140,192,28505,2,0,P|116:260|52:272,2,135,2|2|2,0:0|0:0|0:0,0:0:0:0:
132,64,29616,6,0,P|80:48|48:68,1,90
240,112,30172,2,0,P|288:124|328:112,1,90
363,32,30728,2,0,P|324:20|280:36,1,90
325,113,31283,1,0,0:0:0:0:
416,108,31561,1,0,0:0:0:0:
280,36,31839,6,0,P|165:59|245:129,1,270,2|0,0:0|0:0,0:0:0:0:
325,114,32950,1,2,0:0:0:0:
451,161,33366,1,0,0:0:0:0:
361,261,33783,1,4,0:0:0:0:
288,312,34061,6,0,P|240:328|200:312,1,90
360,260,34616,2,0,P|404:244|448:260,1,90
208,192,35172,2,0,P|160:208|124:192,1,90
60,132,35728,1,0,0:0:0:0:
124,68,36005,1,0,0:0:0:0:
212,52,36283,6,0,P|364:76|312:232,1,360,4|0,0:0|0:0,0:0:0:0:
224,228,37672,1,0,0:0:0:0:
160,292,37950,1,0,0:0:0:0:
224,356,38228,1,0,0:0:0:0:
284,292,38505,2,0,P|428:268|328:152,1,360,0|4,0:0|0:0,0:0:0:0:
256,192,39894,5,0,0:0:0:0:
192,128,40172,1,0,0:0:0:0:
256,64,40450,1,0,0:0:0:0:
316,132,40728,2,0,P|396:176|472:136,1,180,4|0,0:0|0:0,0:0:0:0:
392,92,41561,1,0,0:0:0:0:
472,48,41839,2,0,P|392:4|316:44,1,180,4|0,0:0|0:0,0:0:0:0:
248,100,42672,1,0,0:0:0:0:
256,188,42950,1,4,0:0:0:0:
256,192,43089,12,0,44061,0:0:0:0:
256,59,44616,5,0,0:0:0:0:
255,239,45172,1,4,0:0:0:0:
345,240,45450,2,0,L|405:240,1,45
435,240,45728,2,0,L|479:240,1,45
484,152,46144,5,0,0:0:0:0:
484,152,46283,2,0,P|476:104|448:72,1,90
364,44,46839,2,0,L|319:44,1,45
184,44,47394,5,0,0:0:0:0:
96,60,47672,1,0,0:0:0:0:
68,144,47950,2,0,P|48:184|68:224,1,90
136,280,48505,2,0,P|180:296|228:284,1,90
300,248,49061,1,0,0:0:0:0:
380,288,49339,1,0,0:0:0:0:
460,248,49616,6,0,P|500:164|456:96,1,180,4|8,0:0|0:0,0:0:0:0:
372,68,50450,2,0,P|280:96|200:68,1,180
120,36,51283,1,8,0:0:0:0:
48,92,51561,1,0,0:0:0:0:
36,180,51839,6,0,P|48:260|136:292,1,180,0|8,0:0|0:0,0:0:0:0:
220,272,52672,2,0,P|296:236|380:272,1,180
468,272,53505,1,8,0:0:0:0:
252,24,54061,5,4,0:0:0:0:
248,108,54339,2,0,L|188:108,1,45
156,108,54616,2,0,L|112:108,1,45
96,196,55033,5,0,0:0:0:0:
96,196,55172,2,0,P|104:244|132:276,1,90
216,304,55728,2,0,L|261:304,1,45,0|0,0:0|0:0,0:0:0:0:
396,308,56283,5,0,0:0:0:0:
476,268,56561,1,0,0:0:0:0:
444,184,56839,2,0,L|496:184,1,45
480,48,57394,2,0,P|436:32|396:48,1,90
364,132,57950,1,0,0:0:0:0:
272,132,58228,1,0,0:0:0:0:
228,56,58505,6,0,B|164:36|116:84|48:56,1,180,4|8,0:0|0:0,0:0:0:0:
28,144,59339,1,0,0:0:0:0:
28,324,59894,1,0,0:0:0:0:
100,272,60172,1,8,0:0:0:0:
188,276,60450,1,0,0:0:0:0:
260,328,60728,6,0,P|344:295|356:215,1,180,4|8,0:0|0:0,0:0:0:0:
332,128,61561,2,0,P|256:92|172:128,1,180
124,204,62394,2,0,P|76:216|32:204,2,90,4|0|4,0:0|0:0|0:0,0:0:0:0:
212,184,63228,5,0,0:0:0:0:
244,268,63505,2,0,P|272:308|308:328,1,90
340,244,64061,1,0,0:0:0:0:
416,196,64339,1,0,0:0:0:0:
416,196,64478,1,0,0:0:0:0:
416,196,64616,2,0,L|416:100,1,90
256,192,65172,12,0,66561,0:0:0:0:
108,208,66839,5,0,0:0:0:0:
68,136,67116,1,0,0:0:0:0:
28,64,67394,6,0,P|108:36|200:60,1,180,4|0,0:0|0:0,0:0:0:0:
276,104,68228,1,8,0:0:0:0:
344,160,68505,2,0,P|412:184|472:164,2,135,0|0|8,0:0|0:0|0:0,0:0:0:0:
184,184,69616,6,0,P|140:172|96:184,1,90,0|8,0:0|0:0,0:0:0:0:
280,256,70172,2,0,P|324:272|364:256,1,90,0|8,0:0|0:0,0:0:0:0:
184,272,70728,2,0,P|136:256|100:272,1,90,0|8,0:0|0:0,0:0:0:0:
280,348,71283,2,0,L|324:348,2,45,0|0|8,0:0|0:0|0:0,0:0:0:0:
188,348,71839,6,0,P|132:280|184:216,1,180,4|0,0:0|0:0,0:0:0:0:
268,240,72672,1,8,0:0:0:0:
352,220,72950,2,0,P|400:152|348:84,1,180
292,152,73783,1,8,0:0:0:0:
200,172,74061,6,0,P|156:188|116:172,1,90,0|8,0:0|0:0,0:0:0:0:
244,72,74616,2,0,P|284:56|328:72,1,90,0|8,0:0|0:0,0:0:0:0:
292,152,75172,2,0,P|332:168|376:148,1,90,0|8,0:0|0:0,0:0:0:0:
440,88,75728,5,0,0:0:0:0:
440,88,76005,1,8,0:0:0:0:
440,88,76283,6,0,P|488:160|444:232,1,180,4|0,0:0|0:0,0:0:0:0:
356,252,77116,1,8,0:0:0:0:
268,236,77394,2,0,P|200:216|136:236,2,135,0|0|8,0:0|0:0|0:0,0:0:0:0:
256,192,78505,12,0,79616,0:0:0:0:
121,194,80172,5,0,0:0:0:0:
76,116,80450,1,8,0:0:0:0:
121,38,80728,1,4,0:0:0:0:
211,38,81005,1,8,0:0:0:0:
256,116,81283,1,0,0:0:0:0:
208,192,81561,2,0,P|280:288|396:232,1,270,8|0,0:0|0:0,0:0:0:0:
404,52,82950,6,0,L|352:52,1,45,0|4,0:0|0:0,0:0:0:0:
268,52,83366,2,0,L|172:52,1,90,0|4,0:0|0:0,0:0:0:0:
88,52,83922,1,4,0:0:0:0:
432,160,84616,1,0,0:0:0:0:
484,232,84894,1,0,0:0:0:0:
456,320,85172,6,0,P|376:348|284:324,1,180,4|0,0:0|0:0,0:0:0:0:
208,280,86005,1,8,0:0:0:0:
140,224,86283,2,0,P|72:200|12:220,2,135,0|0|8,0:0|0:0|0:0,0:0:0:0:
300,200,87394,6,0,P|344:212|388:200,1,90,0|8,0:0|0:0,0:0:0:0:
204,128,87950,2,0,P|160:112|120:128,1,90,0|8,0:0|0:0,0:0:0:0:
300,132,88505,2,0,P|348:148|384:132,2,90,0|8|0,0:0|0:0|0:0,0:0:0:0:
240,64,89339,1,8,0:0:0:0:
316,20,89616,6,0,B|384:52|428:-2|496:20,1,180,4|0,0:0|0:0,0:0:0:0:
468,116,90450,1,8,0:0:0:0:
420,192,90728,2,0,P|392:252|416:312,2,135,0|0|8,0:0|0:0|0:0,0:0:0:0:
296,184,91839,6,0,P|257:169|213:185,1,90,0|8,0:0|0:0,0:0:0:0:
224,300,92394,2,0,P|184:316|140:300,1,90,0|8,0:0|0:0,0:0:0:0:
296,160,92950,2,0,P|256:144|212:164,1,90,0|8,0:0|0:0,0:0:0:0:
140,212,93505,5,0,0:0:0:0:
60,168,93783,1,8,0:0:0:0:
56,80,94061,2,0,P|128:32|216:48,1,180,4|0,0:0|0:0,0:0:0:0:
268,120,94894,1,8,0:0:0:0:
336,180,95172,2,0,P|404:200|468:180,2,135,0|0|8,0:0|0:0|0:0,0:0:0:0:
268,120,96283,1,0,0:0:0:0:
168,112,96561,2,0,P|104:88|40:112,2,135,0|0|0,0:0|0:0|0:0,0:0:0:0:
252,144,97672,1,8,0:0:0:0:
336,176,97950,5,0,0:0:0:0:
381,254,98228,1,8,0:0:0:0:
336,332,98505,1,4,0:0:0:0:
246,332,98783,1,8,0:0:0:0:
201,254,99061,1,0,0:0:0:0:
249,178,99339,2,0,P|177:82|61:138,1,270,8|0,0:0|0:0,0:0:0:0:
56,320,100728,5,0,0:0:0:0:
56,320,101005,2,0,L|108:320,1,45,4|0,0:0|0:0,0:0:0:0:
192,324,101422,2,4,L|284:324,1,90
256,192,101839,12,4,102950,0:0:0:0:
