osu file format v13

[General]
AudioFilename: Reward to the dog.mp3
AudioLeadIn: 0
PreviewTime: 58500
Countdown: 0
SampleSet: Soft
StackLeniency: 0.7
Mode: 0
LetterboxInBreaks: 0
WidescreenStoryboard: 0

[Editor]
DistanceSpacing: 0.8
BeatDivisor: 12
GridSize: 4
TimelineZoom: 2.799999

[Metadata]
Title:Reward to the dog
TitleUnicode:Reward to the dog
Artist:IOSYS
ArtistUnicode:IOSYS
Creator:KokoroStudiox3
Version:Insane
Source:Touhou
Tags:remilia scarlet sister sakuya izayoi Tennenjemini Magical Comical Fancymat Dead Princess and Luna Dial inu gero
BeatmapID:221385
BeatmapSetID:79296

[Difficulty]
HPDrainRate:7
CircleSize:4
OverallDifficulty:7
ApproachRate:8
SliderMultiplier:2.3
SliderTickRate:1

[Events]
//Background and Video events
Video,0,"Reward to the dog Touhou PV(360p_H.264-AAC).flv"
0,0,"BG.jpg",0,0
//Break Periods
//Storyboard Layer 0 (Background)
//Storyboard Layer 1 (Fail)
//Storyboard Layer 2 (Pass)
//Storyboard Layer 3 (Foreground)
//Storyboard Sound Samples
//Background Colour Transformations
3,100,163,162,255

[TimingPoints]
728,555.555555555556,4,2,0,30,1,0
27394,-100,4,2,1,40,0,0
49616,-100,4,2,1,45,0,0
54061,-100,4,2,1,45,0,0
58505,-100,4,2,1,45,0,0
67394,-100,4,2,1,60,0,1
85172,-100,4,2,1,60,0,1
102950,-100,4,2,1,5,0,0

[Colours]
Combo1 : 255,138,138
Combo2 : 192,192,192
Combo3 : 128,128,255

[HitObjects]
32,312,8505,5,0,0:0:0:0:
32,312,8690,6,0,P|88:296|136:260,1,115,2|0,0:3|0:0,0:0:0:0:
156,240,9061,2,0,B|184:208|188:172,1,76.6666666666667,8|2,0:0|0:0,0:0:0:0:
196,140,9339,2,0,B|208:104|196:64,1,76.6666666666667,0|0,0:0|0:0,0:0:0:0:
188,28,9616,2,0,L|324:68,1,134.166666666667
428,96,10218,1,0,0:0:0:0:
376,176,10450,1,2,0:0:0:0:
476,176,10728,6,0,P|500:228|480:280,1,115,2|0,0:0|0:0,0:0:0:0:
448,312,11144,2,0,P|376:348|296:312,1,172.5,2|2,0:0|0:0,0:0:0:0:
204,192,11839,1,0,0:0:0:0:
24,244,12116,1,0,0:0:0:0:
84,120,12394,1,0,0:0:0:0:
140,296,12672,2,0,P|176:332|204:348,1,76.6666666666667,2|0,0:0|0:0,0:0:0:0:
224,360,12950,2,0,P|288:376|336:364,1,115
344,148,13505,6,0,B|284:148,1,57.5,0|2,0:0|0:0,0:0:0:0:
236,160,13783,1,0,0:0:0:0:
192,184,13922,1,0,0:0:0:0:
152,216,14061,2,0,B|92:240|41:217,1,115,2|0,0:0|0:0,0:0:0:0:
40,112,14616,1,0,0:0:0:0:
124,52,14894,1,2,0:0:0:0:
176,40,15033,1,0,0:0:0:0:
228,52,15172,2,0,B|296:100|320:20|392:56,1,172.5,2|2,0:0|0:0,0:0:0:0:
412,248,16005,6,0,B|372:256|352:248|352:248|324:256|304:280|304:280|288:256|264:248|264:248|248:256|204:248,1,230,2|0,0:0|0:0,0:0:0:0:
32,276,16839,1,0,0:0:0:0:
148,156,17116,1,0,0:0:0:0:
128,316,17394,1,0,0:0:0:0:
48,172,17672,1,0,0:0:0:0:
204,244,17950,1,2,0:0:0:0:
48,172,18228,6,0,L|112:160,1,57.5
148,156,18505,2,4,B|200:132|260:156,1,115,6|0,0:0|0:0,0:0:0:0:
308,180,18922,2,0,B|388:232|472:184,1,172.5
476,80,19616,1,2,0:0:0:0:
392,24,19894,1,0,0:0:0:0:
304,80,20172,1,0,0:0:0:0:
188,80,20450,6,0,P|156:96|132:100,1,57.5
88,112,20728,2,0,P|36:148|28:196,1,115,2|0,0:0|0:0,0:0:0:0:
32,240,21144,2,0,P|72:312|120:332,1,134.166666666667
148,336,21561,2,0,L|232:336,1,76.6666666666667
224,336,21839,1,2,0:0:0:0:
224,220,22116,6,0,L|292:176,1,76.6666666666667
316,204,22394,2,0,L|384:160,1,76.6666666666667
412,184,22672,2,0,L|480:140,1,76.6666666666667
476,142,22950,1,0,0:0:0:0:
472,44,23135,6,0,L|436:66,1,38.3333333333333
332,112,23413,1,0,0:0:0:0:
332,112,23505,1,0,0:0:0:0:
332,112,23598,2,0,L|296:80,2,38.3333333333333,0|0|0,0:0|0:0|0:0,0:0:0:0:
364,272,24061,2,0,P|280:308|212:272,1,172.5,2|0,0:0|0:0,0:0:0:0:
176,248,24616,2,0,P|132:236|84:248,2,95.8333333333333,0|0|0,0:0|0:0|0:0,0:0:0:0:
356,180,25450,5,0,0:0:0:0:
356,180,25589,2,0,P|448:208|452:276,1,172.5,0|0,0:0|0:0,0:0:0:0:
328,88,26561,2,0,L|260:68,1,57.5
220,72,26839,6,0,P|160:92|132:140,1,115,0|0,0:0|0:0,0:0:0:0:
128,184,27255,1,0,0:0:0:0:
132,236,27394,2,0,P|154:294|200:328,1,115,4|0,0:0|0:0,0:0:0:0:
236,232,27950,1,2,0:0:0:0:
80,328,28228,1,0,0:0:0:0:
8,160,28505,2,0,B|-16:92|36:60,1,115,10|0,0:0|0:0,0:0:0:0:
80,40,28968,2,0,B|164:24|148:80|232:44,1,153.333333333333,0|10,0:0|0:0,0:0:0:0:
436,218,29616,5,0,0:0:0:0:
396,44,29894,1,0,0:0:0:0:
334,241,30172,1,2,0:0:0:0:
466,119,30450,1,0,0:0:0:0:
264,165,30728,1,0,0:0:0:0:
436,218,31005,2,0,B|420:276,1,57.5
400,320,31283,2,0,P|376:352|352:364,1,57.5,0|2,0:0|0:0,0:0:0:0:
308,364,31561,5,0,0:0:0:0:
256,364,31700,1,0,0:0:0:0:
204,364,31839,2,0,P|148:348|116:304,1,115,2|4,0:0|0:0,0:0:0:0:
80,204,32394,1,0,0:0:0:0:
104,104,32672,1,2,0:0:0:0:
200,76,32950,2,0,P|260:80|296:120,1,115,8|0,0:0|0:0,0:0:0:0:
296,172,33366,2,0,P|336:240|428:252,1,172.5,0|12,0:0|0:0,0:0:0:0:
400,152,34061,5,0,0:0:0:0:
296,304,34339,1,0,0:0:0:0:
112,304,34616,1,2,0:0:0:0:
188,148,34894,1,0,0:0:0:0:
208,320,35172,1,0,0:0:0:0:
84,208,35450,1,0,0:0:0:0:
256,224,35728,2,8,B|312:252|368:224,1,115,8|0,0:0|0:0,0:0:0:0:
468,52,36283,6,0,B|408:24|356:52,1,115,4|0,0:0|0:0,0:0:0:0:
312,80,36700,2,0,B|232:132|168:84,1,153.333333333333
52,116,37394,1,2,0:0:0:0:
212,172,37672,1,0,0:0:0:0:
196,220,37811,1,0,0:0:0:0:
152,248,37950,2,0,P|100:268|44:248,1,115
212,172,38505,6,0,P|265:153|317:173,1,115,2|8,0:0|0:0,0:0:0:0:
356,208,38922,2,0,P|380:280|340:344,1,153.333333333333
228,352,39616,1,4,0:0:0:0:
228,352,39894,2,0,B|160:356|124:316,1,115,0|8,0:0|0:0,0:0:0:0:
76,212,40450,1,0,0:0:0:0:
128,120,40728,6,0,B|180:88|232:120|232:120|284:152|348:120,1,230,6|0,0:0|0:0,0:0:0:0:
448,116,41561,1,0,0:0:0:0:
492,212,41839,2,0,P|472:312|360:324,1,230,4|0,0:0|0:0,0:0:0:0:
359,323,42950,1,4,0:0:0:0:
24,200,43505,5,0,0:0:0:0:
24,200,43783,2,0,P|68:160|124:136,1,115,0|4,0:0|0:0,0:0:0:0:
324,128,44616,1,0,0:0:0:0:
324,128,45172,5,4,0:0:0:0:
292,168,45311,1,0,0:0:0:0:
252,200,45450,2,0,P|220:216|192:224,1,57.5,2|0,0:0|0:0,0:0:0:0:
148,228,45728,2,0,L|80:228,1,57.5
16,316,46144,5,0,0:0:0:0:
16,316,46283,2,0,B|36:348|60:360,1,57.5
104,372,46561,2,0,B|136:384|172:380,1,57.5,2|0,0:0|0:0,0:0:0:0:
212,384,46839,2,0,P|249:382|288:372,1,76.6666666666667
392,356,47255,5,0,0:0:0:0:
392,356,47394,2,0,B|404:296|448:280|448:280|448:256,1,115,4|0,0:0|0:0,0:0:0:0:
372,160,47950,2,0,B|312:112,1,76.6666666666667
224,56,48366,2,0,P|144:24|88:56,1,153.333333333333
16,204,49061,2,0,P|64:264|152:252,1,172.5,4|0,0:0|0:0,0:0:0:0:
200,232,49616,2,0,P|284:200|360:232,2,172.5,4|8|4,0:0|0:0|0:0,0:0:0:0:
236,104,51005,5,0,0:0:0:0:
280,80,51144,1,0,0:0:0:0:
328,68,51283,2,0,P|356:68|388:80,1,57.5,8|0,0:0|0:0,0:0:0:0:
432,100,51561,2,0,L|476:140,1,57.5
500,184,51839,2,0,P|492:280|424:312,2,172.5,4|8|4,0:0|0:0|0:0,0:0:0:0:
304,72,53228,6,0,L|244:56,1,57.5,0|0,0:0|0:0,0:0:0:0:
204,84,53505,2,0,L|120:60,1,57.5,4|0,0:0|0:0,0:0:0:0:
100,88,53783,2,0,L|36:72,1,57.5
20,120,54061,5,4,0:0:0:0:
24,172,54200,1,0,0:0:0:0:
44,220,54339,2,0,B|56:248|88:264,1,57.5,2|0,0:0|0:0,0:0:0:0:
140,280,54616,2,0,L|216:280,1,57.5
300,284,55033,5,0,0:0:0:0:
300,284,55172,2,0,B|364:284,2,57.5,0|0|2,0:0|0:0|0:0,0:0:0:0:
260,320,55589,1,0,0:0:0:0:
212,340,55728,2,0,P|184:348|136:344,1,76.6666666666667,0|0,0:0|0:0,0:0:0:0:
60,308,56144,1,0,0:0:0:0:
60,308,56283,6,0,B|4:240|4:240|28:216,1,115,4|0,0:0|0:0,0:0:0:0:
100,152,56873,1,0,0:0:0:0:
100,152,57024,2,0,L|192:68,1,115
212,48,57394,2,0,B|252:48|268:40|268:40|288:48|328:48,1,115,4|0,0:0|0:0,0:0:0:0:
376,60,57811,1,0,0:0:0:0:
416,96,57950,2,0,L|456:168,1,76.6666666666667,8|0,0:0|0:0,0:0:0:0:
412,272,58366,1,0,0:0:0:0:
412,272,58505,6,0,B|360:288|316:272|316:272|268:340,1,172.5,4|8,0:0|0:0,0:0:0:0:
8,116,59339,1,0,0:0:0:0:
8,116,59894,2,0,L|44:56,1,57.5
76,32,60172,2,0,P|104:20|140:16,1,57.5,8|0,0:0|0:0,0:0:0:0:
180,24,60450,2,0,P|212:40|232:60,1,57.5
256,100,60728,6,0,P|332:136|408:100,2,172.5,4|8|0,0:0|0:0|0:0,0:0:0:0:
48,136,62116,2,0,P|100:160|152:136,1,115,0|4,0:0|0:0,0:0:0:0:
184,100,62533,1,0,0:0:0:0:
224,68,62672,1,0,0:0:0:0:
272,48,62811,1,0,0:0:0:0:
324,56,62950,6,0,P|368:72|432:56,1,115,4|0,0:0|0:0,0:0:0:0:
488,200,63505,1,8,0:0:0:0:
376,296,63783,1,0,0:0:0:0:
380,100,64061,1,0,0:0:0:0:
272,200,64339,2,0,B|212:200,2,57.5,0|0|8,0:0|0:0|0:0,0:0:0:0:
488,200,64894,1,0,0:0:0:0:
376,296,65172,5,0,0:0:0:0:
220,304,65450,2,0,P|164:324|124:368,1,115,4|0,0:0|0:0,0:0:0:0:
104,316,65866,2,0,B|65:269|1:277,1,115,4|4,0:0|0:0,0:0:0:0:
84,56,66561,5,0,0:0:0:0:
56,148,66839,2,0,P|112:144|168:104,1,115
260,48,67394,6,0,B|300:4|432:4|394:152|476:52,1,230,4|0,0:0|0:0,0:0:0:0:
488,180,68228,1,8,0:2:0:0:
396,248,68505,2,0,P|300:288|224:304,2,172.5,0|0|8,0:0|0:0|0:0,0:0:0:0:
184,100,69616,6,0,P|130:81|77:101,1,115,0|8,0:0|0:0,0:0:0:0:
132,192,70172,2,0,P|80:212|24:192,1,115,0|8,0:0|0:0,0:0:0:0:
268,56,70728,2,0,P|320:36|376:56,1,115,0|8,0:0|0:0,0:0:0:0:
468,120,71283,2,0,B|492:148|488:176,1,57.5
484,228,71561,2,0,P|472:284|420:308,1,115,8|0,0:0|0:0,0:0:0:0:
252,308,72116,5,8,0:2:0:0:
252,136,72394,1,0,0:0:0:0:
392,36,72672,1,8,0:2:0:0:
220,28,72950,6,0,B|164:56|116:28|116:28|84:32|56:64,2,172.5,0|0|8,0:0|0:0|0:0,0:0:0:0:
168,180,74061,1,0,0:0:0:0:
200,336,74339,1,8,0:0:0:0:
260,252,74616,6,0,P|312:228|364:252,1,115,0|8,0:0|0:0,0:0:0:0:
168,92,75172,2,0,P|116:68|68:92,1,115,0|8,0:0|0:0,0:0:0:0:
264,312,75728,2,0,P|316:336|367:316,1,115,0|8,0:0|0:0,0:0:0:0:
484,204,76283,5,4,0:0:0:0:
328,164,76561,1,8,0:0:0:0:
456,68,76839,1,0,0:0:0:0:
300,36,77116,1,8,0:2:0:0:
248,188,77394,2,0,B|200:252|124:252|124:252|108:280,2,172.5,0|0|8,0:0|0:0|0:0,0:0:0:0:
340,136,78505,1,0,0:0:0:0:
420,188,78783,6,0,P|500:248|532:256,2,115,8|0|8,0:0|0:0|0:0,0:0:0:0:
240,192,79616,2,0,B|176:212|180:176|124:192,1,115,0|8,0:0|0:0,0:0:0:0:
127,191,80172,5,0,0:0:0:0:
124,25,80450,1,8,0:2:0:0:
25,160,80728,1,4,0:0:0:0:
185,108,81005,1,8,0:2:0:0:
26,57,81283,1,0,0:0:0:0:
124,192,81561,2,0,B|200:324|344:272|344:272|380:308|424:312,1,345,8|0,0:2|0:0,0:0:0:0:
424,208,82672,1,0,0:0:0:0:
496,132,82950,5,0,0:0:0:0:
496,132,83089,2,0,P|440:104|380:112,1,115,4|0,0:0|0:0,0:0:0:0:
244,176,83644,1,4,0:0:0:0:
120,76,83922,2,0,P|48:100|24:188,1,172.5,4|8,0:0|0:0,0:0:0:0:
60,296,84616,5,0,0:0:0:0:
168,340,84894,1,8,0:2:0:0:
280,312,85172,6,0,B|336:284|348:228|348:228|412:236|460:188,1,230,4|0,0:0|0:0,0:0:0:0:
364,120,86005,1,8,0:2:0:0:
364,120,86283,2,0,P|284:80|216:120,2,172.5,0|0|8,0:0|0:0|0:0,0:0:0:0:
140,296,87394,2,0,P|88:320|36:296,1,115,0|8,0:0|0:0,0:0:0:0:
244,208,87950,2,0,P|293:186|345:210,1,115,0|8,0:0|0:0,0:0:0:0:
344,324,88505,2,0,P|292:348|240:324,1,115,0|8,0:0|0:0,0:0:0:0:
196,292,88922,5,0,0:0:0:0:
156,252,89061,1,0,0:0:0:0:
140,196,89200,1,0,0:0:0:0:
140,140,89339,2,0,B|144:72|212:64,1,115,8|4,0:2|0:0,0:0:0:0:
324,80,89894,5,8,0:2:0:0:
352,244,90172,1,0,0:0:0:0:
196,292,90450,1,8,0:2:0:0:
324,372,90728,2,0,B|412:376|440:308|440:308|472:308,2,172.5,0|0|8,0:0|0:0|0:0,0:0:0:0:
196,292,91839,1,0,0:0:0:0:
196,292,92116,1,8,0:0:0:0:
64,76,92394,5,0,0:0:0:0:
64,76,92672,1,8,0:0:0:0:
180,144,92950,1,0,0:0:0:0:
80,172,93228,5,8,0:0:0:0:
44,208,93366,1,0,0:0:0:0:
24,256,93505,2,0,P|56:304|116:312,1,115,0|8,0:0|0:0,0:0:0:0:
156,292,93922,1,0,0:0:0:0:
184,248,94061,6,0,P|268:180|380:212,1,230,4|0,0:0|0:0,0:0:0:0:
432,296,94894,1,8,0:0:0:0:
432,296,95172,2,0,B|520:260|496:152,2,172.5,0|0|8,0:0|0:0|0:0,0:0:0:0:
276,344,96283,1,0,0:0:0:0:
152,244,96561,1,8,0:0:0:0:
292,164,96839,1,0,0:0:0:0:
152,84,97116,1,8,0:0:0:0:
292,164,97394,2,0,B|344:188|404:164,1,115,0|8,0:0|0:0,0:0:0:0:
348,64,97950,5,0,0:0:0:0:
504,108,98228,1,8,0:2:0:0:
436,256,98505,1,4,0:0:0:0:
284,308,98783,1,8,0:2:0:0:
212,164,99061,1,0,0:0:0:0:
332,136,99339,2,0,B|288:39|156:-13|104:143|40:35,1,345,8|0,0:2|0:0,0:0:0:0:
32,264,100728,5,0,0:0:0:0:
32,264,100866,1,4,0:0:0:0:
200,228,101144,1,0,0:0:0:0:
288,352,101422,1,0,0:0:0:0:
332,248,101700,2,0,B|376:212|408:204|408:204|432:124,1,172.5,4|8,0:0|0:2,0:0:0:0:
256,32,102950,5,4,0:0:0:0:
