osu file format v13

[General]
AudioFilename: Reward to the dog.mp3
AudioLeadIn: 0
PreviewTime: 58500
Countdown: 0
SampleSet: Soft
StackLeniency: 0.7
Mode: 0
LetterboxInBreaks: 0
WidescreenStoryboard: 0

[Editor]
Bookmarks: 36306,102961,207995
DistanceSpacing: 0.9
BeatDivisor: 4
GridSize: 4
TimelineZoom: 1

[Metadata]
Title:Reward to the dog
TitleUnicode:Reward to the dog
Artist:IOSYS
ArtistUnicode:IOSYS
Creator:KokoroStudiox3
Version:Easy
Source:Touhou
Tags:remilia scarlet sister sakuya izayoi Tennenjemini Magical Comical Fancymat Dead Princess and Luna Dial inu gero
BeatmapID:221382
BeatmapSetID:79296

[Difficulty]
HPDrainRate:2
CircleSize:2
OverallDifficulty:1
ApproachRate:2
SliderMultiplier:1.3
SliderTickRate:1

[Events]
//Background and Video events
Video,0,"Reward to the dog Touhou PV(360p_H.264-AAC).flv"
0,0,"BG.jpg",0,0
//Break Periods
//Storyboard Layer 0 (Background)
//Storyboard Layer 1 (Fail)
//Storyboard Layer 2 (Pass)
//Storyboard Layer 3 (Foreground)
//Storyboard Sound Samples
//Background Colour Transformations
3,100,163,162,255

[TimingPoints]
728,555.555555555556,4,2,0,30,1,0
8504,-100,4,2,1,30,0,0
49615,-100,4,2,1,60,0,0
54060,-100,4,2,1,50,0,0
58504,-100,4,2,1,60,0,0
67393,-100,4,2,1,65,0,1
84615,-100,4,2,1,65,0,0
85171,-100,4,2,1,65,0,1
102949,-100,4,2,1,65,0,0

[Colours]
Combo1 : 255,138,138
Combo2 : 192,192,192
Combo3 : 128,128,255

[HitObjects]
56,104,8505,6,0,P|164:44|276:104,1,260,0|4,0:0|0:2,0:0:0:0:
416,288,10728,6,0,P|464:300|512:288,2,97.5,2|0|2,0:0|0:0|0:0,0:0:0:0:
348,128,12394,2,0,L|348:48,2,65
272,216,13505,6,0,P|208:240|152:216,1,130,0|2,0:0|0:0,0:0:0:0:
212,116,14616,1,0,0:0:0:0:
316,64,15172,6,0,B|380:28|380:28|416:28,2,97.5,2|0|2,0:0|0:0|0:0,0:0:0:0:
208,204,16839,1,0,0:0:0:0:
272,300,17394,1,0,0:0:0:0:
168,352,17950,1,0,0:0:0:0:
104,252,18505,6,0,P|104:136|224:88,1,260,4|0,0:0|0:0,0:0:0:0:
316,160,20172,1,0,0:0:0:0:
280,268,20728,6,0,P|408:240|428:128,1,260,2|0,0:0|0:0,0:0:0:0:
316,156,22394,1,0,0:0:0:0:
208,112,22950,6,0,B|144:80|144:80|84:80,1,130,4|0,0:0|0:0,0:0:0:0:
84,196,24061,2,0,L|84:336,1,130,2|2,0:0|0:0,0:0:0:0:
188,272,25172,2,0,P|268:228|356:272,1,195
448,120,26839,2,0,P|392:80|324:60,1,130
104,92,28505,6,0,P|16:164|64:284,1,260,2|0,0:0|0:0,0:0:0:0:
148,204,30172,1,0,0:0:0:0:
240,276,30728,1,0,0:0:0:0:
356,276,31283,1,0,0:0:0:0:
468,308,31839,6,0,P|440:188|320:164,2,260
356,276,34616,5,0,0:0:0:0:
240,272,35172,1,0,0:0:0:0:
184,168,35728,1,0,0:0:0:0:
76,124,36283,6,0,B|112:48|200:52|200:52|300:96,1,260,2|0,0:0|0:0,0:0:0:0:
400,152,37950,1,0,0:0:0:0:
432,264,38505,6,0,P|368:364|248:328,1,260,2|0,0:0|0:0,0:0:0:0:
156,256,40172,2,0,P|92:236|32:256,2,130,0|4|0,0:0|0:0|0:0,0:0:0:0:
96,356,41839,5,4,0:0:0:0:
264,192,42950,2,0,P|368:128|476:192,1,260
268,296,45172,6,0,P|207:319|148:294,1,130
92,192,46283,2,0,P|205:138|320:192,1,260
412,260,47950,1,0,0:0:0:0:
324,336,48505,2,0,P|211:390|96:332,1,260,0|2,0:0|0:0,0:0:0:0:
96,216,50172,6,0,L|97:148,1,65,8|0,0:0|0:0,0:0:0:0:
244,56,51283,2,0,P|304:34|364:59,1,130,0|2,0:0|0:0,0:0:0:0:
444,144,52394,2,0,L|443:208,1,65,8|0,0:0|0:0,0:0:0:0:
417,330,53505,2,0,P|365:361|309:320,1,130,0|0,0:0|0:0,0:0:0:0:
299,212,54616,1,0,0:0:0:0:
240,112,55172,6,0,P|129:54|16:112,1,260,0|0,0:0|0:0,0:0:0:0:
108,188,56839,1,0,0:0:0:0:
16,260,57394,2,0,P|127:318|240:260,1,260,0|0,0:0|0:0,0:0:0:0:
348,224,59061,6,0,L|420:225,1,65,8|0,0:0|0:0,0:0:0:0:
460,56,60172,2,0,P|400:31|341:52,1,130,0|4,0:0|0:0,0:0:0:0:
245,111,61283,2,0,L|161:110,1,65,8|0,0:0|0:0,0:0:0:0:
24,187,62394,1,4,0:0:0:0:
48,300,62950,6,0,L|188:344,1,130,4|0,0:0|0:0,0:0:0:0:
232,240,64061,2,0,L|376:288,1,130
468,316,65172,1,0,0:0:0:0:
168,64,67394,6,0,P|257:30|344:68,1,195,4|0,0:0|0:0,0:0:0:0:
383,110,68505,2,0,P|423:142|467:150,2,97.5,2|0|0,0:0|0:0|0:0,0:0:0:0:
336,144,69616,2,0,L|232:252,1,130,2|0,0:0|0:0,0:0:0:0:
160,316,70728,1,0,0:0:0:0:
88,224,71283,1,2,0:0:0:0:
0,144,71839,6,0,P|88:104|172:144,1,195
220,176,72950,2,0,P|272:188|324:176,2,97.5,0|0|0,0:0|0:0|0:0,0:0:0:0:
236,120,74061,2,0,L|336:20,1,130
444,32,75172,1,0,0:0:0:0:
440,148,75728,1,2,0:0:0:0:
436,264,76283,6,0,P|336:328|224:264,1,260
324,120,78228,2,0,P|217:56|112:120,1,260
100,176,79616,6,0,P|80:252|32:292,1,130
156,320,80728,2,0,L|228:344,2,65,0|0|0,0:0|0:0|0:0,0:0:0:0:
256,192,81561,12,0,84061,0:0:0:0:
338,269,85172,6,0,P|256:304|162:266,1,195,4|2,0:0|0:0,0:0:0:0:
116,232,86283,2,0,P|80:196|60:144,2,97.5,0|0|0,0:0|0:0|0:0,0:0:0:0:
164,200,87394,2,0,L|272:84,1,130,2|0,0:0|0:0,0:0:0:0:
368,104,88505,1,0,0:0:0:0:
444,196,89061,1,2,0:0:0:0:
368,284,89616,6,0,B|266:246|207:329|162:286,1,195
128,264,90728,2,0,L|60:192,2,97.5,0|0|0,0:0|0:0|0:0,0:0:0:0:
184,244,91839,2,0,L|284:160,1,130
388,84,92950,1,2,0:0:0:0:
380,200,93505,1,0,0:0:0:0:
496,212,94061,6,0,P|476:304|384:324,1,195,0|2,0:0|0:0,0:0:0:0:
328,328,95172,2,0,L|236:360,2,97.5,0|0|0,0:0|0:0|0:0,0:0:0:0:
360,280,96283,2,0,L|316:144,1,130
284,44,97394,1,0,0:0:0:0:
180,100,97950,5,0,0:0:0:0:
128,204,98505,2,0,P|128:292|48:360,2,195,0|0|0,0:0|0:0|0:0,0:0:0:0:
256,192,100728,12,0,102950,0:0:0:0:
