osu file format v11

[General]
AudioFilename: 05 Resurrection Blossom.mp3
AudioLeadIn: 1500
PreviewTime: 111751
Countdown: 0
SampleSet: Normal
StackLeniency: 0.7
Mode: 0
LetterboxInBreaks: 1

[Editor]
Bookmarks: 155253,187306
DistanceSpacing: 0.8
BeatDivisor: 2
GridSize: 4

[Metadata]
Title:Resurrection Blossom
TitleUnicode:Resurrection Blossom
Artist:IOSYS
ArtistUnicode:IOSYS
Creator:Snepif
Version:Normal
Source:Touhou
Tags:th07 PCB Perfect Cherry Border of Life metal Saigyouji Yuyuko JeuXinTerdiTs
BeatmapID:164531
BeatmapSetID:54043

[Difficulty]
HPDrainRate:3
CircleSize:4
OverallDifficulty:2
ApproachRate:5
SliderMultiplier:0.899999999999999
SliderTickRate:1

[Events]
//Background and Video events
0,0,"BG.jpg"
//Break Periods
2,51477,60182
2,102003,110708
2,152529,161235
//Storyboard Layer 0 (Background)
//Storyboard Layer 1 (Fail)
//Storyboard Layer 2 (Pass)
//Storyboard Layer 3 (Foreground)
//Storyboard Sound Samples
//Background Colour Transformations
3,100,163,162,255

[TimingPoints]
751,315.789473684211,4,1,1,77,1,0
20961,-100,4,1,1,70,0,0
25066,-100,4,2,2,70,0,0
25382,-100,4,1,1,70,0,0
25698,-100,4,2,2,70,0,0
26014,-100,4,1,1,70,0,0
31066,-100,4,1,1,77,0,1
31382,-100,4,1,1,77,0,0
61382,-100,4,1,1,77,0,1
71487,-100,4,1,1,77,0,0
76856,-100,4,1,1,80,0,0
77645,-100,4,2,0,77,0,0
77803,-100,4,1,0,67,0,0
79066,-100,4,1,0,50,0,0
80329,-100,4,1,1,77,0,1
80803,-100,4,1,1,77,0,0
132119,-100,4,1,1,77,0,1
142224,-100,4,1,1,77,0,0
162435,-100,4,1,1,77,0,1
172540,-100,4,1,1,77,0,0
195277,-100,4,2,0,5,0,0

[Colours]
Combo1 : 115,190,247
Combo2 : 205,7,248
Combo3 : 203,134,249
Combo4 : 13,109,181
Combo5 : 253,104,238

[HitObjects]
84,64,751,1,2,0:0:0
256,296,2014,1,2,0:0:0
428,64,3277,1,4,0:0:0
424,244,3908,2,0,B|380:256|328:228|328:164|364:128,1,180,4|4,0:0|0:0,0:0:0
128,172,5803,6,0,B|128:128,1,45
384,172,7066,2,0,B|384:128,1,45,0|0,0:0|0:0,0:0:0
256,344,8329,5,4,0:0:0
256,200,8961,1,4,0:0:0
256,56,9593,1,4,0:0:0
116,92,10224,2,0,B|72:268,1,180,0|4,0:0|0:0,0:0:0
148,344,11329,6,0,B|212:304|284:316,1,135,8|0,0:0|0:0,0:0:0
368,260,12277,2,0,B|304:220|232:232,1,135,8|0,0:0|0:0,0:0:0
168,236,13066,1,8,0:0:0
104,204,13382,6,0,P|80:120|144:64,1,180,0|8,0:0|0:0,0:0:0
264,140,14645,2,0,P|288:224|224:280,1,180,0|0,0:0|0:0,0:0:0
156,296,15593,1,8,0:0:0
84,288,15908,6,0,P|44:136,1,135,4|8,0:0|0:0,0:0:0
112,68,16856,2,0,P|152:220,2,135,0|8|0,0:0|0:0|0:0,0:0:0
184,52,18119,1,8,0:0:0
256,68,18435,1,0,0:0:0
400,64,19066,6,0,B|392:160|440:240,1,180,8|0,0:0|0:0,0:0:0
404,300,20014,1,8,0:0:0
336,276,20329,2,0,B|244:292,1,89.9999999999999,0|8,0:0|0:0,0:0:0
208,232,20961,6,0,B|196:140|128:64,1,180,4|0,0:0|0:0,0:0:0
64,84,21908,1,8,0:0:0
40,152,22224,2,0,B|16:240,1,89.9999999999999,0|8,0:0|0:0,0:0:0
88,248,22856,2,0,B|64:348,1,89.9999999999999,0|8,0:0|0:0,0:0:0
140,336,23487,6,0,B|220:324|232:268|232:268|256:240|284:232,1,180,0|0,0:0|0:0,0:0:0
348,216,24435,1,8,0:0:0
419,227,24751,1,0,0:0:0
438,296,25066,1,12,0:0:0
392,352,25382,2,0,B|352:328|300:336,1,89.9999999999999,0|12,0:0|0:0,0:0:0
232,332,26014,6,0,B|176:160,1,180,4|0,0:0|0:0,0:0:0
116,120,26961,2,0,B|152:76|206:95,1,89.9999999999999,8|0,0:0|0:0,0:0:0
248,140,27593,2,0,B|276:228,1,89.9999999999999,8|0,0:0|0:0,0:0:0
296,296,28224,1,8,0:0:0
356,340,28540,6,0,B|392:272|460:240|460:240|496:168|484:72,1,315,0|4,0:0|0:0,0:0:0
160,76,31066,6,0,B|200:48|252:56,1,89.9999999999999,4|0,0:0|0:0,0:0:0
300,104,31698,1,8,0:0:0
252,160,32014,1,0,0:0:0
180,176,32329,2,0,B|179:225|140:263,2,89.9999999999999,0|0|8,0:0|0:0|0:0,0:0:0
108,164,33277,1,0,0:0:0
108,164,33593,6,0,B|56:76,1,89.9999999999999
120,44,34224,1,8,0:0:0
192,40,34540,1,0,0:0:0
256,76,34856,2,0,B|220:124|292:200|256:252,1,180,0|8,0:0|0:0,0:0:0
284,320,35803,1,0,0:0:0
356,304,36119,6,0,P|424:236|404:160,1,180,4|8,0:0|0:0,0:0:0
356,112,37066,1,0,0:0:0
284,116,37382,2,0,B|104:140,1,180,0|8,0:0|0:0,0:0:0
116,212,38329,1,0,0:0:0
132,284,38645,6,0,B|148:376,1,89.9999999999999
220,360,39277,1,8,0:0:0
244,292,39593,1,0,0:0:0
308,332,39908,2,0,B|388:284|488:316,1,180,0|8,0:0|0:0,0:0:0
472,172,41172,6,0,B|300:104,1,180,4|8,0:0|0:0,0:0:0
236,128,42119,1,0,0:0:0
268,192,42435,2,0,B|435:258,1,180,0|8,0:0|0:0,0:0:0
316,336,43698,6,0,B|216:336|144:276,1,180,0|8,0:0|0:0,0:0:0
108,220,44645,1,0,0:0:0
80,152,44961,2,0,B|40:72,1,89.9999999999999,0|8,0:0|0:0,0:0:0
108,52,45593,2,0,B|148:132,1,89.9999999999999,0|8,0:0|0:0,0:0:0
188,192,46224,6,0,B|244:224|244:224|308:232|368:216,1,180,4|8,0:0|0:0,0:0:0
404,160,47172,1,0,0:0:0
476,148,47487,2,0,B|460:336,1,180,0|8,0:0|0:0,0:0:0
388,336,48435,1,0,0:0:0
316,342,48751,6,0,B|271:351|225:326,1,89.9999999999999
165,293,49382,1,8,0:0:0
121,235,49698,1,0,0:0:0
110,163,50014,2,0,B|174:87|274:111,2,180,4|8|4,0:0|0:0|0:0,0:0:0
88,140,61382,6,0,B|128:112|172:108,1,89.9999999999999,4|0,0:0|0:0,0:0:0
200,128,61856,2,0,B|276:144|276:144|364:128,1,135,8|0,0:0|0:0,0:0:0
356,200,62645,2,0,B|340:248|348:288,1,89.9999999999999,0|0,0:0|0:0,0:0:0
380,304,63119,2,0,B|448:276|448:276|488:216,1,135,8|0,0:0|0:0,0:0:0
480,152,63908,6,0,B|404:104,1,89.9999999999999,0|0,0:0|0:0,0:0:0
384,72,64382,2,0,B|320:92|244:80,1,135,8|0,0:0|0:0,0:0:0
192,132,65172,2,0,B|228:168|280:156,1,89.9999999999999,0|8,0:0|0:0,0:0:0
324,212,65803,2,0,B|288:248|236:236,1,89.9999999999999,0|8,0:0|0:0,0:0:0
168,244,66435,6,0,B|108:224|108:224|52:148,2,135,4|8|0,0:0|0:0|0:0,0:0:0
188,176,67698,2,0,B|248:196|248:196|304:272,2,135,0|8|0,0:0|0:0|0:0,0:0:0
164,108,68961,6,0,B|204:84|224:32,1,89.9999999999999
292,48,69593,1,8,0:0:0
316,116,69908,1,0,0:0:0
300,188,70224,2,0,B|264:284|340:352|340:352|440:376|520:264,1,360,4|4,0:0|0:0,0:0:0
328,64,72751,5,4,0:0:0
100,240,74014,1,4,0:0:0
192,132,74645,1,4,0:0:0
248,264,75277,1,4,0:0:0
428,40,76540,6,0,B|440:104|360:144|384:216,1,180,4|0,0:0|0:0,0:0:0
419,271,77487,1,0,0:0:0
391,337,77803,1,4,0:0:0
327,370,78119,1,0,0:0:0
256,356,78435,1,0,0:0:0
210,300,78751,1,0,0:0:0
142,276,79066,6,0,B|94:280|58:244,1,89.9999999999999,4|4,0:0|0:0,0:0:0
92,181,79698,2,0,B|59:157|48:101,1,89.9999999999999
115,77,80329,2,0,B|203:93|291:45|291:45|387:37|479:65,1,360,4|4,0:0|0:0,0:0:0
444,130,81908,5,0,0:0:0
393,181,82224,1,8,0:0:0
321,189,82540,1,0,0:0:0
250,204,82856,2,0,B|266:257|320:261|320:261|334:296,2,135,0|8|0,0:0|0:0|0:0,0:0:0
212,144,84119,6,0,B|184:56,1,89.9999999999999
112,64,84751,2,0,B|144:164,1,89.9999999999999,8|0,0:0|0:0,0:0:0
84,196,85382,2,0,B|120:256|88:332,2,135,0|8|0,0:0|0:0|0:0,0:0:0
140,148,86645,6,0,B|208:172|232:248,2,135,4|8|0,0:0|0:0|0:0,0:0:0
156,76,87908,2,0,B|232:68|292:108,2,135,0|8|0,0:0|0:0|0:0,0:0:0
88,104,89172,5,0,0:0:0
56,168,89487,1,8,0:0:0
92,228,89803,1,0,0:0:0
164,228,90119,1,8,0:0:0
216,176,90435,2,0,B|296:116|388:128|388:128|468:188|480:284,1,360,4|4,0:0|0:0,0:0:0
424,324,92014,5,0,0:0:0
350,312,92329,2,0,B|318:264,1,45,8|0,0:0|0:0,0:0:0
253,284,92803,2,0,B|197:252|117:264,1,135,8|0,0:0|0:0,0:0:0
68,214,93593,1,8,0:0:0
79,143,93908,1,0,0:0:0
132,92,94224,6,0,B|216:56,1,89.9999999999999
264,112,94856,2,0,B|264:140|248:160,1,45,8|0,0:0|0:0,0:0:0
317,183,95329,2,0,B|285:247|297:315,1,135,8|0,0:0|0:0,0:0:0
364,340,96119,1,8,0:0:0
432,320,96435,1,0,0:0:0
468,256,96751,6,0,B|488:164,1,89.9999999999999
492,96,97382,2,0,B|461:96|436:112,1,45,8|0,0:0|0:0,0:0:0
408,48,97856,2,0,B|356:92|276:76,1,135,8|0,0:0|0:0,0:0:0
212,60,98645,1,8,0:0:0
140,52,98961,1,0,0:0:0
76,84,99277,5,0,0:0:0
48,148,99593,1,0,0:0:0
64,220,99908,2,0,B|112:232,1,45,8|0,0:0|0:0,0:0:0
96,304,100382,2,0,B|168:328|236:296,1,135,8|0,0:0|0:0,0:0:0
296,280,101172,2,0,P|356:196|316:136,1,180,8|4,0:0|0:0,0:0:0
416,232,111908,6,0,B|372:176|376:104,2,135,4|0|8,0:0|0:0|0:0,0:0:0
488,208,113172,2,0,B|500:264|468:304|420:304,2,135,0|0|8,0:0|0:0|0:0,0:0:0
460,140,114435,2,0,B|380:96,1,89.9999999999999,0|8,0:0|0:0,0:0:0
316,128,115066,1,0,0:0:0
256,88,115382,1,8,0:0:0
184,92,115698,2,0,B|176:184|176:184|124:260,1,180,8|0,0:0|0:0,0:0:0
256,324,116961,6,0,B|184:320|124:356,2,135,4|0|8,0:0|0:0|0:0,0:0:0
256,252,118224,2,0,B|328:248|388:284,2,135,0|0|8,0:0|0:0|0:0,0:0:0
184,256,119487,1,0,0:0:0
116,276,119803,1,8,0:0:0
56,316,120119,2,0,B|24:280|24:280|12:236,1,89.9999999999999,0|8,0:0|0:0,0:0:0
20,168,120751,2,0,P|56:72|136:56,2,180,8|0|4,0:0|0:0|0:0,0:0:0
84,200,122329,5,8,0:0:0
152,172,122645,2,0,B|236:136,1,89.9999999999999,0|8,0:0|0:0,0:0:0
288,192,123277,2,0,B|205:227,1,89.9999999999999,0|8,0:0|0:0,0:0:0
204,300,123908,1,0,0:0:0
204,300,124224,1,8,0:0:0
268,336,124540,6,0,B|348:360|388:301|388:301|408:288|448:284,1,180,0|8,0:0|0:0,0:0:0
456,180,125645,2,0,B|444:84,2,89.9999999999999
432,208,126435,2,0,B|392:236|340:236,1,89.9999999999999,8|0,0:0|0:0,0:0:0
276,236,127066,6,0,P|192:164|208:100,1,180,0|8,0:0|0:0,0:0:0
248,8,128172,2,0,B|292:32|340:20,1,89.9999999999999,8|0,0:0|0:0,0:0:0
352,52,128645,2,0,B|340:148,2,89.9999999999999,8|8|0,0:0|0:0|0:0,0:0:0
424,52,129593,2,0,B|506:111|443:189|374:267|460:336,1,315,8|4,0:0|0:0,0:0:0
164,196,132119,6,0,B|108:156|104:76,2,135,4|0|8,0:0|0:0|0:0,0:0:0
200,132,133382,2,0,B|256:176|260:252,2,135,0|0|8,0:0|0:0|0:0,0:0:0
244,72,134645,5,0,0:0:0
312,44,134961,1,8,0:0:0
384,60,135277,1,0,0:0:0
436,108,135593,1,8,0:0:0
448,180,135908,2,0,P|428:272|348:304,1,180,0|8,0:0|0:0,0:0:0
212,316,137172,6,0,B|256:188,2,135,4|0|8,0:0|0:0|0:0,0:0:0
284,324,138435,2,0,B|344:292|420:296,2,135,0|0|8,0:0|0:0|0:0,0:0:0
212,316,139698,5,0,0:0:0
144,344,140014,1,8,0:0:0
80,312,140329,1,0,0:0:0
80,240,140645,1,8,0:0:0
120,180,140961,2,0,B|140:132|176:108|176:108|188:68|148:12,2,180,0|8|4,0:0|0:0|0:0,0:0:0
184,216,142540,5,0,0:0:0
244,252,142856,2,0,P|292:244|320:200,1,89.9999999999999,8|0,0:0|0:0,0:0:0
384,236,143487,2,0,B|352:280|400:328|360:372,2,135,0|8|0,0:0|0:0|0:0,0:0:0
416,172,144751,6,0,B|464:160|472:104,1,89.9999999999999,0|0,0:0|0:0,0:0:0
436,44,145382,1,8,0:0:0
364,32,145698,1,0,0:0:0
292,48,146014,2,0,B|276:84|248:104|200:100|168:72,2,135,0|8|0,0:0|0:0|0:0,0:0:0
224,20,147277,6,0,P|264:156,2,135,4|8|0,0:0|0:0|0:0,0:0:0
152,28,148540,2,0,P|140:176,2,135,0|8|0,0:0|0:0|0:0,0:0:0
80,28,149803,1,0,0:0:0
28,80,150119,1,8,0:0:0
12,152,150435,1,0,0:0:0
40,216,150751,1,8,0:0:0
100,256,151066,2,0,B|192:304|264:232,2,180,4|8|4,0:0|0:0|0:0,0:0:0
284,68,162435,6,0,P|100:112,1,180,4|12,0:0|0:0,0:0:0
60,244,163698,2,0,P|244:200,1,180,4|12,0:0|0:0,0:0:0
344,296,164961,2,0,P|412:224|396:132,1,180,4|12,0:0|0:0,0:0:0
336,24,166224,2,0,P|268:96|284:188,1,180,4|12,0:0|0:0,0:0:0
224,308,167487,6,0,P|124:328|48:276,1,180,4|12,0:0|0:0,0:0:0
188,228,168751,2,0,P|288:208|364:260,1,180,4|12,0:0|0:0,0:0:0
420,228,169698,1,8,0:0:0
432,156,170014,2,0,B|424:64,1,89.9999999999999,4|8,0:0|0:0,0:0:0
348,92,170645,2,0,P|288:8,1,89.9999999999999,4|8,0:0|0:0,0:0:0
224,36,171277,6,0,P|168:232|300:280,1,360,4|4,0:0|0:0,0:0:0
376,244,173014,6,0,B|344:104,1,135,8|0,0:0|0:0,0:0:0
256,52,173961,2,0,B|224:192,1,135,8|0,0:0|0:0,0:0:0
164,224,174751,1,8,0:0:0
92,212,175066,2,0,P|56:120|120:76,1,180,0|8,0:0|0:0,0:0:0
252,84,176329,6,0,B|432:56,1,180,8|0,0:0|0:0,0:0:0
452,124,177277,1,8,0:0:0
428,192,177593,6,0,B|384:256|300:232,1,135,12|0,0:0|0:0,0:0:0
248,148,178540,2,0,B|230:215|152:264,1,135,8|0,0:0|0:0,0:0:0
144,148,179487,2,0,B|144:96|116:56,1,89.9999999999999,8|0,0:0|0:0,0:0:0
188,36,180119,2,0,B|256:68|308:28|308:28|341:26|368:33,1,180,0|8,0:0|0:0,0:0:0
428,63,181066,1,0,0:0:0
440,133,181382,5,4,0:0:0
402,194,181698,1,0,0:0:0
363,132,182014,1,8,0:0:0
291,127,182329,1,0,0:0:0
247,69,182645,6,0,B|204:96|204:164|255:193,1,135,4|8,0:0|0:0,0:0:0
139,179,183593,2,0,B|180:208|179:267|138:296,1,135,0|8,0:0|0:0,0:0:0
247,291,184540,1,0,0:0:0
310,256,184856,1,8,0:0:0
368,212,185172,6,0,B|408:192|436:152,1,89.9999999999999,0|8,0:0|0:0,0:0:0
384,100,185803,2,0,B|344:120|316:160,1,89.9999999999999,0|8,0:0|0:0,0:0:0
244,156,186435,1,0,0:0:0
252,84,186751,1,8,0:0:0
196,40,187066,1,0,0:0:0
124,40,187382,1,8,0:0:0
80,96,187698,6,0,B|88:156|116:180|116:180|116:204|100:248,2,135,4|8|0,0:0|0:0|0:0,0:0:0
188,100,189119,2,0,B|260:112|328:72,1,135,8|0,0:0|0:0,0:0:0
392,60,189908,1,8,0:0:0
400,132,190224,6,0,B|340:264,1,135,4|8,0:0|0:0,0:0:0
320,280,190856,2,0,B|256:244|192:280,1,135,4|8,0:0|0:0,0:0:0
167,254,191487,2,0,B|112:132,1,135,4|8,0:0|0:0,0:0:0
128,100,192119,2,0,B|188:68|188:68|264:80,1,135,4|8,0:0|0:0,0:0:0
288,88,192751,1,4,0:0:0
256,192,193066,12,0,195277,0:0:0
