osu file format v11

[General]
AudioFilename: 05 Resurrection Blossom.mp3
AudioLeadIn: 1500
PreviewTime: 111751
Countdown: 0
SampleSet: Soft
StackLeniency: 0.7
Mode: 0
LetterboxInBreaks: 1

[Editor]
Bookmarks: 155253,187306
DistanceSpacing: 1
BeatDivisor: 4
GridSize: 4

[Metadata]
Title:Resurrection Blossom
TitleUnicode:Resurrection Blossom
Artist:IOSYS
ArtistUnicode:IOSYS
Creator:Snepif
Version:Lunatic
Source:Touhou
Tags:th07 PCB Perfect Cherry Border of Life metal Saigyouji Yuyuko JeuXinTerdiTs
BeatmapID:164519
BeatmapSetID:54043

[Difficulty]
HPDrainRate:7
CircleSize:4
OverallDifficulty:7
ApproachRate:9
SliderMultiplier:1.9
SliderTickRate:2

[Events]
//Background and Video events
0,0,"BG.jpg"
//Break Periods
2,103266,111308
2,172740,182045
//Storyboard Layer 0 (Background)
//Storyboard Layer 1 (Fail)
//Storyboard Layer 2 (Pass)
//Storyboard Layer 3 (Foreground)
//Storyboard Sound Samples
//Background Colour Transformations
3,100,163,162,255

[TimingPoints]
751,315.789473684211,4,1,0,77,1,0
829,-100,4,2,1,77,0,0
1935,-100,4,1,0,77,0,0
2093,-100,4,2,1,77,0,0
3198,-100,4,1,0,77,0,0
3356,-100,4,2,1,77,0,0
3829,-100,4,1,0,77,0,0
3987,-100,4,2,1,77,0,0
4461,-200,4,1,0,77,0,0
4619,-200,4,2,1,77,0,0
5724,-200,4,1,0,77,0,0
6040,-100,4,2,1,77,0,0
6987,-100,4,1,0,77,0,0
7303,-100,4,2,1,77,0,0
8251,-100,4,1,0,77,0,0
8408,-100,4,2,1,77,0,0
8882,-100,4,1,0,77,0,0
9040,-100,4,2,1,77,0,0
9514,-200,4,1,0,77,0,0
10303,-100,4,1,0,70,0,0
11014,-100,4,1,1,77,0,0
20882,-133.333333333333,4,1,1,65,0,0
30593,-100,4,2,0,100,0,0
30829,-100,4,1,1,77,0,0
31066,-100,4,1,1,77,0,1
31382,-100,4,1,1,77,0,0
49777,-200,4,1,1,77,0,0
50251,-100,4,1,1,60,0,0
51277,-100,4,1,1,77,0,0
60672,-100,4,1,1,60,0,0
61382,-100,4,1,1,77,0,1
70382,-100,4,1,1,60,0,1
71487,-100,4,1,1,77,0,0
76856,-100,4,1,1,70,0,0
77645,-100,4,2,0,80,0,0
77803,-100,4,1,1,67,0,0
79066,-100,4,1,1,50,0,0
80329,-100,4,1,1,100,0,1
80803,-100,4,1,1,77,0,0
90593,-100,4,1,1,60,0,0
91698,-133.333333333333,4,1,1,77,0,0
92803,-133.333333333333,4,2,0,77,0,0
93119,-133.333333333333,4,1,1,77,0,0
95329,-133.333333333333,4,2,0,77,0,0
95645,-133.333333333333,4,1,1,77,0,0
97856,-133.333333333333,4,2,0,77,0,0
98172,-133.333333333333,4,1,1,77,0,0
100382,-133.333333333333,4,2,0,77,0,0
100698,-133.333333333333,4,1,1,77,0,0
101803,-100,4,1,1,77,0,0
103066,-100,4,2,1,5,0,0
103145,-100,4,1,1,77,0,0
122014,-133.333333333333,4,1,1,60,0,0
130698,-200,4,1,2,65,0,0
131645,-100,4,2,0,77,0,0
131961,-100,4,1,1,77,0,0
132119,-100,4,1,1,77,0,1
141435,-100,4,1,1,60,0,1
142224,-100,4,1,1,77,0,0
151224,-100,4,1,1,60,0,0
152329,-100,4,1,1,77,0,0
162435,-100,4,1,1,77,0,1
171277,-100,4,1,1,60,0,1
172540,-100,4,1,1,77,0,0
190382,-100,4,1,1,60,0,0
190856,-100,4,1,1,77,0,0
191014,-100,4,1,1,60,0,0
191487,-100,4,1,1,77,0,0
191645,-100,4,1,1,60,0,0
192119,-100,4,1,1,77,0,0
192277,-100,4,1,1,60,0,0
192751,-100,4,1,1,77,0,0
195277,-100,4,2,0,5,0,0

[Colours]
Combo1 : 115,190,247
Combo2 : 205,7,248
Combo3 : 203,134,249
Combo4 : 13,109,181
Combo5 : 253,104,238

[HitObjects]
88,64,751,2,0,P|60:180|136:232|136:232|156:280|148:344,2,285,0|0|0,0:0|0:0|0:0,0:0:0
424,64,2014,2,0,P|452:180|376:232|376:232|356:280|364:344,2,285,0|0|0,0:0|0:0|0:0,0:0:0
124,236,3277,1,4,0:0:0
348,92,3593,1,0,0:0:0
164,92,3908,1,4,0:0:0
388,236,4224,1,0,0:0:0
256,336,4540,6,0,B|224:276|288:216|252:136,2,190,4|0|4,0:0|0:0|0:0,0:0:0
256,336,5961,1,4,0:0:0
392,204,6277,2,0,B|256:132|116:204,1,285
256,72,7066,1,4,0:0:0
256,72,7224,1,4,0:0:0
256,72,7540,2,0,B|256:356,1,285
92,264,8329,5,4,0:0:0
160,84,8645,1,0,0:0:0
352,84,8961,1,4,0:0:0
420,264,9277,1,0,0:0:0
256,184,9593,2,0,P|252:296|316:328,1,190,4|0,0:0|0:0,0:0:0
332,328,10303,5,0,0:0:0
356,320,10382,1,0,0:0:0
376,308,10461,1,0,0:0:0
392,292,10540,1,0,0:0:0
416,288,10619,1,0,0:0:0
436,280,10698,1,0,0:0:0
452,264,10777,1,0,0:0:0
460,240,10856,6,0,B|472:140,1,95,4|8,0:0|0:0,0:0:0
416,76,11172,1,0,0:0:0
416,76,11329,1,8,0:0:0
356,148,11487,2,0,B|268:88,1,95,0|8,0:0|0:0,0:0:0
200,148,11803,2,0,B|224:192|200:240,1,95,0|8,0:0|0:0,0:0:0
116,192,12119,1,0,0:0:0
116,192,12277,1,8,0:0:0
32,236,12435,2,0,B|8:192|32:144,1,95,0|8,0:0|0:0,0:0:0
104,80,12751,2,0,B|188:36|188:36|292:48,1,190
448,208,13224,5,8,0:0:0
448,208,13382,2,0,B|428:284|392:324|392:324|328:336,1,190
256,280,13856,1,8,0:0:0
178,335,14014,2,0,B|120:324|120:324|84:284|64:208,1,190
64,112,14487,2,8,P|160:88|240:136,1,190,8|0,0:0|0:0,0:0:0
320,92,14961,5,8,0:0:0
320,92,15040,1,0,0:0:0
320,92,15119,1,0,0:0:0
412,116,15277,1,0,0:0:0
412,116,15435,1,8,0:0:0
448,204,15593,1,0,0:0:0
448,204,15672,1,0,0:0:0
448,204,15751,1,8,0:0:0
408,292,15908,5,0,0:0:0
384,284,15987,1,0,0:0:0
360,284,16066,2,0,B|312:296|260:276,1,95,8|0,0:0|0:0,0:0:0
172,252,16382,1,8,0:0:0
160,156,16540,2,0,B|216:148|244:192,2,95,0|8|0,0:0|0:0|0:0,0:0:0
64,152,17014,1,8,0:0:0
84,60,17172,2,0,B|140:56|196:68,1,95,0|8,0:0|0:0,0:0:0
376,68,17487,2,0,B|320:72|264:60,1,95,0|8,0:0|0:0,0:0:0
376,68,17803,2,0,B|372:124|384:180,2,95,0|8|0,0:0|0:0|0:0,0:0:0
468,116,18277,1,8,0:0:0
452,228,18435,6,0,B|252:252,1,190,4|0,0:0|0:0,0:0:0
224,336,18908,1,8,0:0:0
136,304,19066,2,0,B|148:248|128:200,2,95,0|8|0,0:0|0:0|0:0,0:0:0
224,336,19540,1,8,0:0:0
296,272,19698,5,0,0:0:0
296,272,19777,1,0,0:0:0
296,272,19856,1,8,0:0:0
348,192,20014,1,0,0:0:0
444,192,20172,1,8,0:0:0
444,192,20251,1,0,0:0:0
444,192,20329,1,0,0:0:0
348,192,20487,1,8,0:0:0
304,108,20645,1,0,0:0:0
304,108,20724,1,0,0:0:0
304,108,20803,1,8,0:0:0
256,192,20961,6,0,B|220:200|176:192,1,71.2499978765846,0|8,0:0|0:0,0:0:0
120,168,21277,2,0,B|88:148|76:104,2,71.2499978765846,0|8|0,0:0|0:0|0:0,0:0:0
92,236,21751,1,8,0:0:0
120,300,21908,1,0,0:0:0
188,316,22066,1,8,0:0:0
308,236,22382,1,0,0:0:0
368,276,22540,2,0,B|348:352,1,71.2500027179719,8|0,0:0|0:0,0:0:0
436,300,22856,2,0,B|456:224,1,71.2500027179719,8|0,0:0|0:0,0:0:0
436,160,23172,2,0,P|384:96|320:104,1,142.500005435944,8|0,0:0|0:0,0:0:0
260,108,23645,5,0,0:0:0
188,112,23803,2,0,B|176:196,1,71.2499978765846,0|8,0:0|0:0,0:0:0
172,256,24119,1,0,0:0:0
172,256,24277,2,0,B|212:264|248:224,1,71.2500027179719,8|0,0:0|0:0,0:0:0
304,212,24593,2,8,P|376:244|392:308,1,142.500005435944
452,160,25066,6,0,B|480:136|480:96,1,71.2499978765846,0|8,0:0|0:0,0:0:0
400,92,25382,1,0,0:0:0
404,96,25461,1,0,0:0:0
408,100,25540,1,8,0:0:0
352,36,25698,2,0,B|324:60|324:100,1,71.2500027179719,0|8,0:0|0:0,0:0:0
284,156,26014,5,0,0:0:0
252,220,26172,1,0,0:0:0
184,232,26329,1,0,0:0:0
116,212,26487,1,8,0:0:0
76,152,26645,1,0,0:0:0
84,80,26803,1,8,0:0:0
136,32,26961,1,0,0:0:0
208,24,27119,2,8,P|352:36,1,142.500005435944,8|0,0:0|0:0,0:0:0
416,60,27593,6,0,B|428:96|416:140,1,71.2500027179719,8|0,0:0|0:0,0:0:0
332,196,27908,2,0,B|320:160|332:116,1,71.2500027179719,8|0,0:0|0:0,0:0:0
420,216,28224,2,0,P|376:280|316:288,1,142.500005435944,8|0,0:0|0:0,0:0:0
244,280,28698,5,0,0:0:0
172,288,28856,2,0,P|144:312|128:348,1,71.2500027179719,0|8,0:0|0:0,0:0:0
48,96,29172,2,0,P|62:126|90:150,1,71.2500027179719,0|8,0:0|0:0,0:0:0
160,160,29487,1,0,0:0:0
224,128,29645,5,12,0:0:0
280,272,30593,5,0,0:0:0
64,184,30751,1,0,0:0:0
192,336,30908,1,8,0:0:0
124,84,31066,6,0,P|224:72|272:148,1,190,4|0,0:0|0:0,0:0:0
324,216,31540,1,8,0:0:0
436,336,31698,1,0,0:0:0
452,120,31856,1,8,0:0:0
488,228,32014,1,0,0:0:0
368,280,32172,1,8,0:0:0
236,276,32329,6,0,P|192:184|248:116,1,190,8|0,0:0|0:0,0:0:0
292,200,32803,1,8,0:0:0
236,276,32961,1,0,0:0:0
140,284,33119,1,8,0:0:0
80,212,33277,1,0,0:0:0
100,120,33435,1,8,0:0:0
180,68,33593,6,0,B|228:72|288:68,1,95,0|8,0:0|0:0,0:0:0
388,200,33908,2,0,B|340:204|280:200,1,95,0|8,0:0|0:0,0:0:0
356,320,34224,2,0,B|404:324|464:320,2,95,0|8|0,0:0|0:0|0:0,0:0:0
268,360,34698,2,0,B|76:360,1,190,8|0,0:0|0:0,0:0:0
28,280,35172,2,0,P|40:176|144:156,1,190,8|0,0:0|0:0,0:0:0
196,188,35645,5,8,0:0:0
320,268,35803,1,0,0:0:0
360,120,35961,1,8,0:0:0
292,56,36119,2,0,B|264:20|204:4|148:36|132:76,2,190,12|0|0,0:0|0:0|0:0,0:0:0
304,152,36908,1,8,0:0:0
220,104,37066,1,8,0:0:0
168,184,37224,2,0,B|228:364,2,190,8|0|8,0:0|0:0|0:0,0:0:0
68,52,38172,5,8,0:0:0
104,140,38329,1,0,0:0:0
176,76,38487,2,0,B|368:76,1,190,8|8,0:0|0:0,0:0:0
424,152,38961,1,0,0:0:0
424,152,39119,1,8,0:0:0
340,196,39277,2,0,B|288:184|252:232,1,95,0|8,0:0|0:0,0:0:0
244,320,39593,1,0,0:0:0
332,284,39751,2,0,B|272:200|304:96,1,190,8|8,0:0|0:0,0:0:0
56,88,40382,5,8,0:0:0
60,116,40461,1,0,0:0:0
68,144,40540,2,0,B|68:168|84:192,3,47.5,0|0|8|0,0:0|0:0|0:0|0:0,0:0:0
96,216,40856,2,0,B|104:240|128:268,3,47.5,0|0|8|0,0:0|0:0|0:0|0:0,0:0:0
136,280,41172,6,0,P|244:304|300:248,1,190,12|0,0:0|0:0,0:0:0
388,216,41645,2,0,P|336:164|225:187,1,190,8|8,0:0|0:0,0:0:0
144,132,42119,1,0,0:0:0
192,52,42277,1,8,0:0:0
288,64,42435,2,0,B|344:156|288:256,1,190,8|0,0:0|0:0,0:0:0
224,312,42908,2,8,B|168:220|224:120,1,190,8|8,0:0|0:0,0:0:0
218,131,43382,1,0,0:0:0
125,151,43540,1,8,0:0:0
218,130,43698,6,0,B|258:164|266:214,1,95,0|8,0:0|0:0,0:0:0
348,256,44014,2,0,B|460:272,1,95,0|8,0:0|0:0,0:0:0
420,112,44329,2,0,B|332:144,1,95,0|8,0:0|0:0,0:0:0
256,300,44645,1,0,0:0:0
256,300,44803,2,0,B|256:108,1,190,8|8,0:0|0:0,0:0:0
164,84,45277,1,0,0:0:0
72,108,45435,2,0,B|72:308,1,190,8|8,0:0|0:0,0:0:0
256,192,45908,1,0,0:0:0
256,192,46066,1,8,0:0:0
256,192,46224,6,0,B|348:228|444:192,2,190,12|0|0,0:0|0:0|0:0,0:0:0
112,120,47014,1,8,0:0:0
256,48,47172,1,8,0:0:0
340,96,47329,2,0,B|368:200|312:288,2,190,8|0|8,0:0|0:0|0:0,0:0:0
340,96,48277,5,8,0:0:0
252,136,48435,1,0,0:0:0
252,136,48593,2,8,P|160:88|88:136,1,190
60,216,49066,1,0,0:0:0
224,328,49224,1,8,0:0:0
172,172,49382,1,0,0:0:0
132,304,49540,1,8,0:0:0
224,328,49698,1,0,0:0:0
312,296,49856,6,0,B|352:264|356:212,1,95,12|2,0:0|0:0,0:0:0
368,172,50251,1,2,0:0:0
372,128,50329,1,8,0:0:0
352,88,50408,1,2,0:0:0
316,64,50487,1,2,0:0:0
276,56,50566,1,2,0:0:0
236,68,50645,2,0,B|208:76|192:92,3,47.5,10|2|2|2,0:0|0:0|0:0|0:0,0:0:0
188,132,50961,2,0,B|164:144|132:144,3,47.5,8|2|2|2,0:0|0:0|0:0|0:0,0:0:0
112,176,51277,6,0,B|92:244|104:292|104:292|136:308|168:340,1,190,4|0,0:0|0:0,0:0:0
248,300,51751,1,8,0:0:0
344,308,51908,1,0,0:0:0
416,248,52066,1,8,0:0:0
416,248,52224,2,0,B|424:204|408:144,1,95,0|8,0:0|0:0,0:0:0
324,224,52540,6,0,B|328:124|256:32,1,190,4|0,0:0|0:0,0:0:0
188,100,53014,1,8,0:0:0
148,188,53172,2,0,B|200:208|240:176,2,95,0|8|0,0:0|0:0|0:0,0:0:0
136,284,53645,1,0,0:0:0
136,284,53803,6,0,P|60:232|64:140,1,190,4|0,0:0|0:0,0:0:0
128,72,54277,1,8,0:0:0
128,72,54435,2,0,B|224:40|316:88,1,190,4|0,0:0|0:0,0:0:0
340,208,54908,1,8,0:0:0
284,320,55066,2,0,B|188:352|96:304,2,190,4|8|0,0:0|0:0|0:0,0:0:0
284,320,56014,1,8,0:0:0
444,140,56329,5,8,0:0:0
444,140,56408,1,0,0:0:0
444,140,56487,2,0,B|348:92,1,95,0|0,0:0|0:0,0:0:0
272,52,56803,1,8,0:0:0
176,64,56961,2,0,P|92:104|92:196,1,190
132,276,57435,1,8,0:0:0
208,336,57593,5,8,0:0:0
208,336,57672,1,0,0:0:0
208,336,57751,2,0,B|232:292|240:240,1,95
156,204,58066,1,8,0:0:0
180,112,58224,2,0,B|232:116|272:140,2,95,0|8|0,0:0|0:0|0:0,0:0:0
244,40,58698,1,8,0:0:0
336,60,58856,6,0,P|384:152|324:232,1,190,4|0,0:0|0:0,0:0:0
276,284,59329,1,8,0:0:0
184,300,59487,2,0,P|136:208|196:128,1,190,0|0,0:0|0:0,0:0:0
220,212,59961,1,8,0:0:0
184,300,60119,6,0,P|144:344|104:356,1,95,0|8,0:0|0:0,0:0:0
280,140,60435,2,0,P|320:96|360:84,1,95,0|8,0:0|0:0,0:0:0
372,96,60672,1,2,0:0:0
388,116,60751,1,8,0:0:0
396,140,60829,1,2,0:0:0
400,164,60908,1,2,0:0:0
400,188,60987,1,2,0:0:0
396,212,61066,2,0,B|396:240|360:268,3,47.5,8|2|2|2,0:0|0:0|0:0|0:0,0:0:0
344,288,61382,6,0,P|244:280|196:348,1,190,4|0,0:0|0:0,0:0:0
292,360,61856,2,8,P|212:184,1,190
228,92,62329,1,0,0:0:0
300,156,62487,1,8,0:0:0
212,188,62645,6,0,P|120:160|112:68,1,190,0|0,0:0|0:0,0:0:0
188,108,63119,2,8,P|148:208|68:208,1,190,8|8,0:0|0:0,0:0:0
136,332,63593,1,0,0:0:0
268,360,63751,1,8,0:0:0
392,316,63908,6,0,B|432:128,1,190,0|0,0:0|0:0,0:0:0
80,130,64382,2,0,B|120:316,1,190,8|8,0:0|0:0,0:0:0
256,288,64856,2,0,B|256:188,1,95,0|8,0:0|0:0,0:0:0
224,104,65172,2,0,B|204:68|140:44|80:68|56:124,2,190,0|8|0,0:0|0:0|0:0,0:0:0
256,192,65961,1,8,0:0:0
332,248,66119,1,0,0:0:0
432,248,66277,1,8,0:0:0
488,184,66435,6,0,P|428:100|344:116,1,190,4|0,0:0|0:0,0:0:0
400,192,66908,2,8,P|308:368,1,190
260,280,67382,2,0,P|308:187,1,95,0|8,0:0|0:0,0:0:0
260,280,67698,2,0,P|164:328|96:272,1,190,0|0,0:0|0:0,0:0:0
24,236,68172,2,8,P|120:188|188:244,1,190,8|8,0:0|0:0,0:0:0
256,172,68645,5,0,0:0:0
344,140,68803,1,8,0:0:0
436,164,68961,2,0,P|392:360,1,190
76,220,69435,2,8,P|120:24,1,190
256,60,69908,1,0,0:0:0
256,60,70066,1,8,0:0:0
304,140,70224,6,0,P|328:188|316:232,1,95,4|0,0:0|0:0,0:0:0
304,268,70461,1,2,0:0:0
268,292,70540,1,8,0:0:0
224,296,70619,1,2,0:0:0
184,284,70698,1,2,0:0:0
160,248,70777,1,2,0:0:0
124,224,70856,2,0,B|104:212|72:216,3,47.5,8|2|2|2,0:0|0:0|0:0|0:0,0:0:0
32,204,71172,2,0,B|8:192|8:156,3,47.5,8|2|2|2,0:0|0:0|0:0|0:0,0:0:0
24,120,71487,5,4,0:0:0
256,192,72751,5,4,0:0:0
404,64,74014,5,4,0:0:0
108,64,74645,1,4,0:0:0
256,332,75277,1,4,0:0:0
468,128,76540,6,0,P|405:54|303:75,1,190,4|0,0:0|0:0,0:0:0
256,132,77014,1,0,0:0:0
164,164,77172,2,0,B|112:148|96:92,1,95
176,252,77487,2,0,B|160:304|104:320,1,95,0|2,0:0|0:0,0:0:0
348,164,77803,2,0,B|400:148|416:92,1,95
336,252,78118,2,0,B|352:304|408:320,1,95
348,164,78435,2,0,P|320:60,1,95
188,72,78751,2,0,P|164:164,1,95
140,256,79066,5,4,0:0:0
180,344,79224,1,0,0:0:0
268,308,79382,1,0,0:0:0
228,220,79540,1,0,0:0:0
304,144,79698,5,4,0:0:0
344,56,79856,1,0,0:0:0
432,92,80014,1,0,0:0:0
392,180,80172,1,0,0:0:0
256,32,80329,6,0,B|296:124|212:240|256:312,1,285,4|0,0:0|0:0,0:0:0
256,316,80882,1,0,0:0:0
256,320,80961,1,0,0:0:0
256,324,81040,1,0,0:0:0
256,328,81119,1,8,0:0:0
256,332,81198,1,0,0:0:0
256,336,81277,1,8,0:0:0
256,340,81356,1,0,0:0:0
256,344,81435,1,8,0:0:0
256,348,81514,1,0,0:0:0
256,352,81593,6,0,B|360:360,1,95,4|8,0:0|0:0,0:0:0
436,316,81908,1,0,0:0:0
380,240,82066,1,8,0:0:0
284,232,82224,2,0,B|228:228|200:168,1,95,0|8,0:0|0:0,0:0:0
192,88,82540,2,0,B|222:41|288:46,1,95,0|8,0:0|0:0,0:0:0
368,56,82856,2,0,P|428:140|396:228,1,190
368,312,83329,2,8,P|308:228|340:140,2,190
284,356,84119,5,0,0:0:0
204,304,84277,1,8,0:0:0
192,208,84435,1,0,0:0:0
264,144,84593,1,8,0:0:0
256,48,84751,1,0,0:0:0
164,80,84908,2,0,B|116:64,2,47.5
112,160,85224,1,8,0:0:0
112,160,85382,2,0,P|112:264|176:320,1,190
256,208,85856,6,0,B|256:20,2,190,8|0|8,0:0|0:0|0:0,0:0:0
340,160,86645,2,0,B|340:352,1,190,12|0,0:0|0:0,0:0:0
172,350,87119,2,0,B|172:160,1,190,8|8,0:0|0:0,0:0:0
172,160,87593,1,0,0:0:0
432,108,87908,5,4,0:0:0
432,108,88224,1,8,0:0:0
336,116,88382,2,8,P|256:48|176:64,1,190
104,124,88856,1,0,0:0:0
104,124,89014,1,8,0:0:0
168,192,89172,6,0,P|212:180|240:128,1,95,0|8,0:0|0:0,0:0:0
179,62,89487,1,0,0:0:0
168,192,89645,1,8,0:0:0
204,320,89803,2,0,P|256:356|296:352,1,95,0|8,0:0|0:0,0:0:0
372,312,90119,1,0,0:0:0
416,228,90277,1,0,0:0:0
416,132,90435,2,0,P|364:96|324:100,1,95,4|0,0:0|0:0,0:0:0
292,100,90672,5,2,0:0:0
252,116,90751,1,8,0:0:0
220,144,90829,1,2,0:0:0
200,180,90908,1,0,0:0:0
168,208,90987,1,2,0:0:0
124,216,91066,1,8,0:0:0
84,200,91145,1,2,0:0:0
64,164,91224,1,2,0:0:0
68,120,91303,1,2,0:0:0
96,88,91382,1,8,0:0:0
96,88,91461,1,2,0:0:0
96,88,91540,1,2,0:0:0
96,88,91619,1,2,0:0:0
96,88,91698,6,0,B|132:68|164:68,1,71.2499978765846,12|8,0:0|0:0,0:0:0
312,44,92014,2,0,B|276:64|244:64,2,71.2499978765846,0|8|0,0:0|0:0|0:0,0:0:0
384,44,92487,1,8,0:0:0
456,264,92803,6,0,B|412:299|362:273|319:308,1,142.499995753169,2|8,0:0|0:0,0:0:0
256,336,93277,1,0,0:0:0
188,312,93435,1,8,0:0:0
168,244,93593,2,0,B|168:208|212:180,2,71.2500027179719,0|8|0,0:0|0:0|0:0,0:0:0
240,248,94066,1,8,0:0:0
208,104,94224,5,8,0:0:0
172,44,94382,1,8,0:0:0
104,68,94540,1,0,0:0:0
100,140,94698,1,8,0:0:0
168,164,94856,1,0,0:0:0
168,164,95014,1,8,0:0:0
424,236,95329,6,0,B|456:164|396:100,1,142.500005435944,2|8,0:0|0:0,0:0:0
332,84,95803,1,0,0:0:0
332,84,95961,1,8,0:0:0
260,96,96119,2,0,B|220:80|216:24,1,71.2500027179719,0|8,0:0|0:0,0:0:0
332,84,96435,1,0,0:0:0
324,156,96593,1,8,0:0:0
316,180,96672,1,0,0:0:0
308,204,96751,6,0,P|280:256|256:276,1,71.2500027179719,4|8,0:0|0:0,0:0:0
212,304,97066,1,0,0:0:0
140,300,97224,1,8,0:0:0
96,244,97382,1,0,0:0:0
104,172,97540,1,8,0:0:0
372,68,97856,6,0,P|312:124|248:108,1,142.500005435944,2|8,0:0|0:0,0:0:0
188,96,98329,1,0,0:0:0
228,36,98487,1,8,0:0:0
296,52,98645,1,0,0:0:0
320,120,98803,1,8,0:0:0
352,184,98961,2,0,B|368:216|408:240,1,71.2500027179719,0|8,0:0|0:0,0:0:0
400,236,99198,1,0,0:0:0
400,236,99277,5,8,0:0:0
472,244,99435,2,0,P|492:208,2,35.625001358986,8|0|0,0:0|0:0|0:0,0:0:0
440,308,99751,1,8,0:0:0
380,348,99908,2,0,P|344:360|284:344,1,71.2500027179719,0|8,0:0|0:0,0:0:0
80,300,100382,6,0,P|84:224|136:176,1,142.500005435944,2|0,0:0|0:0,0:0:0
188,136,100856,1,8,0:0:0
220,120,100935,1,2,0:0:0
256,120,101014,1,2,0:0:0
292,128,101093,1,2,0:0:0
320,148,101172,2,0,B|336:152|344:172,3,35.625001358986,8|2|2|2,0:0|0:0|0:0|0:0,0:0:0
364,200,101487,1,8,0:0:0
360,232,101566,1,2,0:0:0
356,264,101645,1,2,0:0:0
352,296,101724,1,2,0:0:0
348,324,101803,5,12,0:0:0
256,192,101882,12,0,103066,0:0:0
380,64,111908,5,4,0:0:0
304,120,112066,1,8,0:0:0
392,152,112224,1,0,0:0:0
392,152,112382,2,0,B|420:252|348:364,1,190,8|0,0:0|0:0,0:0:0
268,344,112856,2,0,B|80:300,1,190,8|0,0:0|0:0,0:0:0
116,212,113329,5,8,0:0:0
68,40,113487,1,0,0:0:0
124,116,113645,2,0,B|320:104,1,190,8|8,0:0|0:0,0:0:0
388,164,114119,1,0,0:0:0
376,260,114277,1,8,0:0:0
342,345,114435,5,4,0:0:0
95,119,114751,1,8,0:0:0
428,156,115066,1,4,0:0:0
137,322,115382,1,8,0:0:0
308,52,115698,6,0,B|272:88,2,47.5,0|0|8,0:0|0:0|0:0,0:0:0
388,100,116014,1,0,0:0:0
480,132,116172,2,0,B|488:188,2,47.5,8|0|0,0:0|0:0|0:0,0:0:0
388,100,116487,1,8,0:0:0
320,164,116645,1,0,0:0:0
320,164,116803,1,8,0:0:0
62,163,116961,6,0,B|244:108,1,190,4|0,0:0|0:0,0:0:0
449,220,117435,2,0,B|268:276,1,190,8|8,0:0|0:0,0:0:0
188,224,117908,2,0,B|232:196|240:144,1,95,0|8,0:0|0:0,0:0:0
156,108,118224,2,0,B|188:56|248:36|308:68|320:116,1,190
404,68,118698,2,0,B|408:288,1,190,8|8,0:0|0:0,0:0:0
176,288,119172,1,0,0:0:0
328,316,119329,1,8,0:0:0
300,224,119487,5,0,0:0:0
292,216,119566,1,0,0:0:0
284,208,119645,1,8,0:0:0
216,144,119803,1,0,0:0:0
304,108,119961,1,8,0:0:0
383,162,120119,1,0,0:0:0
381,151,120198,1,0,0:0:0
380,140,120277,1,8,0:0:0
362,48,120435,1,0,0:0:0
196,48,120593,1,8,0:0:0
120,196,120751,5,6,0:0:0
136,240,120829,1,0,0:0:0
168,272,120908,1,0,0:0:0
212,292,120987,1,0,0:0:0
260,300,121066,1,2,0:0:0
308,288,121145,1,0,0:0:0
344,256,121224,1,0,0:0:0
360,212,121303,1,0,0:0:0
368,164,121382,2,0,B|332:124,4,47.5,2|2|2|2|8,0:0|0:0|0:0|0:0|0:0,0:0:0
464,328,122014,5,4,0:0:0
420,272,122172,1,8,0:0:0
348,272,122329,2,0,P|308:280|280:300,1,71.2500027179719,0|8,0:0|0:0,0:0:0
228,344,122645,1,0,0:0:0
156,332,122803,1,8,0:0:0
120,272,122961,1,8,0:0:0
148,208,123119,1,8,0:0:0
240,100,123435,5,0,0:0:0
204,92,123514,1,0,0:0:0
168,84,123593,2,0,P|96:68,1,71.2500027179719,8|0,0:0|0:0,0:0:0
76,136,123908,2,0,P|148:152,2,71.2500027179719,8|0|8,0:0|0:0|0:0,0:0:0
416,64,124540,6,0,B|460:64,2,35.6249989382923,8|0|8,0:0|0:0|0:0,0:0:0
388,132,124856,2,0,P|376:176|388:212,1,71.2500027179719,0|8,0:0|0:0,0:0:0
448,176,125172,1,0,0:0:0
448,176,125329,1,8,0:0:0
381,201,125487,2,0,P|361:229|309:237,1,71.2500027179719,0|8,0:0|0:0,0:0:0
216,56,125961,6,0,B|256:28,2,35.6249989382923,0|0|12,0:0|0:0|0:0,0:0:0
280,96,126277,1,8,0:0:0
344,64,126435,1,0,0:0:0
280,96,126593,1,8,0:0:0
256,164,126751,1,4,0:0:0
184,176,126908,1,8,0:0:0
352,288,127066,5,12,0:0:0
360,272,127145,1,0,0:0:0
368,256,127224,1,8,0:0:0
404,196,127382,2,0,B|492:176,1,71.2499978765846,0|8,0:0|0:0,0:0:0
488,108,127698,1,0,0:0:0
456,44,127856,1,8,0:0:0
384,32,128014,1,0,0:0:0
328,76,128172,2,0,B|180:100,1,142.499995753169,8|0,0:0|0:0,0:0:0
116,108,128645,5,8,0:0:0
116,108,128803,1,0,0:0:0
64,156,128961,2,0,B|40:188|40:228,1,71.2500027179719,8|0,0:0|0:0,0:0:0
64,292,129277,2,0,B|116:352|200:328,1,142.500005435944,8|8,0:0|0:0,0:0:0
260,308,129751,5,8,0:0:0
324,276,129908,1,0,0:0:0
324,276,130066,1,8,0:0:0
272,228,130224,2,0,B|296:200|336:208,1,71.2500027179719,0|8,0:0|0:0,0:0:0
404,232,130540,1,0,0:0:0
412,77,130698,6,0,B|364:40|276:28|192:72|172:140,1,285,12|0,0:0|0:0,0:0:0
204,228,131803,1,0,0:0:0
40,72,131961,1,8,0:0:0
28,272,132119,6,0,B|232:312,1,190,4|0,0:0|0:0,0:0:0
353,263,132593,2,0,B|168:224,1,190,8|8,0:0|0:0,0:0:0
112,144,133066,1,0,0:0:0
152,56,133224,1,8,0:0:0
244,40,133382,6,0,P|356:52|392:124,1,190
296,112,133856,2,8,P|276:212|332:300,1,190
396,336,134329,1,0,0:0:0
400,240,134487,1,8,0:0:0
308,212,134645,5,0,0:0:0
216,188,134803,1,8,0:0:0
136,56,134961,1,0,0:0:0
228,32,135119,1,8,0:0:0
312,300,135277,1,0,0:0:0
220,324,135435,1,8,0:0:0
124,312,135593,1,0,0:0:0
48,252,135751,2,8,P|32:144|96:80,1,190
108,180,136224,2,0,B|324:160,1,190,0|0,0:0|0:0,0:0:0
264,84,136698,5,8,0:0:0
236,272,136856,1,0,0:0:0
424,248,137014,1,8,0:0:0
356,136,137172,6,0,B|384:328,1,190,12|0,0:0|0:0,0:0:0
280,191,137645,2,0,B|308:380,1,190,8|8,0:0|0:0,0:0:0
224,332,138119,1,0,0:0:0
132,308,138277,2,8,P|40:292|16:200,2,190
104,216,139066,2,0,B|152:196|176:112,1,95,0|8,0:0|0:0,0:0:0
68,132,139382,5,0,0:0:0
112,48,139540,2,0,B|300:84,1,190,8|8,0:0|0:0,0:0:0
432,228,140014,1,0,0:0:0
292,196,140172,1,8,0:0:0
388,92,140329,1,0,0:0:0
432,228,140487,1,8,0:0:0
376,304,140645,1,0,0:0:0
288,336,140803,6,8,P|208:368|124:316,1,190
76,236,141277,2,0,B|52:196|72:144,1,95,0|8,0:0|0:0,0:0:0
92,104,141514,1,2,0:0:0
128,76,141593,1,2,0:0:0
172,56,141672,1,2,0:0:0
220,52,141750,1,8,0:0:0
264,64,141829,1,8,0:0:0
308,84,141908,2,0,B|344:132,3,47.5,0|0|2|0,0:0|0:0|0:0|0:0,0:0:0
352,168,142224,6,0,B|344:216|360:272|416:288|465:270,1,190,4|0,0:0|0:0,0:0:0
432,196,142698,2,0,B|300:336,1,190,8|8,0:0|0:0,0:0:0
208,320,143172,1,0,0:0:0
72,200,143329,1,8,0:0:0
28,284,143487,2,0,P|136:272|164:196,1,190
152,112,143961,2,0,B|264:72|332:168,1,190,8|8,0:0|0:0,0:0:0
404,104,144435,1,0,0:0:0
312,68,144593,1,8,0:0:0
232,116,144750,5,0,0:0:0
204,208,144908,1,8,0:0:0
264,284,145066,1,0,0:0:0
356,300,145224,1,8,0:0:0
432,244,145382,2,0,B|432:188|500:152,2,95,0|8|0,0:0|0:0|0:0,0:0:0
478,165,145856,2,0,B|260:184,1,190,8|8,0:0|0:0,0:0:0
204,140,146329,1,0,0:0:0
204,44,146487,2,8,P|104:24|36:80,1,190
128,112,146961,5,0,0:0:0
116,208,147119,1,8,0:0:0
104,304,147277,2,0,B|288:344,1,190,4|0,0:0|0:0,0:0:0
460,288,147750,2,0,B|276:248,1,190,8|8,0:0|0:0,0:0:0
248,156,148224,1,0,0:0:0
292,72,148382,2,8,P|384:32|460:84,1,190
448,172,148856,1,0,0:0:0
436,268,149014,2,8,P|344:308|268:256,1,190
184,236,149487,5,0,0:0:0
92,260,149645,2,8,P|60:152|104:96,1,190
188,56,150119,1,0,0:0:0
308,192,150277,1,8,0:0:0
140,184,150435,1,0,0:0:0
268,96,150593,1,8,0:0:0
224,276,150750,1,0,0:0:0
340,324,150908,1,8,0:0:0
432,308,151066,6,0,P|456:280|456:224,1,95
436,184,151303,1,2,0:0:0
408,152,151382,1,8,0:0:0
368,136,151461,1,2,0:0:0
324,140,151540,1,0,0:0:0
292,168,151619,1,0,0:0:0
272,204,151698,1,8,0:0:0
240,232,151777,1,0,0:0:0
196,236,151856,1,0,0:0:0
156,220,151935,1,0,0:0:0
124,192,152014,2,0,P|108:172|96:144,3,47.5,8|0|0|0,0:0|0:0|0:0|0:0,0:0:0
56,140,152329,6,0,P|16:204|76:296,1,190,4|0,0:0|0:0,0:0:0
160,328,152803,1,8,0:0:0
256,324,152961,1,0,0:0:0
292,236,153119,1,8,0:0:0
216,180,153277,1,0,0:0:0
444,192,153593,6,0,P|352:172|292:240,1,190,4|0,0:0|0:0,0:0:0
200,264,154066,1,8,0:0:0
124,204,154224,1,0,0:0:0
116,108,154382,1,8,0:0:0
188,48,154540,1,0,0:0:0
424,320,154856,6,0,B|416:244|384:212|384:212|376:176|400:136,1,190,4|8,0:0|0:0,0:0:0
88,64,155487,2,0,B|96:140|128:172|128:172|136:208|112:248,1,190,4|8,0:0|0:0,0:0:0
464,332,156119,1,4,0:0:0
196,64,156435,1,8,0:0:0
84,328,156750,1,4,0:0:0
380,92,157066,1,8,0:0:0
392,280,157382,5,8,0:0:0
364,292,157461,1,0,0:0:0
336,292,157540,1,0,0:0:0
256,236,157698,1,0,0:0:0
180,340,157856,1,8,0:0:0
80,260,158014,2,0,P|20:180|56:104,1,190
116,176,158487,1,8,0:0:0
140,84,158645,6,0,B|328:64,1,190
392,136,159119,1,8,0:0:0
356,224,159277,2,0,B|168:244,1,190
124,332,159751,1,8,0:0:0
56,264,159908,6,0,P|16:172|68:96,1,190
108,184,160382,1,8,0:0:0
160,264,160540,2,0,P|200:172|148:96,1,190
292,56,161014,1,8,0:0:0
416,128,161172,6,0,B|432:103|432:67,2,63.3333333333333,8|0|0,0:0|0:0|0:0,0:0:0
376,148,161487,2,0,B|360:123|360:87,2,63.3333333333333,8|0|0,0:0|0:0|0:0,0:0:0
364,192,161803,1,8,0:0:0
332,224,161908,1,0,0:0:0
288,228,162014,1,0,0:0:0
248,212,162119,1,8,0:0:0
208,224,162224,1,0,0:0:0
184,260,162329,1,0,0:0:0
176,304,162435,6,0,B|132:324|76:316|40:272|44:216,1,190,6|8,0:0|0:0,0:0:0
100,68,162908,1,0,0:0:0
256,28,163066,1,12,0:0:0
256,28,163382,1,8,0:0:0
256,28,163698,6,0,P|320:104|416:88,1,190,6|8,0:0|0:0,0:0:0
344,28,164172,1,0,0:0:0
280,192,164329,1,12,0:0:0
280,192,164645,1,8,0:0:0
280,192,164961,6,0,P|212:268|128:224,1,190,4|8,0:0|0:0,0:0:0
56,232,165435,2,0,P|124:156|208:200,1,190,4|0,0:0|0:0,0:0:0
236,268,165908,1,8,0:0:0
320,312,166066,1,8,0:0:0
416,300,166224,2,0,P|440:208|440:208|436:192|436:192|456:112,2,190,6|8|0,0:0|0:0|0:0,0:0:0
352,228,167014,5,8,0:0:0
456,116,167172,1,0,0:0:0
384,52,167329,1,8,0:0:0
288,56,167487,6,0,P|96:84,1,190,6|0,0:0|0:0,0:0:0
104,180,167961,1,0,0:0:0
160,256,168119,1,8,0:0:0
160,256,168435,1,8,0:0:0
160,256,168751,6,0,P|252:276|308:196,1,190,6|8,0:0|0:0,0:0:0
296,116,169224,1,0,0:0:0
380,160,169382,2,0,P|440:231|396:318,1,190,12|8,0:0|0:0,0:0:0
312,336,169856,1,0,0:0:0
216,324,170014,6,0,P|188:276|144:264|144:264|120:228|120:140,1,190,4|8,0:0|0:0,0:0:0
124,48,170487,2,0,P|152:96|196:108|196:108|220:144|220:232,1,190,4|8,0:0|0:0,0:0:0
296,256,170961,1,8,0:0:0
392,244,171119,1,0,0:0:0
408,152,171277,5,12,0:0:0
384,116,171356,1,2,0:0:0
348,96,171435,1,2,0:0:0
304,100,171514,1,2,0:0:0
264,116,171593,2,0,B|240:132|228:152,3,47.5,2|2|2|2,0:0|0:0|0:0|0:0,0:0:0
196,176,171908,5,8,0:0:0
156,192,171987,1,2,0:0:0
116,180,172066,1,2,0:0:0
92,144,172145,1,2,0:0:0
96,100,172224,1,8,0:0:0
128,72,172303,1,2,0:0:0
172,68,172382,1,2,0:0:0
208,88,172461,1,2,0:0:0
220,128,172540,5,12,0:0:0
236,80,182645,6,0,P|328:36|400:112,1,190,4|0,0:0|0:0,0:0:0
400,176,183119,1,8,0:0:0
316,224,183277,2,0,P|300:180|316:132,1,95,0|8,0:0|0:0,0:0:0
452,260,183593,2,0,P|396:336|320:304,1,190,4|0,0:0|0:0,0:0:0
236,264,184066,1,8,0:0:0
152,220,184224,2,0,P|100:212|52:240,1,95,0|8,0:0|0:0,0:0:0
40,136,184540,2,0,P|104:60|200:56,1,190,0|8,0:0|0:0,0:0:0
304,328,185172,5,4,0:0:0
212,300,185329,1,8,0:0:0
184,284,185408,1,0,0:0:0
164,256,185487,1,0,0:0:0
156,160,185645,1,8,0:0:0
156,160,185803,2,0,P|160:108|196:64,1,95,0|8,0:0|0:0,0:0:0
276,56,186119,2,0,P|272:108|236:152,1,95,0|8,0:0|0:0,0:0:0
68,272,186435,6,0,P|108:300|152:320,1,95,0|8,0:0|0:0,0:0:0
400,144,186751,2,0,P|360:116|316:96,1,95,0|8,0:0|0:0,0:0:0
240,44,187066,1,0,0:0:0
148,28,187224,1,8,0:0:0
84,96,187382,1,0,0:0:0
116,184,187540,1,8,0:0:0
204,224,187698,6,0,B|276:260|364:240|412:160|392:92,1,285,4|8,0:0|0:0,0:0:0
84,96,188487,1,8,0:0:0
72,192,188645,2,0,B|53:256|101:336|189:356|261:320,1,285,4|8,0:0|0:0,0:0:0
348,280,189277,1,0,0:0:0
392,196,189435,1,0,0:0:0
356,108,189593,2,0,P|268:48|192:88,1,190
200,80,190066,1,8,0:0:0
64,228,190224,5,4,0:0:0
136,168,190382,2,0,B|88:136,4,47.5,8|2|8|2|8,0:0|0:0|0:0|0:0|0:0,0:0:0
220,216,190856,5,4,0:0:0
312,225,191014,2,0,B|301:168,4,47.5,8|2|8|2|8,0:0|0:0|0:0|0:0|0:0,0:0:0
364,304,191487,5,4,0:0:0
447,343,191645,2,0,B|456:286,4,47.5,8|2|8|2|8,0:0|0:0|0:0|0:0|0:0,0:0:0
452,164,192119,5,4,0:0:0
360,188,192277,1,8,0:0:0
344,180,192355,1,2,0:0:0
328,172,192434,1,8,0:0:0
312,164,192513,1,2,0:0:0
296,156,192592,1,2,0:0:0
280,148,192671,1,2,0:0:0
264,140,192751,1,12,0:0:0
256,192,192829,12,0,195277,0:0:0
