osu file format v11

[General]
AudioFilename: 05 Resurrection Blossom.mp3
AudioLeadIn: 1500
PreviewTime: 111751
Countdown: 0
SampleSet: Normal
StackLeniency: 0.7
Mode: 0
LetterboxInBreaks: 1

[Editor]
Bookmarks: 28698,155253,170411
DistanceSpacing: 0.8
BeatDivisor: 2
GridSize: 4

[Metadata]
Title:Resurrection Blossom
TitleUnicode:Resurrection Blossom
Artist:IOSYS
ArtistUnicode:IOSYS
Creator:Snepif
Version:Hard
Source:Touhou
Tags:th07 PCB Perfect Cherry Border of Life metal Saigyouji Yuyuko JeuXinTerdiTs
BeatmapID:177862
BeatmapSetID:54043

[Difficulty]
HPDrainRate:5
CircleSize:4
OverallDifficulty:5
ApproachRate:8
SliderMultiplier:1.6
SliderTickRate:1

[Events]
//Background and Video events
0,0,"BG.jpg"
//Break Periods
2,51477,60316
2,102003,111158
2,152529,160422
//Storyboard Layer 0 (Background)
//Storyboard Layer 1 (Fail)
//Storyboard Layer 2 (Pass)
//Storyboard Layer 3 (Foreground)
//Storyboard Sound Samples
//Background Colour Transformations
3,100,163,162,255

[TimingPoints]
751,315.789473684211,4,1,0,77,1,0
829,-100,4,2,0,77,0,0
1935,-100,4,1,0,77,0,0
2093,-100,4,2,0,77,0,0
3198,-100,4,1,0,77,0,0
3356,-100,4,2,0,77,0,0
3829,-100,4,1,0,77,0,0
3987,-100,4,2,0,77,0,0
4461,-200,4,1,0,77,0,0
4619,-200,4,2,0,77,0,0
5724,-200,4,1,0,77,0,0
6040,-100,4,2,0,77,0,0
6987,-100,4,1,0,77,0,0
7303,-100,4,2,0,77,0,0
8251,-100,4,1,0,77,0,0
8408,-100,4,2,0,77,0,0
8882,-100,4,1,0,77,0,0
9040,-100,4,2,0,77,0,0
10224,-100,4,1,0,77,0,0
11172,-100,4,1,1,77,0,0
20882,-133.333333333333,4,1,1,65,0,0
30593,-100,4,2,0,77,0,0
30829,-100,4,1,1,77,0,0
31066,-100,4,1,1,77,0,1
31382,-100,4,1,1,77,0,0
61382,-100,4,1,1,77,0,1
71487,-100,4,1,1,77,0,0
76856,-100,4,1,1,70,0,0
77645,-100,4,2,0,75,0,0
77803,-100,4,1,1,67,0,0
79066,-100,4,1,1,50,0,0
80329,-100,4,1,1,100,0,1
80803,-100,4,1,1,77,0,0
91698,-133.333333333333,4,1,1,77,0,0
92803,-133.333333333333,4,2,0,77,0,0
93119,-133.333333333333,4,1,1,77,0,0
95329,-133.333333333333,4,2,0,77,0,0
95645,-133.333333333333,4,1,1,77,0,0
97856,-133.333333333333,4,2,0,77,0,0
98172,-133.333333333333,4,1,1,77,0,0
100382,-133.333333333333,4,2,0,77,0,0
100698,-133.333333333333,4,1,1,77,0,0
101803,-100,4,1,1,77,0,0
122014,-133.333333333333,4,1,1,60,0,0
130698,-200,4,1,2,65,0,0
131645,-100,4,2,0,77,0,0
131961,-100,4,1,1,77,0,0
132119,-100,4,1,1,77,0,1
142224,-100,4,1,1,77,0,0
162435,-100,4,1,1,77,0,1
172540,-100,4,1,1,77,0,0
195277,-100,4,2,0,5,0,0

[Colours]
Combo1 : 115,190,247
Combo2 : 205,7,248
Combo3 : 203,134,249
Combo4 : 13,109,181
Combo5 : 253,104,238

[HitObjects]
60,124,751,2,0,B|100:168|188:168|232:104|216:40,2,240
328,224,2014,2,0,B|288:180|200:180|156:244|172:308,2,240
432,100,3277,2,0,B|340:104|283:51,1,160,4|0,0:0|0:0,0:0:0
144,212,3908,2,0,B|200:159|292:163,1,160,4|0,0:0|0:0,0:0:0
460,220,4540,6,0,B|432:304|372:348|372:348|284:356|212:312,1,320,4|4,0:0|0:0,0:0:0
152,268,5961,5,4,0:0:0
348,48,7066,1,4,0:0:0
368,124,7224,1,4,0:0:0
348,324,8329,2,0,B|276:268|192:312,1,160,4|0,0:0|0:0,0:0:0
36,208,8961,2,0,B|108:264|192:220,1,160,4|0,0:0|0:0,0:0:0
124,76,9593,1,4,1:0:0
448,107,10224,6,0,B|432:104|412:92,7,40
376,72,10856,6,0,B|296:96|216:68,1,160,4|8,0:0|0:0,0:0:0
184,136,11329,2,0,B|188:184|160:220|112:228|76:216,1,160
20,160,11803,2,0,B|56:320,1,160,8|0,0:0|0:0,0:0:0
136,304,12277,5,8,0:0:0
208,340,12435,1,0,0:0:0
288,332,12593,2,0,B|332:312|348:276,1,80,0|8,0:0|0:0,0:0:0
224,84,13066,1,0,0:0:0
456,40,13382,6,0,B|428:128,1,80,0|8,0:0|0:0,0:0:0
356,88,13698,2,0,B|348:172,1,80,0|8,0:0|0:0,0:0:0
316,240,14014,2,0,B|288:264|240:264|196:240|184:192,1,160,8|0,0:0|0:0,0:0:0
84,72,14645,6,0,B|112:48|164:48|204:72|216:120,1,160,12|0,0:0|0:0,0:0:0
264,176,15119,1,8,0:0:0
192,208,15277,2,0,B|212:248|256:256,1,80,0|8,0:0|0:0,0:0:0
288,100,15593,2,0,B|308:60|352:52,1,80,0|8,0:0|0:0,0:0:0
360,128,15908,6,0,B|364:288,1,160,4|0,0:0|0:0,0:0:0
292,324,16382,2,0,B|255:338|211:338|179:306|171:258,1,160,8|8,0:0|0:0,0:0:0
252,252,16856,2,0,B|244:204|212:172|168:172|128:188,1,160
60,160,17329,1,8,0:0:0
56,80,17487,2,0,B|92:56|132:52,1,80,0|8,0:0|0:0,0:0:0
192,108,17803,2,0,B|176:268,1,160,0|8,0:0|0:0,0:0:0
280,144,18435,6,0,B|364:128|408:44,1,160,8|0,0:0|0:0,0:0:0
472,96,18908,1,8,0:0:0
496,172,19066,2,0,B|412:188|368:272,1,160,0|8,0:0|0:0,0:0:0
344,340,19540,1,0,0:0:0
288,280,19698,6,0,B|248:252,2,40,8|0|0,0:0|0:0|0:0,0:0:0
224,332,20014,1,0,0:0:0
176,268,20172,2,0,B|160:216,2,40,8|0|0,0:0|0:0|0:0,0:0:0
100,288,20487,1,0,0:0:0
72,212,20645,2,0,B|80:160,2,40,8|0|0,0:0|0:0|0:0,0:0:0
64,100,20961,6,0,B|96:92|132:116,1,60.0000022888184,0|8,0:0|0:0,0:0:0
172,76,21277,2,0,B|204:88|228:120,1,60.0000022888184,0|8,0:0|0:0,0:0:0
280,100,21593,2,0,B|304:124|316:164,1,60.0000022888184,0|8,0:0|0:0,0:0:0
372,152,21908,1,0,0:0:0
428,168,22066,2,0,B|400:224|400:224|392:288,1,120.000004577637,8|0,0:0|0:0,0:0:0
396,340,22540,1,8,0:0:0
276,204,22856,1,8,0:0:0
216,372,23172,1,8,0:0:0
312,280,23487,6,0,B|332:256|360:244,1,60.0000022888184,0|8,0:0|0:0,0:0:0
380,188,23803,1,0,0:0:0
364,132,23961,1,8,0:0:0
308,108,24119,2,0,B|328:48,2,60.0000022888184,0|8|0,0:0|0:0|0:0,0:0:0
248,108,24593,2,0,B|196:144|132:128,1,120.000004577637,8|8,0:0|0:0,0:0:0
176,48,25066,5,4,0:0:0
78,201,25382,2,0,B|104:220|136:216,1,60.0000022888184,0|8,0:0|0:0,0:0:0
252,200,25698,2,0,B|288:196|312:168,1,60.0000022888184,0|8,0:0|0:0,0:0:0
348,248,26014,6,0,B|330:262|294:274,1,60.0000022888184,0|8,0:0|0:0,0:0:0
236,292,26329,1,0,0:0:0
176,292,26487,1,8,0:0:0
116,280,26645,2,0,B|104:312|76:332,2,60.0000022888184,0|8|0,0:0|0:0|0:0,0:0:0
112,220,27119,2,0,B|96:88,1,120.000004577637,8|0,0:0|0:0,0:0:0
92,40,27593,1,8,0:0:0
272,28,27908,1,8,0:0:0
200,192,28224,1,8,0:0:0
176,72,28540,5,0,0:0:0
132,116,28698,1,8,0:0:0
104,168,28856,2,0,B|88:200|88:232,1,60.0000022888184,0|8,0:0|0:0,0:0:0
88,284,29172,2,0,B|92:320|104:348,2,60.0000022888184,0|8|0,0:0|0:0|0:0,0:0:0
28,292,29645,1,12,0:0:0
248,304,30593,5,0,0:0:0
248,192,30751,1,0,0:0:0
349,243,30908,1,8,0:0:0
416,200,31066,6,0,B|360:48,1,160,12|0,0:0|0:0,0:0:0
284,72,31540,2,0,B|252:120|180:128|136:96,1,160,8|0,0:0|0:0,0:0:0
61,111,32014,1,0,0:0:0
28,184,32172,1,8,0:0:0
107,177,32329,2,0,B|171:209|227:197|227:197|255:229,1,160,12|0,0:0|0:0,0:0:0
208,292,32803,2,0,B|244:316|292:308|324:280|332:236,1,160,8|0,0:0|0:0,0:0:0
332,156,33277,1,0,0:0:0
252,148,33435,1,8,0:0:0
204,84,33593,6,0,B|252:72|268:32,2,80,8|0|8,0:0|0:0|0:0,0:0:0
132,124,34066,1,0,0:0:0
124,204,34224,2,0,B|76:192|60:152,2,80,8|0|8,0:0|0:0|0:0,0:0:0
200,224,34698,2,0,B|244:226|288:244|299:288|296:328,1,160,8|8,0:0|0:0,0:0:0
212,312,35172,1,0,0:0:0
296,326,35329,2,0,B|372:296|372:296|464:320,1,160,8|0,0:0|0:0,0:0:0
440,236,35803,1,0,0:0:0
364,216,35961,1,8,0:0:0
292,248,36119,6,0,B|156:160,1,160,12|0,0:0|0:0,0:0:0
168,80,36593,2,0,B|304:168,1,160,8|8,0:0|0:0,0:0:0
376,132,37066,1,0,0:0:0
308,92,37224,2,0,B|272:76|228:108|208:152|228:196,2,160,8|8|8,0:0|0:0|0:0,0:0:0
280,252,38172,6,0,B|248:288|260:328,1,80,8|0,0:0|0:0,0:0:0
336,308,38487,2,0,B|428:308|468:228,1,160,8|8,0:0|0:0,0:0:0
424,160,38961,2,0,B|412:116|436:72,2,80,0|8|0,0:0|0:0|0:0,0:0:0
344,164,39435,1,8,0:0:0
280,116,39593,1,0,0:0:0
220,64,39751,2,0,B|148:100|148:100|64:92,1,160,8|8,0:0|0:0,0:0:0
36,248,40382,6,0,P|40:272|52:296,5,40,8|0|0|0|8|0,0:0|0:0|0:0|0:0|0:0|0:0,0:0:0
72,316,40856,1,0,0:0:0
136,268,41014,1,8,0:0:0
208,324,41172,6,0,B|288:348|368:328,1,160,12|0,0:0|0:0,0:0:0
368,248,41645,2,0,B|288:224|208:244,1,160,8|0,0:0|0:0,0:0:0
132,232,42119,1,0,0:0:0
76,172,42277,1,8,0:0:0
56,96,42435,2,0,B|76:56|116:40|160:48|188:88,1,160,12|0,0:0|0:0,0:0:0
256,48,42908,2,0,B|284:88|328:96|368:80|388:40,1,160,8|0,0:0|0:0,0:0:0
444,96,43382,1,0,0:0:0
384,148,43540,1,8,0:0:0
304,156,43698,6,0,B|264:156|228:128,1,80,8|0,0:0|0:0,0:0:0
156,96,44014,1,8,0:0:0
144,176,44172,1,0,0:0:0
212,216,44329,2,0,B|248:240|300:240,1,80,8|0,0:0|0:0,0:0:0
364,220,44645,1,8,0:0:0
448,220,44803,6,0,B|412:296|412:296|341:322,1,160,8|8,0:0|0:0,0:0:0
256,292,45277,1,0,0:0:0
171,322,45435,2,0,B|100:296|100:296|64:220,1,160,8|0,0:0|0:0,0:0:0
40,140,45908,1,0,0:0:0
88,76,46066,1,8,0:0:0
88,76,46224,6,0,B|156:220,1,160,12|0,0:0|0:0,0:0:0
220,168,46698,2,0,B|256:212|320:216|364:184,1,160,8|8,0:0|0:0,0:0:0
296,128,47172,1,0,0:0:0
372,88,47329,2,0,B|336:44|272:40|228:72,1,160,8|8,0:0|0:0,0:0:0
148,68,47803,2,0,B|124:148|124:148|40:196,1,160,0|8,0:0|0:0,0:0:0
112,244,48277,5,8,0:0:0
192,244,48435,1,0,0:0:0
260,292,48593,2,0,B|288:324|324:348|368:344|404:328,1,160,8|8,0:0|0:0,0:0:0
344,252,49066,2,0,B|380:228|424:236,1,80,0|8,0:0|0:0,0:0:0
496,204,49382,2,0,B|476:164|432:156,1,80,0|8,0:0|0:0,0:0:0
356,160,49698,1,0,0:0:0
284,196,49856,1,8,0:0:0
284,116,50014,5,4,0:0:0
204,128,50172,1,0,0:0:0
128,112,50329,2,0,B|120:132|100:152,3,40,8|0|0|0,0:0|0:0|0:0|0:0,0:0:0
68,140,50645,2,0,B|54:153|46:173,3,40,8|0|0|0,0:0|0:0|0:0|0:0,0:0:0
20,204,50961,2,0,P|20:229|32:252,3,40,8|0|0|0,0:0|0:0|0:0|0:0,0:0:0
48,276,51277,5,12,0:0:0
104,116,61066,5,8,0:0:0
212,64,61224,1,0,0:0:0
212,184,61382,2,0,B|292:200|292:200|376:172,1,160,12|0,0:0|0:0,0:0:0
444,156,61856,2,0,B|436:212|452:268|492:304,1,160,8|0,0:0|0:0,0:0:0
428,356,62329,5,8,0:0:0
376,296,62487,1,0,0:0:0
296,304,62645,2,0,B|132:320,1,160,12|0,0:0|0:0,0:0:0
60,296,63119,2,0,B|36:264|32:216|68:176|116:176,1,160,8|0,0:0|0:0,0:0:0
156,112,63593,5,8,0:0:0
156,112,63751,1,0,0:0:0
180,32,63908,2,0,B|222:31|252:72|256:120|232:156,1,160,12|0,0:0|0:0,0:0:0
196,228,64382,2,0,B|216:312|216:312|276:372,1,160,12|0,0:0|0:0,0:0:0
340,328,64856,1,8,0:0:0
352,248,65014,1,0,0:0:0
364,168,65172,2,0,B|344:112|408:64|384:8,2,160,12|0|0,0:0|0:0|0:0,0:0:0
284,172,65961,2,0,B|276:128|296:88,2,80,8|0|8,0:0|0:0|0:0,0:0:0
236,236,66435,6,0,B|216:268|168:288|120:280|88:252,1,160,12|0,0:0|0:0,0:0:0
80,176,66908,2,0,B|100:144|148:124|196:132|228:160,1,160,8|8,0:0|0:0,0:0:0
296,200,67382,1,0,0:0:0
336,268,67540,1,8,0:0:0
392,324,67698,2,0,B|440:308|464:284|464:284|470:247|448:194,1,160,8|0,0:0|0:0,0:0:0
472,128,68172,2,0,B|472:88|448:44|400:32|364:40,1,160,8|0,0:0|0:0,0:0:0
384,128,68645,5,8,0:0:0
384,128,68803,1,0,0:0:0
384,128,68961,2,0,B|308:160|224:156,1,160,8|0,0:0|0:0,0:0:0
176,92,69435,2,0,B|108:144|72:223,1,160,8|8,0:0|0:0,0:0:0
64,292,69908,1,0,0:0:0
124,344,70066,1,8,0:0:0
204,336,70224,5,12,0:0:0
248,276,70382,2,0,B|280:244,5,40,0|0|8|0|0|0,0:0|0:0|0:0|0:0|0:0|0:0,0:0:0
248,220,70856,2,0,B|264:160,7,40,8|0|0|0|8|0|0|0,0:0|0:0|0:0|0:0|0:0|0:0|0:0|0:0,0:0:0
240,144,71487,5,12,0:0:0
424,92,72751,1,4,0:0:0
128,296,74014,1,4,0:0:0
332,52,74645,1,4,0:0:0
444,352,75277,1,4,0:0:0
200,48,76540,5,4,0:0:0
60,124,76856,2,0,B|88:152|136:168,1,80
72,224,77172,2,0,B|108:248|156:244,1,80
116,320,77487,2,0,B|160:324|196:312,1,80,0|2,0:0|0:0,0:0:0
228,240,77803,6,0,B|228:160,1,80,4|0,0:0|0:0,0:0:0
300,196,78119,2,0,B|312:112,1,80
380,156,78435,2,0,B|404:76,3,80
468,128,79066,6,0,B|460:168|476:216,1,80,4|0,0:0|0:0,0:0:0
396,228,79382,2,0,B|412:268|460:292,1,80,4|0,0:0|0:0,0:0:0
388,340,79698,2,0,B|351:322|335:282,1,80
256,296,80014,2,0,B|242:256|250:216,1,80
208,148,80329,6,0,B|206:88|247:26|319:16|377:43,1,240,4|0,0:0|0:0,0:0:0
440,92,80961,2,0,B|440:116|424:140,7,40,0|0|8|0|8|0|8|0,0:0|0:0|0:0|0:0|0:0|0:0|0:0|0:0,0:0:0
400,160,81593,6,0,B|412:244,1,80,12|0,0:0|0:0,0:0:0
380,312,81908,2,0,B|296:344|228:288,1,160,8|8,0:0|0:0,0:0:0
244,208,82382,1,0,0:0:0
328,240,82540,2,0,B|316:160,1,80,8|0,0:0|0:0,0:0:0
308,80,82856,2,0,B|224:96|160:32,1,160,8|0,0:0|0:0,0:0:0
120,104,83329,2,0,B|56:252,2,160,8|8|0,0:0|0:0|0:0,0:0:0
198,96,84119,6,0,B|238:92|238:92|278:76,1,80,8|0,0:0|0:0,0:0:0
352,52,84435,1,8,0:0:0
352,52,84593,1,0,0:0:0
432,56,84751,2,0,B|424:136,3,80,8|0|8|0,0:0|0:0|0:0|0:0,0:0:0
356,176,85382,2,0,B|336:256|364:336,1,160,8|0,0:0|0:0,0:0:0
420,276,85856,2,0,B|352:232|264:240,2,160,8|8|8,0:0|0:0|0:0,0:0:0
448,200,86645,6,0,B|472:36,1,160,4|0,0:0|0:0,0:0:0
316,8,87119,2,0,B|292:166,1,160,8|8,0:0|0:0,0:0:0
372,176,87593,2,0,B|396:12,2,160,0|4|8,0:0|0:0|0:0,0:0:0
360,256,88382,2,0,B|340:288|304:316|256:312|220:280,2,160,8|8|0,0:0|0:0|0:0,0:0:0
280,220,89172,5,12,0:0:0
280,220,89329,1,0,0:0:0
216,176,89487,2,0,B|208:136|180:92,1,80,8|0,0:0|0:0,0:0:0
104,100,89803,1,8,0:0:0
104,100,89961,1,0,0:0:0
40,148,90119,2,0,B|44:188|76:232,1,80,8|0,0:0|0:0,0:0:0
116,288,90435,6,0,B|224:280|224:280|304:316|304:316|372:304|392:232,1,320,12|8,0:0|0:0,0:0:0
416,160,91224,2,0,B|416:136|432:116,5,40,0|0|8|0|0|0,0:0|0:0|0:0|0:0|0:0|0:0,0:0:0
424,92,91698,6,0,B|412:64|420:28,2,60.0000022888184,4|8|0,0:0|0:0|0:0,0:0:0
364,108,92172,2,0,B|332:108|308:84,2,60.0000022888184,8|0|8,0:0|0:0|0:0,0:0:0
412,216,92803,2,0,B|392:276|324:296,1,120.000004577637,2|8,0:0|0:0,0:0:0
272,276,93277,2,0,B|260:216,2,60.0000022888184,0|8|0,0:0|0:0|0:0,0:0:0
220,308,93751,2,0,B|176:248,2,60.0000022888184,8|0|8,0:0|0:0|0:0,0:0:0
172,344,94224,6,0,B|116:312,1,60.0000022888184,0|8,0:0|0:0,0:0:0
80,268,94540,2,0,B|56:248|36:204,1,60.0000022888184,0|8,0:0|0:0,0:0:0
60,160,94856,2,0,B|48:140|40:96,1,60.0000022888184,0|8,0:0|0:0,0:0:0
148,44,95329,2,0,B|216:44|252:100,1,120.000004577637,2|8,0:0|0:0,0:0:0
300,132,95803,2,0,B|336:120|352:92,2,60.0000022888184,0|8|0,0:0|0:0|0:0,0:0:0
328,188,96277,2,0,B|392:188,2,60.0000022888184,8|0|8,0:0|0:0|0:0,0:0:0
300,240,96751,6,0,B|336:252|352:280,1,60.0000022888184,4|8,0:0|0:0,0:0:0
404,292,97066,2,0,B|424:272|440:240,2,60.0000022888184,0|8|0,0:0|0:0|0:0,0:0:0
448,332,97540,1,8,0:0:0
328,332,97856,2,0,B|268:332|268:332|208:348,1,120.000004577637,2|8,0:0|0:0,0:0:0
176,300,98329,1,0,0:0:0
176,300,98487,1,8,0:0:0
212,252,98645,2,0,B|272:236,1,60.0000022888184,0|8,0:0|0:0,0:0:0
228,192,98961,2,0,B|288:176,1,60.0000022888184,0|8,0:0|0:0,0:0:0
320,128,99277,6,0,B|332:100|328:60,2,60.0000022888184,4|8|0,0:0|0:0|0:0,0:0:0
376,152,99751,2,0,B|404:136|416:100,2,60.0000022888184,8|0|8,0:0|0:0|0:0,0:0:0
256,172,100382,2,0,B|188:180|152:128,1,120.000004577637,2|8,0:0|0:0,0:0:0
92,120,100856,2,0,B|88:148,7,30.0000011444092,8|0|0|0|8|0|0|0,0:0|0:0|0:0|0:0|0:0|0:0|0:0|0:0,0:0:0
104,176,101487,2,0,B|112:220,3,30.0000011444092,8|0|0|0,0:0|0:0|0:0|0:0,0:0:0
140,232,101803,5,12,0:0:0
207,75,111908,6,0,B|248:124|320:140|384:108|408:52,2,240,12|0|8,0:0|0:0|0:0,0:0:0
60,204,113172,2,0,B|100:156|172:140|236:172|260:228,2,240,8|0|8,0:0|0:0|0:0,0:0:0
316,344,114435,2,0,B|360:188,1,160,0|8,0:0|0:0,0:0:0
304,40,115066,2,0,B|260:196,1,160,0|8,0:0|0:0,0:0:0
108,244,115698,2,0,B|152:320|248:296,1,160,12|0,0:0|0:0,0:0:0
316,260,116172,1,8,0:0:0
384,304,116329,2,0,B|428:236|428:236|440:152,1,160,0|8,0:0|0:0,0:0:0
288,108,116961,6,0,B|252:120|200:116|172:76|176:24,1,160,12|0,0:0|0:0,0:0:0
252,36,117435,2,0,B|168:176,1,160,8|8,0:0|0:0,0:0:0
96,144,117908,1,0,0:0:0
108,224,118066,1,8,0:0:0
182,253,118224,2,0,B|270:289|330:225,1,160,12|0,0:0|0:0,0:0:0
317,146,118698,2,0,B|229:110|169:174,1,160,8|8,0:0|0:0,0:0:0
108,224,119172,2,0,P|124:312|196:332,1,160,0|12,0:0|0:0,0:0:0
264,204,119803,5,0,0:0:0
408,72,120119,1,12,0:0:0
380,312,120435,1,0,0:0:0
272,72,120751,2,0,B|288:88|304:96,7,40,12|0|0|0|0|0|0|0,0:0|0:0|0:0|0:0|0:0|0:0|0:0|0:0,0:0:0
316,132,121382,2,0,B|344:144|360:168,4,40,8|0|0|0|12,0:0|0:0|0:0|0:0|0:0,0:0:0
204,252,122014,5,4,0:0:0
144,240,122172,1,8,0:0:0
108,192,122329,2,0,B|88:172|84:132,1,60.0000022888184,0|8,0:0|0:0,0:0:0
144,132,122645,2,0,B|132:100|144:68,1,60.0000022888184,0|8,0:0|0:0,0:0:0
200,92,122961,2,0,B|204:56|228:32,1,60.0000022888184,0|8,0:0|0:0,0:0:0
300,132,123435,1,0,0:0:0
300,132,123593,1,8,0:0:0
360,236,123908,1,8,0:0:0
448,152,124224,1,8,0:0:0
416,296,124540,6,0,B|388:312|352:316,1,60.0000022888184,0|8,0:0|0:0,0:0:0
300,320,124856,1,0,0:0:0
240,316,125014,1,8,0:0:0
184,300,125172,2,0,B|176:332|136:356,2,60.0000022888184,0|8|0,0:0|0:0|0:0,0:0:0
212,248,125645,2,0,B|240:200|248:132,1,120.000004577637,8|8,0:0|0:0,0:0:0
204,92,126119,5,0,0:0:0
204,92,126277,1,8,0:0:0
144,96,126435,1,0,0:0:0
144,96,126593,1,8,0:0:0
84,112,126751,2,0,B|48:120|24:140,1,60.0000022888184,0|8,0:0|0:0,0:0:0
44,192,127066,6,0,B|84:244,1,60.0000022888184,0|8,0:0|0:0,0:0:0
136,216,127382,2,0,B|152:272,1,60.0000022888184,0|8,0:0|0:0,0:0:0
212,280,127698,2,0,B|212:340,2,60.0000022888184,0|8|0,0:0|0:0|0:0,0:0:0
260,244,128172,2,0,B|276:184|304:128,1,120.000004577637,8|0,0:0|0:0,0:0:0
332,80,128645,2,0,B|352:100|380:116|420:112|448:96,2,120.000004577637,8|8|8,0:0|0:0|0:0,0:0:0
436,192,129593,6,0,B|440:224|456:252,1,60.0000022888184,0|8,0:0|0:0,0:0:0
396,248,129908,2,0,B|400:280|416:308,1,60.0000022888184,0|8,0:0|0:0,0:0:0
360,336,130224,1,0,0:0:0
300,336,130382,1,8,0:0:0
244,312,130540,1,0,0:0:0
200,272,130698,6,0,B|120:236|180:112|92:64,1,240,12|0,0:0|0:0,0:0:0
60,140,131803,5,0,0:0:0
40,260,131961,1,8,0:0:0
140,328,132119,2,0,B|204:268|288:296,1,160,12|0,0:0|0:0,0:0:0
356,340,132593,2,0,B|420:184,1,160,8|8,0:0|0:0,0:0:0
384,120,133066,5,0,0:0:0
324,64,133224,1,8,0:0:0
244,52,133382,2,0,B|204:36|156:44|128:80|124:124,1,160,12|0,0:0|0:0,0:0:0
208,128,133856,2,0,B|256:200|260:288,1,160,8|8,0:0|0:0,0:0:0
324,316,134329,5,0,0:0:0
324,316,134487,1,8,0:0:0
252,348,134645,2,0,B|212:360|164:360,1,80,12|0,0:0|0:0,0:0:0
128,292,134961,2,0,B|168:280|216:280,1,80,8|0,0:0|0:0,0:0:0
176,204,135277,2,0,B|136:216|88:216,2,80,8|0|8,0:0|0:0|0:0,0:0:0
252,180,135751,2,0,B|316:132|316:132|348:56,1,160,8|8,0:0|0:0,0:0:0
428,72,136224,1,0,0:0:0
428,72,136382,2,0,B|364:220,1,160,8|8,0:0|0:0,0:0:0
428,268,136856,6,0,B|400:304|352:296,1,80,0|8,0:0|0:0,0:0:0
280,272,137172,2,0,B|232:272|204:240|196:192|224:156,1,160,12|0,0:0|0:0,0:0:0
292,196,137645,2,0,B|355:49,1,160,8|8,0:0|0:0,0:0:0
276,28,138119,1,0,0:0:0
200,48,138277,2,0,B|136:96|136:96|48:88,2,160,8|8|8,0:0|0:0|0:0,0:0:0
360,72,139224,5,8,0:0:0
412,132,139382,1,0,0:0:0
440,208,139540,2,0,B|456:304|392:356,1,160,8|8,0:0|0:0,0:0:0
340,296,140014,2,0,B|264:256,1,80,0|8,0:0|0:0,0:0:0
208,312,140329,2,0,B|278:349,2,80,0|8|0,0:0|0:0|0:0,0:0:0
136,280,140803,2,0,B|80:220|84:128,1,160,8|8,0:0|0:0,0:0:0
224,56,141435,5,0,0:0:0
224,136,141593,2,0,B|224:156|240:184,7,40,8|0|0|0|8|0|0|0,0:0|0:0|0:0|0:0|0:0|0:0|0:0|0:0,0:0:0
260,204,142224,6,0,B|288:236|332:248|376:232|400:196,1,160,12|0,0:0|0:0,0:0:0
468,152,142698,2,0,B|440:120|396:108|352:124|328:160,1,160,8|8,0:0|0:0,0:0:0
328,240,143172,1,0,0:0:0
300,316,143329,1,8,0:0:0
232,356,143487,2,0,B|144:380|80:312,1,160,12|0,0:0|0:0,0:0:0
36,252,143961,2,0,B|72:92,1,160,8|8,0:0|0:0,0:0:0
152,108,144435,5,0,0:0:0
212,56,144593,1,8,0:0:0
292,44,144750,2,0,B|336:44|372:80,1,80,8|0,0:0|0:0,0:0:0
380,152,145066,2,0,B|336:152|300:116,1,80,8|0,0:0|0:0,0:0:0
240,168,145382,1,8,0:0:0
208,244,145540,1,0,0:0:0
224,324,145698,1,8,0:0:0
296,360,145856,2,0,B|340:360|380:340|396:300|388:256,2,160,8|8|8,0:0|0:0|0:0,0:0:0
456,340,146803,5,8,0:0:0
468,260,146961,1,0,0:0:0
432,188,147119,1,8,0:0:0
360,152,147277,2,0,B|308:128|308:128|272:88|272:88|224:68,1,160,12|0,0:0|0:0,0:0:0
148,84,147750,2,0,B|160:128|136:164|104:192|56:180,1,160,8|8,0:0|0:0,0:0:0
68,100,148224,1,0,0:0:0
68,100,148382,2,0,B|184:212,2,160,8|8|8,0:0|0:0|0:0,0:0:0
104,256,149329,5,8,0:0:0
156,320,149487,1,0,0:0:0
236,328,149645,2,0,B|280:332|320:312|340:272|340:228,1,160,8|8,0:0|0:0,0:0:0
264,204,150119,2,0,B|280:164|324:152,1,80,0|8,0:0|0:0,0:0:0
400,180,150435,2,0,B|428:212|416:256,1,80,0|8,0:0|0:0,0:0:0
356,308,150750,2,0,B|312:316|280:284,1,80,0|8,0:0|0:0,0:0:0
204,296,151066,5,4,0:0:0
136,256,151224,1,0,0:0:0
108,180,151382,2,0,P|112:128,3,40,8|0|0|0,0:0|0:0|0:0|0:0,0:0:0
124,104,151698,2,0,P|132:80|144:64,3,40,8|0|0|0,0:0|0:0|0:0|0:0,0:0:0
176,48,152014,2,0,P|196:36|220:32,3,40,8|0|0|0,0:0|0:0|0:0|0:0,0:0:0
252,36,152329,5,12,0:0:0
156,76,161172,6,0,B|130:90|112:108,11,53.3333333333333,12|0|0|8|0|0|8|0|0|8|0|0,0:0|0:0|0:0|0:0|0:0|0:0|0:0|0:0|0:0|0:0|0:0|0:0,0:0:0
112,160,162435,6,0,B|132:196|176:216|220:208|252:176,1,160,12|8,0:0|0:0,0:0:0
296,116,162908,1,0,0:0:0
356,64,163066,2,0,B|408:92|448:152|432:224|392:272,1,240,12|0,0:0|0:0,0:0:0
352,340,163698,6,0,B|304:340|272:312|260:268|276:224,1,160,12|8,0:0|0:0,0:0:0
312,156,164172,1,0,0:0:0
264,92,164329,2,0,B|220:40|160:24|160:24|104:36|56:76,1,240,12|0,0:0|0:0,0:0:0
84,152,164961,6,0,B|108:312,1,160,12|0,0:0|0:0,0:0:0
164,180,165435,2,0,B|188:340,1,160,12|0,0:0|0:0,0:0:0
244,212,165908,2,0,B|256:292,1,80,8|0,0:0|0:0,0:0:0
336,312,166224,2,0,B|312:153,2,160,12|8|0,0:0|0:0|0:0,0:0:0
256,328,167014,1,8,0:0:0
176,312,167172,1,0,0:0:0
120,256,167329,1,8,0:0:0
92,180,167487,6,0,B|80:124|120:64|176:56,1,160,12|8,0:0|0:0,0:0:0
248,56,167961,1,0,0:0:0
228,132,168119,2,0,B|272:140|308:120|332:84|324:36,1,160,12|8,0:0|0:0,0:0:0
404,36,168593,5,0,0:0:0
448,104,168750,2,0,B|468:264,1,160,12|8,0:0|0:0,0:0:0
420,328,169224,1,0,0:0:0
340,312,169382,1,12,0:0:0
292,160,169698,5,8,0:0:0
220,196,169856,1,0,0:0:0
144,176,170014,2,0,B|96:164|72:132|68:88|96:48,1,160,12|0,0:0|0:0,0:0:0
168,20,170487,2,0,B|216:32|240:64|244:108|216:148,1,160,12|8,0:0|0:0,0:0:0
204,224,170961,1,0,0:0:0
236,296,171119,1,8,0:0:0
312,320,171277,5,12,0:0:0
388,300,171435,2,0,B|416:264,5,40,0|0|8|0|0|0,0:0|0:0|0:0|0:0|0:0|0:0,0:0:0
412,228,171908,2,0,B|432:180,7,40,8|0|0|0|8|0|0|0,0:0|0:0|0:0|0:0|0:0|0:0|0:0|0:0,0:0:0
424,152,172540,6,0,B|380:152|344:124|336:80|352:36,1,160,12|0,0:0|0:0,0:0:0
420,76,173014,2,0,B|288:168,1,160,8|0,0:0|0:0,0:0:0
212,148,173487,2,0,B|184:236|232:312,1,160,8|0,0:0|0:0,0:0:0
180,368,173961,1,8,0:0:0
100,356,174119,1,0,0:0:0
60,288,174277,1,8,0:0:0
68,208,174435,1,8,0:0:0
48,48,174750,1,0,0:0:0
200,104,175066,6,0,B|244:180|248:276,1,160,8|0,0:0|0:0,0:0:0
316,296,175540,1,8,0:0:0
392,316,175698,2,0,B|394:240|438:164,1,160
472,92,176172,1,8,0:0:0
392,88,176329,2,0,B|340:108|280:88|248:36,1,160,12|0,0:0|0:0,0:0:0
200,104,176803,2,0,B|172:148|110:171|58:151,1,160,8|8,0:0|0:0,0:0:0
56,232,177277,2,0,B|96:244|144:232,1,80,0|8,0:0|0:0,0:0:0
208,204,177593,6,0,B|264:208|312:240|336:300,1,160,12|0,0:0|0:0,0:0:0
284,356,178066,2,0,B|228:352|180:320|156:260,1,160,8|0,0:0|0:0,0:0:0
128,196,178540,2,0,B|96:36,1,160,8|0,0:0|0:0,0:0:0
176,48,179014,2,0,B|208:208,1,160,8|0,0:0|0:0,0:0:0
284,232,179487,2,0,B|328:224|356:192,1,80,8|0,0:0|0:0,0:0:0
424,232,179803,2,0,B|444:196|440:152,1,80,8|0,0:0|0:0,0:0:0
400,84,180119,6,0,B|328:52,1,80,12|0,0:0|0:0,0:0:0
272,108,180435,2,0,B|345:140,1,80
328,220,180750,1,12,0:0:0
328,220,180908,1,0,0:0:0
284,288,181066,1,0,0:0:0
284,288,181224,1,0,0:0:0
208,312,181382,5,12,0:0:0
208,312,181540,1,0,0:0:0
128,308,181698,2,0,B|120:292|100:280,3,40,8|0|0|0,0:0|0:0|0:0|0:0,0:0:0
68,252,182014,2,0,B|52:228|52:208,3,40,8|0|0|0,0:0|0:0|0:0|0:0,0:0:0
52,176,182329,2,0,P|56:156|64:136,3,40,8|0|0|0,0:0|0:0|0:0|0:0,0:0:0
88,104,182645,6,0,B|112:68|148:44|192:44|236:60,1,160,12|0,0:0|0:0,0:0:0
236,136,183119,2,0,B|392:180,1,160,8|0,0:0|0:0,0:0:0
404,260,183593,2,0,B|248:216,1,160,8|0,0:0|0:0,0:0:0
172,200,184066,1,8,0:0:0
96,224,184224,1,0,0:0:0
84,304,184382,1,8,0:0:0
84,304,184540,1,0,0:0:0
32,140,184856,1,8,0:0:0
160,44,185172,6,0,B|232:88|320:72,1,160,12|0,0:0|0:0,0:0:0
388,44,185645,1,8,0:0:0
436,108,185803,2,0,B|468:188|456:268,1,160,0|0,0:0|0:0,0:0:0
432,340,186277,1,8,0:0:0
356,320,186435,6,0,B|316:248,1,80,4|8,0:0|0:0,0:0:0
236,252,186750,2,0,B|276:324,1,80,0|8,0:0|0:0,0:0:0
184,304,187066,2,0,B|144:232,1,80,0|8,0:0|0:0,0:0:0
64,236,187382,2,0,B|104:308,1,80,0|8,0:0|0:0,0:0:0
184,304,187698,6,0,B|268:316|336:264,1,160,12|0,0:0|0:0,0:0:0
312,188,188172,2,0,B|228:176|160:228,1,160,8|0,0:0|0:0,0:0:0
92,188,188645,2,0,B|136:28,1,160,8|0,0:0|0:0,0:0:0
216,28,189119,2,0,B|288:60|288:60|376:52,1,160,8|0,0:0|0:0,0:0:0
388,132,189593,2,0,B|396:172|428:208,1,80,8|0,0:0|0:0,0:0:0
380,272,189908,2,0,B|372:312|340:348,1,80,8|0,0:0|0:0,0:0:0
264,328,190224,5,12,0:0:0
188,308,190382,2,0,B|172:288|152:272,2,40
312,160,190856,5,12,0:0:0
396,116,191014,2,0,B|412:96|432:80,2,40
204,108,191487,5,12,0:0:0
120,152,191645,2,0,B|104:172|84:188,2,40
256,168,192119,5,12,0:0:0
256,248,192277,2,0,B|256:296,6,40,0|0|8|0|0|0|12,0:0|0:0|0:0|0:0|0:0|0:0|0:0,0:0:0
256,192,192908,12,0,195277,0:0:0
