osu file format v11

[General]
AudioFilename: 05 Resurrection Blossom.mp3
AudioLeadIn: 1500
PreviewTime: 111751
Countdown: 0
SampleSet: Normal
StackLeniency: 0.7
Mode: 0
LetterboxInBreaks: 1

[Editor]
Bookmarks: 155253,187306
DistanceSpacing: 1
BeatDivisor: 2
GridSize: 4

[Metadata]
Title:Resurrection Blossom
TitleUnicode:Resurrection Blossom
Artist:IOSYS
ArtistUnicode:IOSYS
Creator:Snepif
Version:Easy
Source:Touhou
Tags:th07 PCB Perfect Cherry Border of Life metal Saigyouji Yuyuko JeuXinTerdiTs
BeatmapID:169503
BeatmapSetID:54043

[Difficulty]
HPDrainRate:2
CircleSize:3
OverallDifficulty:1
ApproachRate:3
SliderMultiplier:0.599999999999999
SliderTickRate:1

[Events]
//Background and Video events
0,0,"BG.jpg"
//Break Periods
2,51477,59942
2,102003,110468
2,152529,160995
//Storyboard Layer 0 (Background)
//Storyboard Layer 1 (Fail)
//Storyboard Layer 2 (Pass)
//Storyboard Layer 3 (Foreground)
//Storyboard Sound Samples
//Background Colour Transformations
3,100,163,162,255

[TimingPoints]
751,315.789473684211,4,1,1,77,1,0
20961,-100,4,1,1,70,0,0
25066,-100,4,2,2,70,0,0
25382,-100,4,1,1,70,0,0
25698,-100,4,2,2,70,0,0
26014,-100,4,1,1,70,0,0
31066,-100,4,1,1,77,0,1
31382,-100,4,1,1,77,0,0
61382,-100,4,1,1,77,0,1
71487,-100,4,1,1,77,0,0
76856,-100,4,1,1,80,0,0
77645,-100,4,2,0,77,0,0
77803,-100,4,1,1,67,0,0
79066,-100,4,1,0,50,0,0
80329,-100,4,1,1,77,0,1
80803,-100,4,1,1,77,0,0
132119,-100,4,1,1,77,0,1
142224,-100,4,1,1,77,0,0
162435,-100,4,1,1,77,0,1
172540,-100,4,1,1,77,0,0
195277,-100,4,2,0,5,0,0

[Colours]
Combo1 : 115,190,247
Combo2 : 205,7,248
Combo3 : 203,134,249
Combo4 : 13,109,181
Combo5 : 253,104,238

[HitObjects]
136,88,751,1,0,0:0:0
376,88,2014,1,0,0:0:0
316,320,3277,2,0,B|256:328|196:320,2,120,4|4|4,0:0|0:0|0:0,0:0:0
112,192,5803,5,0,0:0:0
340,260,7066,1,0,0:0:0
296,24,8329,2,0,B|316:88|272:136,2,120,4|4|4,0:0|0:0|0:0,0:0:0
180,60,10224,2,0,B|138:108|158:172,1,120,0|4,0:0|0:0,0:0:0
76,260,11487,5,8,0:0:0
164,340,12119,2,0,B|188:284,2,59.9999999999999,0|0|8,0:0|0:0|0:0,0:0:0
284,336,13382,2,0,B|340:312|340:236,1,120,0|8,0:0|0:0,0:0:0
372,124,14645,2,0,B|252:176|140:124,1,240,8|12,0:0|0:0,0:0:0
48,204,16540,5,0,0:0:0
120,300,17172,1,8,0:0:0
188,204,17803,2,0,B|168:120,1,59.9999999999999,8|0,0:0|0:0,0:0:0
216,104,18435,2,0,B|276:88|276:88|324:48,1,120,8|0,0:0|0:0,0:0:0
440,56,19698,2,0,B|376:296,1,240,8|4,0:0|0:0,0:0:0
292,208,21593,6,0,B|316:116,1,89.9999999999999,8|0,0:0|0:0,0:0:0
240,72,22540,2,0,B|204:72|160:84,1,59.9999999999999,8|0,0:0|0:0,0:0:0
124,104,23172,2,0,B|120:144|104:164,1,59.9999999999999,8|0,0:0|0:0,0:0:0
108,280,24119,2,0,B|156:288|188:252,1,89.9999999999999,8|0,0:0|0:0,0:0:0
264,296,25066,2,0,B|292:292|336:308,2,59.9999999999999,12|0|12,2:0|0:0|2:0,2:0:0
284,240,26014,6,0,B|316:192|316:192|316:124,1,120,4|8,0:0|0:0,0:0:0
404,156,27119,2,0,B|404:252,1,89.9999999999999,0|8,0:0|0:0,0:0:0
404,308,27908,2,0,B|396:344|364:356,1,59.9999999999999,0|8,0:0|0:0,0:0:0
312,368,28540,2,0,B|240:336|172:344|172:344|144:284,1,210,0|4,0:0|0:0,0:0:0
400,188,31066,6,0,B|424:72,1,120,4|8,0:0|0:0,0:0:0
312,108,32329,2,0,B|287:225,1,120,0|8,0:0|0:0,0:0:0
168,216,33593,1,0,0:0:0
48,206,34224,2,0,B|40:274|96:318,1,120,8|0,0:0|0:0,0:0:0
168,216,35487,1,0,0:0:0
212,328,36119,6,0,B|280:312|292:216,1,120,4|8,0:0|0:0,0:0:0
252,128,37382,2,0,B|259:59|327:43,1,120,0|8,0:0|0:0,0:0:0
428,108,38645,2,0,B|448:168,1,59.9999999999999,0|0,0:0|0:0,0:0:0
424,220,39277,2,0,B|440:280,1,59.9999999999999,8|0,0:0|0:0,0:0:0
424,336,39908,2,0,B|340:300|244:336,1,180,0|8,0:0|0:0,0:0:0
188,340,41172,6,0,B|108:244,1,120,4|8,0:0|0:0,0:0:0
228,220,42435,2,0,B|148:124,1,120,0|8,0:0|0:0,0:0:0
256,68,43698,2,0,B|320:44,1,59.9999999999999,0|0,0:0|0:0,0:0:0
352,92,44329,2,0,B|420:88,1,59.9999999999999,8|0,0:0|0:0,0:0:0
468,108,44961,2,0,B|480:176|440:228,1,120,0|8,0:0|0:0,0:0:0
384,328,46224,6,0,B|316:220,1,120,4|8,0:0|0:0,0:0:0
408,144,47487,2,0,B|368:92|296:104,1,120,0|8,0:0|0:0,0:0:0
184,84,48751,2,0,B|148:80|124:56,2,59.9999999999999,0|0|8,0:0|0:0|0:0,0:0:0
180,144,49698,1,0,0:0:0
140,188,50014,2,0,B|140:248|140:248|148:280|188:296,1,120,4|8,0:0|0:0,0:0:0
296,316,51277,5,12,0:0:0
84,104,61382,6,0,B|148:96|200:56,1,120,4|8,0:0|0:0,0:0:0
318,60,62645,2,0,B|364:95|428:103,1,120,0|8,0:0|0:0,0:0:0
436,224,63908,2,0,B|376:208,1,59.9999999999999,0|8,0:0|0:0,0:0:0
316,208,64540,2,0,B|256:224|256:224|216:284,2,120,0|0|8,0:0|0:0|0:0,0:0:0
256,104,66435,6,0,B|136:120,1,120,4|8,0:0|0:0,0:0:0
72,220,67698,2,0,B|190:204,1,120,0|8,0:0|0:0,0:0:0
312,196,68961,2,0,B|344:200|372:232,1,59.9999999999999,0|8,0:0|0:0,0:0:0
372,284,69593,2,0,B|344:304|312:300,1,59.9999999999999,0|8,0:0|0:0,0:0:0
256,292,70224,2,0,B|148:240|148:240|72:136,1,240,4|4,0:0|0:0,0:0:0
308,80,72751,5,4,0:0:0
196,264,74014,2,0,B|256:252|316:264,2,120,4|4|4,0:0|0:0|0:0,0:0:0
348,80,76540,6,0,B|168:64,1,180,4|8,0:0|0:0,0:0:0
116,92,77803,2,0,B|116:192|56:264,1,180,4|8,0:0|0:0,0:0:0
96,308,79066,2,0,B|160:304|216:336,1,120,4|0,0:0|0:0,0:0:0
332,316,80329,6,0,B|412:84,1,240,12|4,0:0|0:0,0:0:0
292,68,82224,1,8,0:0:0
188,128,82856,1,0,0:0:0
292,188,83487,1,8,0:0:0
400,132,84119,6,0,B|452:172|460:240,1,120,0|8,0:0|0:0,0:0:0
396,336,85382,2,0,B|312:296|216:300,1,180,0|8,0:0|0:0,0:0:0
160,292,86645,6,0,B|176:200,2,89.9999999999999,4|8|0,0:0|0:0|0:0,0:0:0
100,280,87908,2,0,B|80:184,2,89.9999999999999,0|8|0,0:0|0:0|0:0,0:0:0
160,292,89172,2,0,B|220:288|276:264|276:264|328:300|388:312,1,240,0|12,0:0|0:0,0:0:0
388,60,91698,5,4,0:0:0
272,92,92329,2,0,B|284:144|340:168,1,89.9999999999999,8|0,0:0|0:0,0:0:0
256,292,93593,1,0,0:0:0
180,200,94224,5,4,0:0:0
80,136,94856,2,0,B|112:96|168:92,1,89.9999999999999,8|0,0:0|0:0,0:0:0
260,204,96119,1,0,0:0:0
368,252,96751,5,4,0:0:0
468,188,97382,2,0,B|456:144|428:108,1,89.9999999999999,8|0,0:0|0:0,0:0:0
284,144,98645,1,0,0:0:0
196,60,99277,5,4,0:0:0
84,104,99908,2,0,B|56:140|44:184,1,89.9999999999999,8|0,0:0|0:0,0:0:0
136,304,101172,2,0,B|194:287|194:287|264:308,1,120,0|12,0:0|0:0,0:0:0
368,84,111908,6,0,B|376:180|376:180|364:272,1,180,4|8,0:0|0:0,0:0:0
360,324,113172,2,0,B|272:328|176:356,1,180,0|8,0:0|0:0,0:0:0
140,312,114435,2,0,B|68:212,2,120,4|8|0,0:0|0:0|0:0,0:0:0
196,204,116329,1,8,0:0:0
256,100,116961,6,0,B|164:100|84:44,1,180,4|8,0:0|0:0,0:0:0
60,100,118224,2,0,B|96:280,1,180,0|8,0:0|0:0,0:0:0
148,304,119487,2,0,B|200:336|200:336|264:344,2,120,4|8|8,0:0|0:0|0:0,0:0:0
360,192,122014,5,4,0:0:0
428,92,122645,2,0,B|352:44,1,89.9999999999999,8|8,0:0|0:0,0:0:0
256,160,123908,1,0,0:0:0
136,140,124540,5,4,0:0:0
80,248,125172,2,0,B|116:276|124:332,1,89.9999999999999,8|8,0:0|0:0,0:0:0
256,256,126435,1,0,0:0:0
389,324,127066,5,4,0:0:0
472,236,127698,2,0,B|466:188|429:160,1,89.9999999999999,8|8,0:0|0:0,0:0:0
336,40,128961,1,0,0:0:0
252,124,129593,5,4,0:0:0
136,152,130224,2,0,B|88:148|88:148|44:120,1,89.9999999999999,8|8,0:0|0:0,0:0:0
248,312,132119,6,0,B|72:280,1,180,4|8,0:0|0:0,0:0:0
52,224,133382,2,0,B|32:132|100:48,1,180,0|8,0:0|0:0,0:0:0
148,80,134645,1,4,0:0:0
256,136,135277,1,8,0:0:0
364,80,135908,2,0,B|427:157|407:249,1,180,8|8,0:0|0:0,0:0:0
348,244,137172,6,0,B|356:292|332:336|332:336|288:356|220:352,1,180,4|8,0:0|0:0,0:0:0
232,296,138435,2,0,B|180:104,1,180,0|8,0:0|0:0,0:0:0
124,116,139698,2,0,B|60:144|60:216,1,120,4|8,0:0|0:0,0:0:0
136,300,140961,2,0,B|256:292|256:292|376:300,1,240,8|4,0:0|0:0,0:0:0
340,184,142856,5,8,0:0:0
408,84,143487,2,0,B|292:60,1,120,0|8,0:0|0:0,0:0:0
188,124,144751,2,0,B|305:148,1,120,0|8,0:0|0:0,0:0:0
412,204,146014,2,0,B|400:272|356:316|356:316|292:320,1,180,0|8,0:0|0:0,0:0:0
244,316,147277,6,0,P|184:304|144:264,1,120,4|8,0:0|0:0,0:0:0
144,144,148540,2,0,P|204:156|244:196,1,120,0|8,0:0|0:0,0:0:0
344,264,149803,2,0,P|396:80|372:52,2,240,4|4|4,0:0|0:0|0:0,0:0:0
48,136,162435,6,0,B|160:88,1,120,0|12,0:0|0:0,0:0:0
148,208,163698,2,0,B|288:200,1,120,0|12,0:0|0:0,0:0:0
240,320,164961,2,0,B|368:360,1,120,0|12,0:0|0:0,0:0:0
432,264,166224,1,0,0:0:0
388,152,166856,1,12,0:0:0
312,60,167487,6,0,B|252:76|176:64,1,120,0|12,0:0|0:0,0:0:0
228,180,168751,2,0,B|284:212|364:212,1,120,0|12,0:0|0:0,0:0:0
276,312,170014,2,0,B|224:348|164:360,1,120,0|12,0:0|0:0,0:0:0
68,292,171277,2,0,B|94:175|94:175|120:124|120:124|136:56,1,240,8|4,0:0|0:0,0:0:0
248,104,173172,5,8,0:0:0
184,204,173803,2,0,B|160:256|156:320,1,120,0|0,0:0|0:0,0:0:0
212,348,174751,1,8,0:0:0
272,336,175066,2,0,B|316:288|388:312,1,120,0|8,0:0|0:0,0:0:0
488,256,176329,2,0,B|380:32,1,240,0|4,0:0|0:0,0:0:0
268,68,178224,5,8,0:0:0
252,188,178856,1,0,0:0:0
132,168,179487,1,8,0:0:0
92,280,180119,2,0,B|140:328|204:312,1,120,0|8,0:0|0:0,0:0:0
320,332,181382,2,0,B|368:264|280:160|336:88,1,240,4|4,0:0|0:0,0:0:0
208,112,183277,5,8,0:0:0
288,20,183908,1,0,0:0:0
400,64,184540,1,8,0:0:0
424,180,185172,2,0,B|412:244|352:268,1,120,0|8,0:0|0:0,0:0:0
304,156,186435,2,0,B|240:136|180:148|180:148|140:176|68:188,1,240,0|4,0:0|0:0,0:0:0
152,276,188329,5,8,0:0:0
256,216,188961,1,0,0:0:0
256,336,189593,1,8,0:0:0
372,300,190224,6,0,B|392:168,1,120,12|12,0:0|0:0,0:0:0
308,96,191487,2,0,B|290:214,1,120,12|12,0:0|0:0,0:0:0
268,332,192751,1,12,0:0:0
256,192,193066,12,0,195277,0:0:0
