osu file format v5

[General]
AudioFilename: 04 Power of dream.mp3
AudioLeadIn: 0
PreviewTime: -1
Countdown: 1
SampleSet: Soft
StackLeniency: 0.7
Mode: 0
LetterboxInBreaks: 0
EditorBookmarks: 49204,126109,191344

[Metadata]
Title:Power of dream
Artist:IOSYS
Creator:Slain087
Version:Easy
Source:
Tags:

[Difficulty]
HPDrainRate:5
CircleSize:5
OverallDifficulty:5
SliderMultiplier:1.2
SliderTickRate:1

[Events]
//Background and Video events
0,0,"moe 41474 kirisame_marisa touhou.jpg"
//Break Periods
2,104480,126085
2,184300,191234
//Storyboard Layer 0 (Background)
//Storyboard Layer 1 (Failing)
//Storyboard Layer 2 (Passing)
//Storyboard Layer 3 (Foreground)
//Storyboard Sound Samples
//Background Colour Transformations
3,100,163,162,255

[TimingPoints]
184,333.333333333333,4,2,0,100,1

[Colours]
Combo1 : 0,0,255
Combo2 : 255,0,0
Combo3 : 255,255,0
Combo4 : 0,255,0

[HitObjects]
256,192,49850,1,0
96,256,51184,2,8,B|448:256|416:128,1,360
416,160,52517,1,8
128,64,53767,6,8,B|0:224|0:352|192:352|288:256,1,480
96,128,56433,2,8,B|448:128|416:256,1,360
416,224,57766,1,8
384,64,59100,6,8,B|512:224|512:352|320:352|224:256,1,480
288,64,61767,2,8,B|-80:32|96:352,1,480
288,96,64517,6,8,B|162:192|352:192|192:320,2,240
256,288,67184,1,8
320,288,67517,1,8
384,256,67850,1,8
416,192,68184,1,8
416,128,68517,1,8
320,160,69184,5,8
256,160,69517,1,8
192,160,69850,2,8,B|256:160,4,60
64,64,71850,5,2
64,64,72184,2,2,B|160:64,1,90
96,192,73434,5,2
96,192,73684,2,2,B|160:192,1,60
256,128,74850,5,2
256,192,75184,1,2
224,288,75850,2,2,B|288:288,4,60
448,64,77516,5,2
448,64,77683,2,2,B|384:64,1,60
416,160,78850,5,2
416,160,79017,2,2,B|352:160,1,60
160,160,80017,6,8,B|160:224,1,60
160,220,80350,1,8
160,220,80517,1,8
320,224,81183,1,8
320,160,81516,1,8
320,96,81850,1,8
416,128,83767,5,4
416,64,84100,1,4
384,32,84517,1,8
384,32,84684,1,8
384,32,84851,1,8
448,32,85183,5,8
448,32,85350,1,8
448,32,85516,1,8
448,32,85683,1,8
256,32,87183,5,2
224,32,87350,2,2,B|160:32,1,60
96,32,87850,5,2
96,32,88017,1,2
96,32,88183,2,2,B|96:96,1,60
64,160,89017,6,8,B|192:160,1,120
224,160,89517,1,8
320,160,89850,6,2,B|256:160,2,60
288,224,91017,1,2
288,224,91350,2,2,B|32:32|288:64,1,300
288,288,93183,5,2
288,288,93350,1,2
288,288,93517,2,2,B|224:288,1,60
256,128,95100,6,0,B|256:192,2,60,2|2|2
160,64,95767,1,2
160,64,95933,1,2
160,64,96100,2,0,B|160:128,1,60,2|2
160,128,97017,6,8,B|160:256,1,120
160,288,97767,1,2
192,288,97933,1,2
224,288,98100,1,2
288,288,98517,5,2
320,288,98683,1,2
352,288,98850,1,2
384,288,99017,2,0,B|416:288,16,30
384,192,101433,1,2
384,128,101767,1,2
288,128,102100,6,8,B|224:128,5,60
192,96,103100,1,8
192,160,103517,1,8
128,96,103767,6,2,B|64:96,1,60,2|2
64,160,104100,2,2,B|128:160,1,60
96,128,127183,5,8
96,128,127517,1,8
96,128,127850,2,8,B|160:128,1,60
96,192,128517,5,8
96,192,128850,1,8
96,192,129184,1,8
96,192,129517,2,8,B|224:192,1,120
192,128,130517,2,8,B|128:128,1,60
192,96,131183,5,8
256,32,131517,1,8
320,96,131850,1,8
384,32,132183,1,8
448,96,132517,1,8
384,96,133183,2,8,B|384:160,1,60
416,256,133850,5,8
416,256,134183,1,8
416,256,134517,1,8
416,256,134850,2,8,B|416:128,1,120
256,192,135850,6,8,B|192:192,1,60
96,192,136433,5,8
128,160,136767,1,8
160,192,137100,1,8
160,128,137433,1,8
96,128,137767,1,8
352,96,139183,5,8
352,160,139516,1,8
288,160,139850,1,8
352,224,140183,1,8
416,160,140516,1,8
276,64,141183,5,8
238,64,141350,1,8
160,96,141850,5,8
160,160,142183,1,8
224,160,142517,1,8
160,224,142850,1,8
96,160,143183,1,8
192,96,144517,6,4,B|320:96,4,120,4|0|0|0|4
160,224,146517,1,4
160,224,146767,1,4
256,224,147183,1,4
288,224,147350,1,4
352,224,147600,2,4,B|384:160,1,60
384,224,149100,5,2
320,160,149517,1,2
256,192,149850,1,2
384,224,150767,1,2
320,224,151100,1,2
96,256,152100,1,2
64,192,152433,1,2
224,160,153183,1,2
256,224,153517,1,2
288,288,153850,1,2
448,64,154850,5,2
448,96,155017,1,2
416,128,155183,1,2
320,128,156183,1,2
288,96,156350,1,2
288,64,156517,1,2
160,64,157267,5,2
160,96,157434,1,2
160,64,157600,1,2
160,96,157767,1,2
128,128,158434,1,2
64,128,158850,1,2
96,128,159100,1,2
416,288,161100,6,4,B|352:288,4,60
416,224,162017,1,8
416,160,162183,1,8
416,96,162350,2,8,B|320:96,1,90
326,96,162767,2,8,B|320:192,1,90
128,160,164434,5,2
128,160,164600,2,2,B|128:224,1,60
224,224,165184,2,2,B|288:224,1,60
284,224,165517,2,2,B|288:288,1,60
64,64,167184,5,0
64,64,167350,1,0
64,64,167517,1,0
192,64,167850,2,0,B|192:128,1,60
192,124,168184,2,0,B|128:128,1,60
256,192,168850,12,0,171850
160,160,172434,5,0
160,160,172600,2,0,B|224:160,1,60
192,192,173100,1,2
192,192,173267,1,2
224,192,173434,1,2
224,192,173600,1,2
384,160,175100,5,2
384,160,175267,1,2
384,160,175433,1,2
448,160,175850,2,0,B|448:32|247:12|3:2|-11:319|160:352|288:256,1,720
288,96,180517,5,0
288,96,180850,1,0
352,96,181100,2,8,B|384:160,1,60
384,192,181434,1,8
352,224,181600,2,8,B|352:320|256:320|256:224|160:224|111:290,3,300,8|0|0|0
416,96,192434,5,2
288,96,192850,1,2
192,96,193184,1,2
96,192,195100,5,2
96,288,195434,1,2
174,244,195767,1,2
448,96,197850,5,2
384,160,198184,1,2
320,224,198517,1,2
416,64,200434,6,2,B|64:64|32:320|416:352|480:96|160:64,1,720
128,64,202767,1,2
224,160,205767,5,2
128,160,206100,1,2
174,228,206434,1,2
288,224,208434,5,2
384,224,208767,1,2
336,286,209100,1,2
416,64,211184,6,2,B|416:288|224:288|32:256|192:96|352:64|64:192|64:320|160:320,1,570
145,318,213184,1,2
192,320,213517,1,2
224,320,213850,6,2,B|352:320|416:224|384:96|320:64,1,360,2|0
160,160,216434,5,2
128,192,216767,1,2
128,224,217100,1,2
352,160,219100,6,2,B|224:96|96:160,1,240
192,256,221850,5,2
160,192,222184,2,2,B|288:192,1,120
352,224,222850,1,2
352,160,223184,1,2
352,96,223517,1,2
288,160,223850,2,2,B|160:160,1,120
96,160,224517,5,2
160,160,224850,1,2
160,224,225184,1,2
416,160,227184,5,2
352,160,227517,1,2
352,224,227850,1,2
480,288,229767,5,8
416,288,230100,2,8,B|416:256|352:192|320:192,1,120
256,96,232517,5,8
192,128,232850,1,8
160,192,233184,2,8,B|160:256,2,60
224,192,233850,1,8
288,192,234184,1,8
288,128,234517,2,8,B|288:64,2,60
352,128,235183,1,0
128,160,236184,5,2
128,160,236350,1,2
128,160,236517,1,2
256,160,237350,5,2
288,160,237517,1,2
320,160,237684,2,2,B|320:224,1,60
224,224,238517,5,2
192,160,238850,1,2
224,96,239184,1,2
352,128,240184,1,2
352,160,240350,1,2
320,192,240517,1,2
192,64,241434,5,2
160,96,241600,1,2
96,160,241850,1,2
256,128,242600,1,2
256,160,242850,1,2
256,192,243017,2,2,B|256:256,1,60
192,64,244434,1,2
256,128,246517,6,8,B|384:128,4,120
160,128,249767,2,2,B|224:128,2,60
160,128,250434,2,2,B|160:192,3,60
160,96,252434,5,0
160,160,252767,1,0
224,128,253183,1,8
224,160,253350,1,8
224,192,253517,1,8
256,192,253683,1,8
288,192,253850,2,8,B|288:256,2,60
288,128,254517,2,4,B|416:132,2,120
64,64,257850,6,0,B|64:256|192:288|320:256|320:64,1,480
160,96,260434,6,8,B|160:160,2,60
160,96,261100,2,8,B|416:96,1,240
160,160,263184,5,2
160,224,263684,1,2
160,288,264184,1,4
192,288,264517,1,4
288,288,264850,2,8,B|288:224,6,60
288,228,266184,1,8
