osu file format v9

[General]
AudioFilename: 11. Power of Dream Refix.mp3
AudioLeadIn: 2000
PreviewTime: 36310
Countdown: 0
SampleSet: Normal
StackLeniency: 0.7
Mode: 0
LetterboxInBreaks: 1

[Editor]
DistanceSpacing: 1
BeatDivisor: 4
GridSize: 4

[Metadata]
Title:Power of Dream (Night Fever Refix)
Artist:IOSYS
Creator:Kite
Version:Power of Stream
Source:Touhou
Tags:marisa kirisame witch love-colored master spark th8 imperishable night IN eiyashou toho unfufufu hakurei comiket 79 c79 remake arrange zun fight69 foster don happy30

[Difficulty]
HPDrainRate:7
CircleSize:4
OverallDifficulty:7
ApproachRate:9
SliderMultiplier:1.6
SliderTickRate:1

[Events]
//Background and Video events
0,0,"pow.jpg"
//Break Periods
2,48510,58377
2,125844,134377
//Storyboard Layer 0 (Background)
//Storyboard Layer 1 (Fail)
//Storyboard Layer 2 (Pass)
//Storyboard Layer 3 (Foreground)
//Storyboard Sound Samples
//Background Colour Transformations
3,100,163,162,255

[TimingPoints]
311,333.333333333333,4,1,0,0,1,0
2977,-100,4,1,0,50,0,0
4310,-100,4,1,0,70,0,0
25644,-100,4,1,0,91,0,1
35977,-100,4,1,0,91,0,0
36310,-100,4,1,0,91,0,1
48310,-100,4,1,0,91,0,0
58977,-100,4,1,0,91,0,0
84810,-100,4,2,0,91,0,0
87644,-100,4,1,0,91,0,0
87977,-100,4,2,0,91,0,0
88144,-100,4,1,0,91,0,0
100310,-100,4,2,0,91,0,0
100560,-100,4,1,0,91,0,0
102977,-100,4,1,0,91,0,1
113310,-100,4,1,0,91,0,0
113644,-100,4,1,0,91,0,1
125644,-100,4,1,0,91,0,0
136310,-100,4,1,0,91,0,0
145644,-100,4,2,0,91,0,0
145977,-100,4,1,0,91,0,0
158977,-100,4,2,0,91,0,0
159144,-100,4,1,0,91,0,0
159644,-100,4,2,0,91,0,0
160310,-100,4,1,0,91,0,1
177644,-100,4,2,0,82,0,1
178310,-100,4,1,0,82,0,1
179644,-100,4,2,0,82,0,1
182310,-100,4,1,0,0,0,0

[Colours]
Combo1 : 244,0,0
Combo2 : 254,225,61
Combo3 : 0,191,0
Combo4 : 0,200,240
Combo5 : 211,118,228

[HitObjects]
256,192,311,12,0,2644
196,300,2977,5,0
200,308,3060,1,0
208,312,3144,1,0
216,312,3227,1,0
224,316,3310,1,8
232,320,3394,1,0
236,328,3477,1,0
244,332,3560,1,0
256,336,3644,1,0
268,332,3727,1,0
276,328,3810,1,0
280,320,3893,1,0
288,316,3977,1,8
296,312,4060,1,0
304,312,4143,1,0
312,308,4227,1,0
316,300,4310,5,6
436,192,4644,1,0
336,68,4977,1,0
176,68,5311,1,0
76,192,5644,1,0
176,316,5977,1,0
336,316,6311,1,0
436,192,6644,5,2
76,192,6977,1,6
120,40,7311,5,0
256,120,7644,1,0
148,236,7977,1,0
256,356,8310,1,0
364,236,8644,1,0
256,120,8977,1,0
392,40,9310,1,0
392,40,9477,5,2
120,40,9644,1,6
60,188,9977,5,0
36,348,10310,1,0
192,320,10644,1,0
256,172,10977,1,0
320,320,11310,1,0
476,348,11644,1,0
452,188,11977,5,2
60,188,12310,1,6
120,40,12644,6,0,B|156:124|240:132,1,160,0|0
392,344,13310,2,0,B|356:260|272:252,1,160,0|0
176,228,13810,5,4
336,156,13977,1,4
256,192,14144,6,0,B|256:168,12,20,0|0|0|0|0|0|0|0|0|0|0|0|2
256,192,14977,1,4
176,332,15310,5,8
100,308,15477,1,0
64,236,15644,1,0
216,192,15977,1,8
256,124,16144,1,0
296,192,16310,1,0
448,148,16644,1,8
412,76,16811,1,0
336,52,16978,1,0
448,148,17311,5,10
64,236,17644,1,6
176,124,17977,6,0,B|136:108|128:60,2,80,8|0|0
336,260,18644,2,0,B|376:276|384:324,2,80,8|0|0
340,96,19311,1,8
264,124,19477,1,0
324,180,19644,1,0
172,288,19977,1,8
128,160,20144,5,2
304,324,20311,1,6
396,192,20644,6,0,B|476:192,1,80,8|0
396,192,20977,1,0
116,192,21310,2,0,B|36:192,1,80,8|0
116,192,21643,1,0
204,56,21977,1,8
256,116,22144,1,0
308,56,22310,1,0
440,148,22644,5,10
72,148,22977,1,6
124,300,23310,5,8
124,300,23477,1,0
256,192,23644,5,6
388,300,23977,5,8
388,300,24144,1,0
256,192,24311,5,6
256,32,24644,1,6
184,176,24977,5,10
256,192,25144,1,10
328,176,25310,1,10
296,148,25394,1,0
256,140,25477,1,0
216,152,25560,1,0
184,176,25644,5,2
212,268,25810,2,0,B|212:312|176:340,1,80,0|8
84,340,26144,1,2
108,300,26227,1,0
104,252,26310,1,0
28,192,26477,1,2
108,136,26644,1,10
36,72,26810,5,0
72,40,26894,1,0
120,40,26977,1,0
108,136,27144,1,2
184,192,27310,1,8
260,132,27477,1,2
276,88,27560,1,0
316,64,27644,1,2
392,120,27810,5,2
428,152,27894,1,0
448,196,27977,1,8
452,244,28060,1,0
440,292,28144,1,2
368,228,28310,1,2
340,268,28394,1,0
344,316,28477,1,0
252,348,28644,5,10
220,316,28727,1,0
232,220,28894,1,0
276,204,28977,1,2
312,172,29060,1,0
332,128,29144,1,2
256,68,29310,5,10
88,140,29477,1,2
256,68,29644,2,0,B|216:60,3,40,0|0|2|0
204,108,29977,2,0,B|168:128,3,40,8|0|2|0
160,176,30310,2,0,B|148:232|104:220|104:220|60:240|76:288,1,160,2|10
74,283,30727,1,0
74,283,30810,1,0
168,304,30977,5,2
212,288,31060,1,0
260,296,31144,2,0,B|304:288|320:248,2,80,0|10|0
212,288,31560,1,0
168,304,31644,2,0,B|124:312|108:352,2,80,0|2|10
108,228,32144,5,2
152,204,32227,1,0
176,164,32310,1,0
84,132,32477,1,2
240,56,32644,1,10
144,40,32810,1,0
96,52,32894,1,0
48,44,32977,1,2
84,132,33144,5,0
56,172,33227,1,0
56,220,33310,1,10
76,264,33394,1,0
116,292,33477,1,2
200,248,33644,2,0,B|236:228,2,40,0|0|2
252,328,33977,6,0,B|288:356,1,40,10|0
360,292,34227,1,0
328,260,34310,1,2
312,212,34394,1,0
320,164,34477,1,0
248,100,34644,1,10
412,36,34810,1,2
248,100,34977,5,0
220,64,35060,1,0
172,52,35144,1,2
124,64,35227,1,0
92,100,35310,1,8
92,148,35394,1,0
116,192,35477,1,2
156,216,35560,1,0
204,220,35644,2,0,B|260:240|248:280|248:280|228:316|268:348,1,160,2|10
380,192,36310,5,2
312,76,36477,1,0
180,108,36644,1,10
312,76,36810,1,0
312,124,36894,1,0
284,164,36977,1,2
228,288,37144,1,2
92,276,37310,1,10
228,288,37477,6,0,B|212:328,2,40,0|0|2
132,192,37810,1,2
88,64,37977,1,10
224,72,38144,1,0
252,108,38227,1,0
300,112,38310,1,2
424,56,38477,1,2
460,88,38560,1,0
472,136,38644,1,8
468,184,38727,1,0
444,224,38810,1,2
352,324,38977,6,0,B|392:304,2,40,0|0|2
320,192,39310,1,10
320,192,39394,2,0,B|256:248|172:248,1,160,0|2
64,168,39894,1,0
64,168,39977,2,0,B|80:132|124:112,1,80,10|2
248,68,40310,5,0
296,80,40394,1,0
344,92,40477,1,2
392,104,40560,1,0
360,140,40644,1,8
324,172,40727,1,0
288,204,40810,1,2
324,236,40894,1,0
360,268,40977,2,0,B|412:252|412:212|412:212|412:176|460:152,1,160,2|10
457,153,41394,1,0
457,153,41477,1,0
372,48,41644,5,0
332,76,41727,1,0
284,84,41810,1,2
148,64,41977,2,0,B|128:108|60:112|56:144,1,120,8|0
57,138,42310,1,2
80,272,42477,1,0
216,252,42644,6,0,B|235:295|303:299|306:325,1,120,10|0
306,325,42977,1,2
412,236,43144,1,0
384,104,43310,1,10
252,132,43477,5,2
236,88,43560,1,0
200,56,43644,1,0
76,112,43810,1,2
112,148,43894,1,0
108,196,43977,1,10
128,240,44060,1,0
164,272,44144,1,2
296,244,44310,5,2
396,336,44477,1,2
296,244,44644,1,0
284,288,44727,1,0
252,324,44810,1,2
208,348,44894,1,0
160,356,44977,1,0
112,352,45060,1,0
68,336,45144,1,2
32,304,45227,1,0
12,260,45310,1,2
304,48,45644,5,0
204,48,45810,5,4
144,124,45977,1,8
368,124,46144,5,4
428,196,46310,1,0
84,196,46477,5,4
144,272,46644,1,8
368,272,46810,5,4
256,344,46977,5,0
256,328,47060,1,0
256,312,47144,1,0
256,296,47227,1,0
256,280,47310,1,8
256,264,47394,1,0
256,248,47477,1,0
256,232,47560,1,0
256,216,47644,1,8
256,200,47727,1,0
256,184,47810,1,0
256,168,47894,1,0
256,152,47977,1,8
256,136,48060,1,0
256,120,48144,1,0
256,104,48227,1,0
256,92,48310,1,4
64,336,58977,6,0,B|120:268|92:180,1,160,0|8
176,160,59477,2,0,B|200:124|192:80,1,80,0|0
260,40,59810,1,0
336,64,59977,1,8
416,52,60144,1,0
432,132,60310,6,0,B|380:196,1,80,0|0
336,328,60644,2,0,B|304:256,1,80,8|0
176,327,60977,2,0,B|208:254,1,80
79,131,61310,2,0,B|130:194,1,80,8|0
112,56,61644,5,0
80,132,61810,2,0,B|44:160|48:204,1,80,0|8
88,272,62144,1,0
164,248,62310,2,0,B|208:240|228:200,1,80
232,124,62644,1,8
284,64,62810,1,0
364,52,62977,6,0,B|432:96,1,80
332,152,63310,2,0,B|352:232,1,80,8|0
180,152,63644,2,0,B|160:229,1,80
148,52,63977,2,0,B|80:95,1,80,8|0
56,172,64310,5,0
84,248,64477,1,0
148,296,64644,1,8
228,312,64810,1,0
456,212,64977,5,0
428,136,65144,1,0
364,88,65311,1,8
284,72,65477,1,0
256,240,65644,5,0
192,192,65810,1,0
256,144,65977,1,8
320,192,66144,1,0
256,272,66310,5,0
160,192,66477,1,0
256,112,66644,1,8
352,192,66810,1,0
352,192,66894,1,0
352,192,66977,1,0
352,112,67144,6,0,B|392:96|412:56,1,80,0|8
160,112,67477,2,0,B|120:96|100:56,1,80
160,272,67810,2,0,B|120:288|100:328,1,80,0|8
352,272,68144,2,0,B|392:288|412:328,1,80
256,192,68560,5,0
256,192,68810,1,0
256,192,68977,1,0
56,336,69644,5,0
56,336,69977,1,0
56,336,70310,1,0
88,312,70394,1,0
92,272,70477,1,0
36,212,70644,1,0
44,172,70727,1,0
76,148,70810,1,0
136,200,70977,6,0,B|228:172|200:72,1,160,0|8
256,20,71477,1,0
311,75,71644,2,0,B|284:172|376:200,1,160,0|8
364,280,72144,1,0
320,348,72310,2,0,B|296:296|216:296|188:348,1,160,0|8
148,280,72810,1,0
192,212,72977,1,0
56,168,73144,5,0
136,156,73310,1,8
84,96,73477,1,0
164,84,73644,2,0,B|196:60|236:52,1,80
228,132,73977,2,2,B|268:123|300:99,1,80,8|0
236,52,74310,2,0,B|268:28|308:20,1,80
300,100,74644,2,2,B|340:91|372:67,1,80,8|0
452,56,74977,2,0,B|480:88,2,40
404,120,75310,5,8
448,208,75477,1,0
376,280,75644,1,0
248,324,75810,5,0
284,312,75894,1,0
312,284,75977,1,8
256,224,76144,1,0
312,168,76310,2,2,B|272:96|188:72,1,160,0|8
172,152,76810,1,0
96,172,76977,1,0
44,232,77144,5,0
24,268,77227,1,0
28,308,77310,1,8
108,292,77477,1,0
156,228,77644,2,2,B|176:144|100:88,1,160,0|8
172,48,78144,1,0
248,68,78310,1,0
272,192,78477,5,0
380,168,78644,1,8
452,80,78810,1,0
372,60,78977,6,2,B|292:44,1,80,0|0
140,60,79310,2,2,B|220:44,1,80,8|0
352,172,79644,2,2,B|296:112,1,80,0|0
160,172,79977,2,2,B|216:112,1,80,8|0
256,212,80310,5,0
184,244,80477,1,0
256,280,80644,1,8
328,244,80810,1,0
400,284,80977,1,0
336,332,81144,6,0,B|336:308,4,20,0|0|0|0|8
300,348,81394,1,0
260,356,81477,1,0
220,356,81560,1,0
180,344,81644,2,0,B|140:328,3,40
128,292,81977,2,0,B|108:256,3,40
104,216,82310,5,0
136,140,82477,1,0
212,164,82644,1,0
248,92,82810,1,0
256,192,82977,12,4,84810
256,192,85310,5,4
256,192,85644,12,4,87477
256,192,87810,5,0
256,192,87894,1,0
256,192,87977,1,4
120,108,88310,5,0
256,68,88477,1,4
392,108,88644,1,8
440,340,88977,5,0
344,204,89144,1,4
168,204,89310,1,8
72,340,89477,1,4
256,340,89810,5,4
132,268,89977,1,8
128,108,90144,1,0
256,192,90310,1,8
380,268,90477,1,4
384,108,90644,1,8
256,44,90811,1,0
128,108,90977,6,0,B|128:152|88:176,1,80
44,240,91310,2,0,B|88:312|176:320,1,160,8|0
192,240,91810,1,0
264,208,91977,1,8
324,264,92144,2,2,B|400:224|392:128,1,160,0|0
368,96,92560,5,0
328,84,92644,1,8
268,136,92810,1,0
192,128,92977,1,0
140,68,93144,1,0
112,96,93227,1,0
72,108,93310,1,8
12,56,93477,1,0
76,172,93644,5,0
52,248,93810,1,0
116,296,93977,2,0,B|164:224|252:224,1,160,8|0
256,304,94477,1,0
328,340,94644,1,8
404,316,94810,2,2,B|464:256|440:168,1,160,0|0
428,132,95227,5,0
404,100,95310,1,8
324,96,95477,1,0
328,176,95644,1,0
296,200,95727,1,0
216,200,95894,1,0
184,176,95977,1,8
256,140,96144,1,0
256,264,96310,5,0
212,332,96477,1,0
132,340,96644,1,8
56,324,96810,1,0
40,248,96977,2,0,B|80:244|112:216,2,80,0|0|8
112,88,97477,5,0
112,88,97810,1,0
148,192,97977,1,8
216,112,98144,1,0
256,232,98310,1,0
296,112,98477,1,0
364,192,98644,1,8
400,88,98811,1,0
256,44,98977,5,0
256,44,99144,1,0
256,44,99477,1,0
256,340,99810,5,0
256,340,99977,1,8
256,340,100310,5,4
372,228,100560,1,4
140,228,100810,1,4
372,228,100977,5,0
360,192,101060,1,0
328,164,101144,1,0
288,156,101227,1,0
256,180,101310,1,8
224,156,101394,1,0
184,164,101477,1,0
152,192,101561,1,0
140,228,101644,1,0
256,340,101977,1,8
96,340,102310,5,0
256,264,102477,1,0
416,340,102644,1,0
392,52,102977,5,2
316,112,103144,1,0
256,36,103310,1,10
196,108,103477,1,0
156,132,103560,1,0
108,136,103644,1,2
80,44,103810,5,2
32,208,103977,1,10
88,288,104144,1,0
136,296,104227,1,0
180,276,104310,2,0,B|192:232|232:220,2,80,2|0|10
252,340,104810,1,0
300,348,104894,1,0
344,328,104977,1,2
284,252,105144,5,2
300,208,105227,1,0
288,160,105310,1,8
260,120,105394,1,0
216,104,105477,1,2
184,196,105644,2,0,B|224:192,2,40,0|0|2
160,288,105977,6,0,B|136:324,1,40,10|0
52,280,106227,1,0
76,240,106310,1,2
72,192,106394,1,0
48,152,106477,1,0
112,80,106644,1,10
256,48,106810,1,2
204,128,106977,5,0
212,176,107060,1,0
244,212,107144,1,2
292,224,107227,1,0
340,212,107310,1,8
376,180,107394,1,0
388,132,107477,1,2
376,84,107560,1,0
344,48,107644,2,0,B|292:108|283:79|283:79|272:40|212:76,1,160,2|10
217,73,108060,1,0
217,73,108144,1,0
100,160,108310,5,2
64,192,108394,1,0
60,240,108477,2,0,B|100:268|92:312,1,80,0|10
204,348,108810,1,2
240,316,108894,1,0
244,268,108977,2,0,B|204:240|212:196,2,80,0|2|10
368,288,109477,5,0
416,292,109560,1,0
448,328,109644,1,2
476,236,109810,1,2
416,112,109977,1,10
320,124,110144,2,0,B|296:92,2,40,0|0|2
276,212,110477,5,2
268,260,110560,1,0
232,292,110644,1,8
188,308,110727,1,0
140,304,110810,1,2
56,260,110977,1,0
96,232,111060,1,0
104,184,111144,1,2
196,156,111310,6,0,B|176:120,1,40,10|0
80,112,111560,1,0
92,64,111644,1,2
132,40,111727,1,0
180,40,111810,1,0
272,60,111977,1,10
416,136,112144,1,2
288,208,112310,6,0,B|328:216,3,40,0|0|2|0
336,264,112644,2,0,B|368:288,3,40,8|0|2|0
416,288,112977,2,0,B|480:272|456:236|456:236|424:196|484:184,1,160,2|10
244,52,113644,5,2
176,168,113810,1,0
44,208,113977,1,10
104,84,114144,1,0
152,96,114227,1,0
196,76,114310,1,2
284,180,114477,1,2
412,132,114644,1,10
284,180,114810,6,0,B|320:204,2,40,0|0|2
216,300,115144,1,0
176,168,115310,1,10
44,208,115477,1,0
32,252,115560,1,0
44,300,115644,1,2
128,348,115810,5,2
156,308,115894,1,0
164,260,115977,1,8
156,212,116060,1,0
124,176,116144,1,2
260,172,116310,1,0
272,124,116394,1,0
316,108,116477,1,2
192,56,116644,5,10
192,56,116727,2,0,B|104:64|56:136,1,160,0|2
180,192,117227,2,0,B|204:228,1,40,0|10
76,280,117477,1,2
208,316,117644,6,0,B|248:296,3,40,0|0|2|0
256,252,117977,2,0,B|280:216,3,40,8|0|2|0
284,172,118310,2,0,B|316:122|358:150|358:150|393:172|424:128,1,160,2|10
420,133,118727,1,0
420,133,118810,1,0
452,268,118977,5,0
432,312,119060,1,0
388,332,119144,1,2
256,296,119310,2,0,B|184:296|156:236,1,120,10|0
157,239,119644,5,2
292,220,119810,1,0
256,88,119977,2,0,B|328:88|356:148,1,120,10|0
354,144,120310,5,2
220,164,120477,1,2
116,72,120644,1,8
48,188,120810,1,2
80,224,120894,1,0
80,272,120977,1,0
144,344,121144,5,2
164,300,121227,1,0
204,276,121310,1,8
252,276,121394,1,0
296,296,121477,1,2
432,308,121644,5,2
360,192,121810,1,2
364,56,121977,1,0
336,96,122060,1,0
292,116,122144,1,2
244,120,122227,1,0
196,108,122310,1,0
156,84,122394,1,2
112,68,122477,1,0
64,76,122560,1,0
28,108,122644,1,2
172,340,122977,5,0
256,76,123144,5,4
340,340,123310,5,8
116,184,123477,5,4
396,184,123644,5,4
172,340,123810,5,4
256,76,123977,5,8
340,340,124144,5,4
256,232,124310,5,0
224,196,124394,1,0
192,160,124477,1,0
160,124,124560,1,0
208,124,124644,1,8
256,124,124727,1,0
304,124,124810,1,0
352,124,124894,1,0
320,160,124977,1,8
288,196,125060,1,0
256,232,125144,1,0
216,260,125227,1,0
216,308,125311,1,8
256,336,125394,1,0
296,308,125477,1,0
296,260,125561,1,0
256,232,125644,1,4
256,64,134977,5,0
256,136,135310,1,0
256,208,135644,1,0
256,280,135977,1,0
328,320,136310,6,0,B|412:308|408:252|476:272,2,160,0|8|0
248,324,137144,1,0
236,244,137310,1,8
160,232,137477,1,0
64,248,137644,5,0
172,132,137977,1,8
332,128,138310,1,0
448,248,138644,1,8
256,344,138977,6,0,B|324:288|296:196,1,160,0|8
214,184,139477,2,0,B|188:96|256:40,1,160
316,84,139977,1,8
384,48,140144,1,0
432,112,140310,5,0
304,208,140644,1,8
256,360,140977,1,0
208,208,141310,1,8
80,112,141644,5,0
156,132,141810,1,0
236,116,141977,1,8
300,68,142144,1,0
432,272,142310,5,0
356,252,142476,1,0
276,268,142643,1,8
212,316,142810,1,0
48,304,142977,6,0,B|63:265|96:240,1,80
204,352,143310,2,0,B|216:312|200:268,1,80,8|0
308,352,143644,2,0,B|296:312|312:268,1,80
464,304,143977,2,0,B|448:265|416:240,1,80,8|0
372,68,144310,5,0
256,124,144477,1,0
140,68,144644,1,8
256,124,144810,1,0
372,192,144977,1,0
256,264,145144,1,0
140,192,145310,1,8
156,336,145477,1,0
356,336,145644,5,4
356,336,145894,1,4
356,336,146144,1,0
356,336,146310,1,4
444,40,146977,5,0
444,40,147310,1,0
308,120,147644,1,0
308,120,147977,1,0
424,232,148310,6,0,B|400:316|316:344,1,160,0|8
256,292,148810,1,0
193,343,148977,2,0,B|112:316|88:232,1,160,0|8
168,216,149477,1,0
180,136,149644,2,0,B|256:96|336:136,1,160,0|8
344,216,150144,1,0
256,292,150310,1,0
372,336,150477,5,0
444,304,150644,1,8
464,228,150810,1,0
432,152,150977,2,0,B|416:112|380:88,1,80
344,160,151310,2,0,B|311:138|295:98,1,80,8|0
228,56,151644,2,0,B|176:124|92:128,1,160,0|8
32,184,152144,1,0
96,232,152310,6,0,B|72:272,2,40,0|0|0
164,276,152644,1,8
244,292,152810,1,0
316,260,152977,1,0
316,260,153310,5,8
244,292,153477,1,0
164,276,153644,2,0,B|216:204|180:124,1,160,0|8
260,116,154144,1,0
336,144,154310,2,0,B|301:224|353:296,1,160,0|8
412,240,154810,1,0
480,196,154977,2,0,B|515:275|463:347,1,160,0|8
392,308,155477,1,0
312,324,155644,1,0
172,316,155810,5,0
108,268,155977,1,8
136,192,156144,1,0
216,196,156310,2,0,B|256:120|224:40,1,160,0|8
160,88,156810,1,0
92,128,156977,2,0,B|60:206|100:282,1,160,0|8
256,192,157644,12,0,158644
256,192,158977,5,4
256,192,159227,1,4
256,192,159477,1,4
176,192,159644,5,4
256,112,159810,1,0
336,192,159977,1,4
256,272,160144,1,0
124,344,160310,5,0
64,292,160477,1,0
96,216,160644,1,8
172,236,160810,2,0,B|216:216|220:176,1,80
156,128,161144,1,0
128,100,161227,1,0
116,60,161310,1,8
196,56,161477,2,2,B|268:108|348:72,1,160,0|0
412,120,161977,5,8
356,180,162144,1,0
356,260,162310,2,0,B|344:300,1,40
264,300,162560,1,0
224,304,162644,1,8
156,260,162810,1,0
204,136,162977,5,0
144,84,163144,1,0
64,96,163310,2,0,B|32:184|92:244,1,160,8|0
164,208,163810,1,0
228,260,163977,1,8
188,328,164144,2,2,B|132:260|40:276,1,160,0|0
32,196,164644,5,8
96,148,164810,1,0
128,76,164977,2,0,B|164:56,1,40
212,120,165227,2,0,B|252:128,1,40,0|8
308,72,165477,1,0
412,152,165644,5,0
464,212,165810,1,0
408,268,165977,2,0,B|344:212|256:232,1,160,8|0
256,312,166477,1,0
184,344,166644,1,8
76,232,166810,5,0
76,232,167144,1,0
188,192,167310,1,8
160,60,167477,1,0
256,116,167644,1,0
352,60,167810,1,0
324,192,167977,1,8
436,232,168144,1,0
352,300,168310,5,0
276,328,168477,1,0
204,292,168644,2,0,B|232:208|172:144,1,160,8|0
216,76,169144,1,0
296,76,169310,1,8
340,143,169477,2,2,B|280:208|308:292,1,160,0|0
384,320,169977,5,8
448,272,170144,2,0,B|480:240|468:192,1,80
408,148,170477,2,0,B|397:106|429:74,2,80,0|8|0
256,40,170977,5,0
192,88,171144,1,0
116,104,171310,2,0,B|156:188|104:256,1,160,8|0
156,316,171810,1,0
232,292,171977,1,8
256,216,172144,2,2,B|268:128|352:96,1,160,0|0
392,164,172644,5,8
380,244,172810,2,0,B|416:264,2,40
316,296,173144,2,0,B|280:320,2,40,0|0|8
256,244,173477,1,0
112,192,173644,6,0,B|72:180|48:144,1,80
156,272,173977,2,0,B|124:308|124:348,1,80,8|0
176,116,174310,2,0,B|168:76|140:44,1,80
256,252,174644,2,0,B|256:336,1,80,8|0
256,164,174977,6,0,B|256:84,1,80
356,272,175310,2,0,B|388:308|388:348,1,80,8|0
336,116,175644,2,0,B|344:76|372:44,1,80
400,192,175977,2,0,B|440:180|464:144,1,80,8|0
356,272,176310,5,0
256,52,176644,1,8
256,52,176810,1,0
156,272,177144,1,0
156,272,177310,1,8
52,152,177644,5,4
256,272,177894,1,4
460,152,178144,1,4
256,92,178310,6,0,B|256:48,3,40,0|0|0|0
256,92,178644,2,0,B|256:136,3,40,0|0|0|0
256,92,178977,5,4
256,92,179310,1,4
132,192,179644,5,2
256,244,179810,1,2
380,192,179977,1,2
256,192,180144,12,0,182310
