osu file format v9

[General]
AudioFilename: 11. Power of Dream Refix.mp3
AudioLeadIn: 0
PreviewTime: 36310
Countdown: 0
SampleSet: Normal
StackLeniency: 0.7
Mode: 0
LetterboxInBreaks: 1

[Editor]
DistanceSpacing: 1
BeatDivisor: 2
GridSize: 16

[Metadata]
Title:Power of Dream (Night Fever Refix)
Artist:IOSYS
Creator:Kite
Version:Easy Happy
Source:Touhou
Tags:marisa kirisame witch love-colored master spark th8 imperishable night IN eiyashou toho unfufufu hakurei comiket 79 c79 remake arrange zun fight69 foster don happy30

[Difficulty]
HPDrainRate:3
CircleSize:3
OverallDifficulty:4
ApproachRate:2
SliderMultiplier:0.5
SliderTickRate:1

[Events]
//Background and Video events
0,0,"pow.jpg"
//Break Periods
2,48510,52084
2,105844,112084
2,125843,129417
//Storyboard Layer 0 (Background)
//Storyboard Layer 1 (Fail)
//Storyboard Layer 2 (Pass)
//Storyboard Layer 3 (Foreground)
//Storyboard Sound Samples
//Background Colour Transformations
3,100,163,162,255

[TimingPoints]
311,333.333333333333,4,1,0,70,1,0
25644,-100,4,1,0,91,0,1
35644,-100,4,1,0,91,0,1
35977,-100,4,1,0,91,0,0
36310,-100,4,1,0,91,0,1
41977,-100,4,2,0,91,0,1
42310,-100,4,1,0,91,0,1
42644,-100,4,2,0,91,0,1
42977,-100,4,1,0,91,0,1
43310,-100,4,2,0,91,0,1
43644,-100,4,1,0,91,0,1
44644,-100,4,1,0,91,0,1
48310,-100,4,1,0,91,0,0
58977,-100,4,1,0,91,0,0
68310,-100,4,2,0,91,0,0
69644,-100,4,1,0,91,0,0
71644,-100,4,1,0,91,0,0
72310,-100,4,1,0,91,0,0
82310,-100,4,2,0,91,0,0
88310,-100,4,1,0,91,0,0
88644,-100,4,2,0,91,0,0
88977,-100,4,1,0,91,0,0
89477,-100,4,2,0,91,0,0
90977,-100,4,1,0,91,0,0
92310,-100,4,1,0,91,0,0
92644,-100,4,1,0,91,0,0
94977,-100,4,1,0,91,0,0
95310,-100,4,1,0,91,0,0
98310,-100,4,1,0,91,0,0
102977,-100,4,1,0,91,0,1
113310,-100,4,1,0,91,0,0
113644,-100,4,1,0,91,0,1
119310,-100,4,2,0,91,0,1
119644,-100,4,1,0,91,0,1
119977,-100,4,2,0,91,0,1
120310,-100,4,1,0,91,0,1
120644,-100,4,2,0,91,0,1
120977,-100,4,1,0,91,0,1
121310,-100,4,2,0,91,0,1
121477,-100,4,1,0,91,0,1
125644,-100,4,1,0,91,0,0
136310,-100,4,1,0,91,0,0
145644,-100,4,2,0,91,0,0
146977,-100,4,1,0,91,0,0
148977,-100,4,1,0,91,0,0
149644,-100,4,1,0,91,0,0
159644,-100,4,2,0,91,0,0
160310,-100,4,1,0,91,0,1
161644,-100,4,1,0,91,0,1
161977,-100,4,1,0,91,0,1
164310,-100,4,1,0,91,0,1
164644,-100,4,1,0,91,0,1
166977,-100,4,1,0,91,0,1
169977,-100,4,1,0,91,0,1
172310,-100,4,1,0,91,0,1
172644,-100,4,1,0,91,0,1
174977,-100,4,1,0,91,0,1
176310,-100,4,2,0,91,0,1
178644,-100,4,1,0,91,0,1
182310,-100,4,1,0,0,0,0

[Colours]
Combo1 : 244,0,0
Combo2 : 254,225,61
Combo3 : 0,191,0
Combo4 : 0,200,240
Combo5 : 211,118,228

[HitObjects]
47,228,4310,2,0,B|54:356|260:387|302:245,1,350
352,233,6977,6,0,B|344:104|138:73|96:215,1,350
143,234,9644,6,0,B|150:362|356:393|398:251,1,350
448,240,12311,6,0,B|440:111|234:80|192:222,1,350
176,256,14977,5,4
256,320,15644,1,0
336,368,16310,2,0,B|416:320|400:224,1,150,0|8
384,192,17644,5,4
288,224,18311,1,0
192,256,18977,2,0,B|112:208|128:112,1,150,0|8
144,80,20310,5,4
224,144,20977,1,0
304,208,21643,2,0,B|384:160|368:64,1,150,0|8
352,32,22977,5,4
272,80,23644,1,4
176,48,24310,2,0,B|112:112|192:176|112:240,1,200,0|4
32,256,26310,5,0
0,160,26977,1,0
80,96,27644,2,0,B|144:160|224:112,1,150
384,288,29644,2,0,B|320:352|240:304,1,150
208,288,30977,5,4
272,208,31644,1,0
240,112,32310,1,0
144,80,32977,2,0,B|80:128|96:224,1,150
112,256,34310,1,0
160,352,34977,2,0,B|256:320|368:352,1,200,4|4
432,288,36977,5,0
448,192,37644,1,0
368,128,38311,2,0,B|304:192|224:144,1,150
144,304,40310,2,0,B|208:240|288:288,1,150
320,304,41644,5,4
416,272,42310,1,0
448,176,42977,1,0
400,96,43644,1,0
320,160,44310,6,0,B|224:176|160:112,1,150,4|0
256,192,45644,12,4,48310
256,288,53644,5,4
96,80,56310,5,0
256,192,57644,5,0
256,192,57977,1,0
256,192,58310,1,0
256,192,58644,1,2
256,192,58977,6,0,B|368:256|448:160,1,200,4|0
416,80,60977,1,0
336,32,61644,6,0,B|272:144|224:32|160:112,1,200,4|0
208,192,63644,1,0
256,272,64310,6,0,B|144:336|64:240,1,200,4|0
48,160,66310,1,0
112,80,66977,5,4
176,160,67644,1,0
176,160,67977,1,0
176,160,68310,2,0,B|256:256|352:160,1,200,4|2
347,164,69977,1,2
288,304,70977,6,0,B|448:336,1,150,4|0
480,304,72310,2,0,B|320:272,1,150
288,256,73644,5,4
224,176,74310,1,0
272,80,74977,1,0
272,80,75977,5,0
272,80,76310,2,0,B|112:48,1,150,4|0
80,80,77643,2,0,B|240:112,1,150
272,128,78977,5,4
336,208,79643,1,0
288,304,80310,1,0
256,192,80644,12,0,82310
256,32,82977,6,0,B|320:80|320:80|384:272,1,275,4|4
320,336,85310,1,4
288,368,85644,6,0,B|224:320|224:320|160:128,1,275,4|4
208,48,87977,1,4
240,80,88310,6,0,B|272:160|208:240|128:208,1,200,4|0
48,192,90310,2,2,B|16:240|32:304,1,100,4|4
96,352,91644,5,0
176,336,92144,2,0,B|288:368|352:288,1,175,0|0
368,272,93644,5,4
400,176,94310,1,0
352,112,94810,2,0,B|240:144|176:64,1,175
144,48,96310,5,4
64,112,96977,1,0
112,176,97477,2,0,B|128:256|80:304,1,125
176,352,98977,5,4
256,336,99477,1,0
336,320,99977,1,0
336,320,100310,2,0,B|304:208|384:128,1,200,0|2
377,134,101977,1,2
256,192,102310,12,4,105644
192,192,113644,5,0
272,144,114310,1,0
352,96,114977,1,0
400,192,115644,2,0,B|336:256|384:336,1,150
112,48,117644,2,0,B|176:112|128:192,1,150
80,272,119310,5,4
160,336,119977,1,4
240,272,120644,1,4
320,336,121310,1,4
320,336,121644,2,0,B|416:368|480:304,1,150
256,192,122977,12,4,125643
96,192,130977,5,4
304,352,133644,1,0
448,80,134977,5,0
400,96,135310,1,0
352,112,135644,1,0
368,160,135977,1,2
384,208,136310,6,0,B|384:304|288:336,1,150,4|0
256,352,137644,1,0
160,320,138310,1,0
80,272,138977,6,0,B|80:176|176:144,1,150,4|0
208,128,140310,1,0
240,224,140977,1,0
336,256,141644,6,0,B|410:232|410:136,1,150,4|0
400,96,142977,1,0
320,48,143644,1,0
256,128,144310,6,0,B|256:288,1,150,4|0
256,320,145644,1,4
160,368,146310,1,4
64,320,146977,1,2
64,320,147310,1,2
176,208,148310,6,0,B|224:48,1,150,4|0
192,16,149644,2,0,B|144:176,1,150
128,208,150977,5,4
48,160,151644,1,0
48,160,151977,1,0
48,160,152310,1,0
336,304,153644,6,0,B|288:144,1,150,4|0
320,112,154978,2,0,B|368:272,1,150
384,304,156311,5,4
464,256,156978,1,0
464,256,157311,1,0
464,256,157644,2,0,B|528:144|448:64,1,200,0|4
368,128,159644,5,0
320,208,160310,2,0,B|256:256|176:208,1,150,4|0
160,192,161477,2,0,B|192:320,1,125
192,48,162977,6,0,B|256:96|336:48,1,150,4|0
352,32,164144,2,0,B|320:160,1,125
336,256,165644,5,4
256,320,166310,1,0
208,256,166810,2,0,B|176:192|112:176,1,125
80,160,167977,1,0
48,144,168310,6,0,B|64:48|176:16,1,175,4|0
256,96,170310,1,0
256,96,170644,1,0
256,96,170977,6,0,B|272:192|384:224,1,175,4|0
320,336,172977,1,0
320,336,173310,1,0
320,336,173644,6,0,B|256:272|144:304,1,175,4|0
80,272,175310,1,0
48,176,175977,1,0
48,176,176310,6,0,B|128:160|176:96,1,150,4|4
208,64,177644,1,4
272,128,178310,1,0
256,224,178977,1,2
256,224,179310,1,2
256,192,179644,12,4,182310
