osu file format v7

[General]
AudioFilename: 08 Poinsettia.mp3
AudioLeadIn: 0
PreviewTime: 19159
Countdown: 0
SampleSet: Normal
StackLeniency: 0.4
Mode: 0
LetterboxInBreaks: 1

[Editor]
DistanceSpacing: 1.79999995231628
BeatDivisor: 4
GridSize: 8

[Metadata]
Title:Poinsettia
Artist:IOSYS
Creator:Aakiha
Version:Hard
Source:Touhou
Tags:sanae

[Difficulty]
HPDrainRate:5
CircleSize:4
OverallDifficulty:7
SliderMultiplier:1.6
SliderTickRate:1

[Events]
//Background and Video events
0,0,"sanaes.jpg"
//Break Periods
2,79360,79593
2,105859,106260
2,139359,143593
2,159359,159926
//Storyboard Layer 0 (Background)
//Storyboard Layer 1 (Fail)
//Storyboard Layer 2 (Pass)
//Storyboard Layer 3 (Foreground)
Sprite,Foreground,Centre,"BLACK.png",320,240 S,0,0,,2.608 F,0,0,4488,1 F,0,4488,7154,1,0.5800001 F,0,7154,7821,0.5800001,0.382 F,0,7821,8488,0.382,0
Sprite,Foreground,Centre,"White Effect.png",320,240 F,0,6821,7821,0,0.6751435 S,0,6821,7821,0.7839999,0.8239999 F,0,7821,7831,0.6751435,0.356014 S,0,7821,8488,0.8239999,2.464 F,0,7831,8488,0.356014,1 S,0,8488,,2.464 F,0,8488,8498,1,0.892985 F,0,8498,9154,0.892985,0
Sprite,Foreground,Centre,"White Effect.png",320,240 M,0,95829,,320,240 F,0,95829,96495,0,0.596 F,0,96495,96829,0.596,0.8839999 S,0,96495,96829,1,2.752 S,0,96829,97164,2.752,2.896 F,0,96829,97495,0.8839999,0 F,0,97495,101745,0,0.4213273
Sprite,Foreground,Centre,"BLACK.png",320,240 S,0,96495,96498,2.592,2.56 F,0,96495,97829,0,0.2180777 F,0,97829,99162,0.2180777,0.435992 F,0,99162,100495,0.435992,0.6539063 F,0,100495,101829,0.6539063,0.748 F,0,101829,102162,0.748,0
Sprite,Foreground,Centre,"White Effect.png",320,240 F,0,101829,102162,0.2159999,1 S,0,101829,102162,0.6160002,1.536 F,0,102162,102495,1,0
Sprite,Foreground,Centre,"White Effect.png",320,240 M,0,28821,,320,240 F,0,28821,29821,0,0.308 F,0,29821,31154,0.308,0.4192679 F,0,31154,32488,0.4192679,0.4039999 S,0,31154,32821,1,4.392 F,0,32488,32821,0.4039999,0
Sprite,Foreground,Centre,"Mini Light.png",320,240 F,0,32488,32821,0.728,1 S,0,32488,32821,0.1,0.172 M,0,32488,33821,464,111 F,0,32821,33821,1,0 S,0,32821,33821,0.172 M,0,33821,36488,464,111,169,100 F,0,33821,36488,0 S,0,33821,36488,0.172,0.1 S,0,36488,36654,0.1,0.1720001 F,0,36488,36821,0,1 F,0,36821,37488,1,0.03699699
Sprite,Foreground,Centre,"Mini Light.png",320,240 F,0,33821,34154,0.2360001,1 S,0,33821,34154,0.1,0.1720001 M,0,33821,35154,94,150 F,0,34154,35154,1,0 S,0,34154,35154,0.1720001 M,0,35154,36821,94,150,116,378 F,0,35154,36821,0 S,0,35154,36821,0.1720001,0.1 F,0,36821,36988,0,1 S,0,36821,36988,0.1,0.2200864 F,0,36988,37821,1,0
Sprite,Foreground,Centre,"Mini Light.png",320,240 F,0,35154,35488,0,1 S,0,35154,35488,0.1,0.2200003 F,0,35488,36488,1,0 S,0,35488,36488,0.2200003 M,0,36488,37154,355,330,460,297 F,0,36488,37154,0 S,0,36488,37154,0.2200003,0.1 R,0,36488,37154,-0.1599994,0.3360004 S,0,37154,37321,0.1,0.1639996 F,0,37154,37488,0,1 F,0,37488,38154,1,0.09999998
Sprite,Foreground,Centre,"White Effect.png",320,240 F,0,101829,102162,0.2159999,1 S,0,101829,102162,0.6160002,1.536 F,0,102162,102495,1,0
Sprite,Foreground,Centre,"BLACK.png",320,240 S,0,159152,,2.576 F,0,159152,160819,0,1 F,0,160819,167152,1,0.9982004 F,0,167152,168485,0.9982004,0.892
Sprite,Foreground,Centre,"Mini Light.png",320,240 M,0,37821,,407,61 F,0,37821,37988,0.344,1 S,0,37821,38154,0.1,0.1320001 F,0,37988,38488,1,0.984 F,0,38488,39154,0.984,0
Sprite,Foreground,Centre,"Mini Light.png",320,240 M,0,39154,,508,180 F,0,39154,39488,0.2800002,1 S,0,39154,39488,0.1,0.1560001 F,0,39488,40488,1,0
Sprite,Foreground,Centre,"Mini Light.png",320,240 M,0,40488,,177,335 F,0,40488,40821,0.5479997,1 S,0,40488,40821,0.1,0.2359998 F,0,40821,41154,1 F,0,41154,41821,1,0.1800003
Sprite,Foreground,Centre,"Mini Light.png",320,240 M,0,41821,,132,110 F,0,41821,41988,4.798174E-08,1 S,0,41821,41988,0.1,0.308 S,0,41988,42488,0.308 F,0,41988,43154,1,0 S,0,42488,43154,0.308,5 R,0,42488,43154,0,10.88
Sprite,Foreground,Centre,"Mini Light.png",320,240 M,0,42154,,376,345 S,0,42154,42321,0.1,0.34 F,0,42154,42488,0,1 S,0,42321,42488,0.34 F,0,42488,43154,1,0 S,0,42488,43154,0.34,3.772 R,0,42488,43154,0,10.848
Sprite,Foreground,Centre,"Mini Light.png",320,240 M,0,41988,,487,179 S,0,41988,42154,0.1,0.2040002 F,0,41988,42321,0.09199997,1 S,0,42154,42488,0.2040002 F,0,42321,43154,1,0 S,0,42488,43154,0.2040002,2.924 R,0,42488,43154,0,9.584
Sprite,Foreground,Centre,"Mini Light.png",320,240 M,0,42154,,180,328 F,0,42154,42321,0,1 S,0,42154,42321,0.1,0.1639999 S,0,42321,42488,0.1639999 F,0,42321,43154,1,0.1002391 S,0,42488,43154,0.1639999,2.716 R,0,42488,43154,0,8.128
Sprite,Foreground,Centre,"White Effect.png",320,240 F,0,42488,43154,0.14,1 S,0,42488,43821,1,2.980361 F,0,43154,43821,1,0
Sprite,Foreground,Centre,"sanaesyellow.jpg",320,240 S,0,97826,,0.7999998 F,0,97829,98495,0,1 F,0,98495,99162,1,0
Sprite,Foreground,Centre,"White Effect.png",320,240 F,0,167152,168485,0.08400008,0.7 S,0,167818,,1.015814 S,0,167818,169818,1.015814,1.992 F,0,168485,169485,1,0 F,0,168485,169485,0.7,0 S,0,169818,,1.992
Sprite,Foreground,Centre,"sanaesred.jpg",320,240 M,0,96498,,320,240 S,0,96498,,0.8000001 F,0,96498,97164,0,1 F,0,97164,97831,1,0
Sprite,Foreground,Centre,"sanaesy.jpg",320,240 F,0,97164,97831,0,1 S,0,97164,98498,0.8000003 F,0,97831,98498,1,0
Sprite,Foreground,Centre,"sanaeg.jpg",320,240 S,0,98498,,0.8000001 F,0,98498,99164,0,1 F,0,99164,99831,1,0
Sprite,Foreground,Centre,"sanaeblue.jpg",320,240 S,0,99831,,0.8000001 F,0,99831,100498,0,1 F,0,100498,101164,1,0
Sprite,Foreground,Centre,"sanaesyr.jpg",320,240 S,0,100498,,0.8000001 F,0,100498,101164,0,1 F,0,101164,101831,1,0
Sprite,Foreground,Centre,"sanaes7.jpg",320,240 M,0,101164,,320,240 S,0,101164,,0.7999998 F,0,101164,101831,0,1 F,0,101831,102498,1,0
Sprite,Foreground,Centre,"BLACK.png",320,240 S,0,107164,,2.568 F,0,107164,108164,0,0.612 F,0,108164,117498,0.612,0.6114091 F,0,117498,118164,0.6114091,0
Sprite,Foreground,Centre,"White Effect.png",320,240 F,0,116498,117498,0.1000001,0.3680001 F,0,117498,117831,0.3680001,0.484 S,0,117498,118164,1,3.016 F,0,117831,118498,0.484,0
Sprite,Foreground,Centre,"White Effect.png",320,240 M,0,107164,,320,240 F,0,107164,107498,0.5479999,0.608 S,0,107164,107498,1,1.264 F,0,107498,107831,0.608,0
//Storyboard Sound Samples
//Background Colour Transformations
3,100,0,0,0

[TimingPoints]
7160,333.333333333333,4,2,0,100,1,0
7826,-100,4,1,1,45,0,0
29493,-100,4,2,0,0,0,0
29659,-100,4,1,1,45,0,0
58826,-100,4,2,0,0,0,0
58993,-100,4,1,0,45,0,0
74826,-100,4,2,0,0,0,0
74993,-100,4,1,1,45,0,0
96493,-200,4,2,0,44,0,0
101743,-100,4,1,0,45,0,0
107159,-200,4,1,0,44,0,0
117576,-100,4,1,1,45,0,0
125826,-200,4,1,0,44,0,0
126909,-100,4,1,0,45,0,0
149493,-100,4,2,0,45,0,0
149659,-100,4,1,1,45,0,0

[Colours]
Combo1 : 255,0,255
Combo2 : 0,255,255

[HitObjects]
296,80,7160,1,0
224,120,7326,1,0
224,120,7410,1,0
224,120,7493,1,0
168,64,7660,1,0
96,80,7826,6,0,B|64:136,3,40
112,136,8160,2,0,B|128:176,3,40
104,200,8493,2,0,B|104:296,1,80
184,256,8826,2,0,B|272:256,1,80
416,312,9326,1,0
416,312,9660,1,0
384,152,9993,6,0,B|480:152,2,80,0|8|0
312,192,10493,1,0
240,152,10659,1,0
176,192,10826,1,8
112,144,10993,1,0
64,208,11159,6,0,B|64:304,1,80
136,328,11493,2,0,B|136:232,1,80
136,88,11993,1,0
136,88,12326,1,0
136,88,12659,5,0
200,144,12826,1,8
144,200,12993,1,0
96,264,13159,2,0,B|176:312,1,80
216,248,13493,2,8,B|304:288,1,80
360,304,13826,5,0
400,232,13993,1,0
432,160,14159,1,0
464,88,14326,1,0
304,72,14659,1,0
248,224,14993,1,0
248,224,15326,5,0
208,160,15493,2,0,B|192:104|128:96,1,80,8|0
80,88,15826,2,0,B|80:136|112:160,1,80
152,224,16159,2,0,B|152:312,1,80,8|0
80,336,16493,5,0
152,304,16659,1,0
232,288,16826,1,0
312,312,16993,1,0
392,168,17326,2,0,B|208:168,1,160
232,152,19159,6,0,B|200:72|104:80,2,120,0|4|0
280,216,19826,2,0,B|304:296|408:288,1,120,0|4
352,168,20326,1,0
288,112,20493,6,0,B|312:32|416:40,2,120,0|4|0
272,192,21160,2,0,B|248:272|144:264,1,120,0|4
200,144,21660,1,0
272,104,21826,6,0,B|416:104,2,120,0|4|0
192,104,22493,1,0
72,104,22743,1,4
168,32,22993,1,0
248,32,23160,1,0
408,160,24493,5,0
288,160,24743,1,4
200,72,24993,1,0
280,72,25160,1,0
200,160,25410,1,4
80,160,25660,1,0
80,240,25826,5,0
200,240,26076,1,4
288,328,26326,1,0
208,328,26493,1,0
288,240,26743,1,4
408,232,26993,1,0
352,168,27160,6,0,L|376:112|472:112,2,120,0|4|0
288,120,27826,2,0,L|264:176|168:176,2,120,0|4|0
256,192,28493,12,0,29493
256,192,29826,5,0
256,192,29993,1,0
256,192,30160,1,8
392,104,30493,1,8
456,248,30826,1,8
456,248,30993,2,8,L|296:248,1,160
320,328,31493,2,0,L|232:328,1,80
184,272,31826,2,0,B|136:296,6,40
192,232,32493,6,0,B|176:120|80:80,1,160,0|8
64,160,32993,2,0,B|160:192|240:120,1,160
280,88,33493,2,8,B|352:152,1,80
416,160,33826,6,0,B|376:264|288:296,1,160,0|8
392,312,34326,2,0,B|296:256|208:320,1,160
160,328,34826,2,8,B|113:249,1,80
88,184,35160,6,0,B|192:160|256:256,1,160,0|8
312,248,35660,2,0,B|256:184|272:72,1,160
312,32,36160,1,0
384,64,36326,2,0,B|440:40,2,40
408,224,36826,1,0
296,336,37160,1,0
136,320,37493,1,0
136,320,37826,6,0,B|192:224|288:240,1,160,0|8
320,160,38326,2,0,B|368:248|480:256,1,160
416,160,38826,2,8,B|360:248,1,80
312,304,39160,6,0,B|304:200|216:160,1,160,0|8
200,80,39659,2,0,B|120:120|24:48,1,160
136,24,40159,2,8,B|112:88|144:136,1,80
208,176,40493,6,0,B|240:264|176:352,1,160,0|8
136,248,40993,2,0,B|208:320|296:272,1,160
281,279,41493,1,8
376,304,41659,5,0
376,304,41743,1,0
376,304,41826,1,0
472,176,41993,1,0
312,200,42159,1,0
456,280,42326,1,0
376,144,42493,2,0,B|368:96,6,40
376,144,43159,6,0,B|256:192|144:64,1,240
120,168,43826,2,0,B|192:240,1,80
176,224,44159,1,8
64,336,44493,6,0,B|224:360|287:271,1,240
352,208,45159,2,0,B|304:136,1,80
307,141,45493,1,8
192,32,45826,2,0,B|152:152|224:200|176:288,2,240,0|0|8
256,184,47159,5,0
256,184,47326,2,0,B|256:96,2,80
336,192,47826,1,0
296,264,47993,1,0
216,264,48159,1,0
176,192,48326,1,0
168,112,48493,6,0,B|208:48|272:32|352:72|368:144,1,240
264,344,49493,2,0,B|264:168,1,160
264,184,50159,1,8
264,184,50493,5,0
344,176,50659,1,0
304,104,50826,1,0
224,104,50993,1,0
184,176,51159,1,0
256,192,51243,12,0,52493
352,120,52659,6,0,B|400:136,6,40
264,88,53326,2,0,B|216:112,5,40
256,136,53826,6,0,B|264:280|112:304,1,240,4|0
112,224,54493,2,0,B|40:248|40:328,2,120
40,184,55159,2,0,B|120:112|280:192,1,240,4|0
216,248,55826,2,0,B|288:288|336:224,2,120
144,280,56493,6,0,B|104:224|176:184,1,80
216,168,56826,2,0,B|280:176|288:96,1,80
208,96,57159,2,0,B|144:88|136:168,1,80
216,248,57493,2,0,B|240:304|176:344,1,80
256,192,57826,12,0,58826
256,160,59159,6,0,B|296:16|472:104,1,240,4|0
448,176,59826,1,4
360,264,60076,1,4
248,312,60326,1,4
248,312,60493,2,0,B|288:136|104:144,1,240,4|0
160,224,61159,2,0,B|128:296|64:280,2,120
88,192,61826,5,0
256,24,62159,1,0
424,192,62493,1,0
256,360,62826,1,0
176,136,63159,5,0
352,136,63409,1,0
256,288,63659,1,0
256,192,63826,1,0
256,192,63909,1,0
256,192,63993,1,0
256,192,64076,1,0
256,192,64159,1,0
256,192,64243,1,0
256,192,64326,1,0
256,192,64409,1,0
256,192,64493,6,0,L|176:192|120:144,2,120,0|4|0
288,264,65159,2,0,L|368:264|424:312,1,120,0|4
424,176,65659,1,0
328,176,65826,6,0,L|328:96|376:40,2,120,0|4|0
184,208,66493,2,0,L|184:288|136:344,1,120,0|4
272,344,66993,1,0
272,256,67159,6,0,L|392:256,1,120,0|4
352,144,67659,1,0
272,144,67826,2,0,L|144:144,1,120,0|4
192,280,68326,2,0,L|192:360,1,80
296,136,69826,6,0,L|416:88,2,120,0|4|0
280,216,70493,2,0,L|168:272,1,120,0|4
224,160,70993,1,0
152,184,71159,6,0,L|80:72,2,120,0|4|0
192,256,71826,2,0,L|264:368,1,120,0|4
272,240,72326,1,0
352,216,72493,6,0,L|304:152|304:88,2,120,0|4|0
416,272,73159,2,0,L|376:304|307:304,2,120,0|4|0
256,192,73826,12,0,74826
176,96,75159,5,8
176,96,75382,1,8
176,96,75604,1,8
320,256,75826,5,8
320,256,76048,1,8
320,256,76271,1,8
104,248,76493,5,8
104,248,76715,1,8
104,248,76937,1,8
248,88,77159,5,8
248,88,77382,1,8
248,88,77604,1,8
240,304,77826,5,8
240,304,78048,1,8
240,304,78271,1,8
240,88,78493,5,8
240,160,78715,1,8
240,232,78937,1,8
240,304,79160,1,8
144,96,80493,5,8
248,96,80715,1,8
352,96,80937,1,8
472,192,81160,5,8
368,192,81382,1,8
264,192,81604,1,8
144,304,81826,5,8
248,304,82048,1,8
352,304,82271,1,8
264,192,82493,5,8
160,192,82715,1,8
56,192,82937,1,8
352,200,83160,5,8
184,96,83382,1,8
248,280,83604,1,8
288,96,83826,1,8
152,232,84048,1,8
344,200,84271,1,8
184,96,84493,1,8
104,72,85826,5,0
184,72,86160,1,8
264,72,86493,1,0
344,72,86826,1,8
392,136,87160,6,0,L|480:72,2,80,0|0|8
392,136,87660,1,8
392,216,87826,2,0,B|352:272|304:256,1,80
272,200,88160,2,0,B|224:208|208:264,1,80,8|0
200,328,88493,6,0,B|120:304|72:208,1,160,0|8
144,184,88993,2,0,B|128:96|192:32,1,160
240,96,89493,1,0
320,120,89660,1,0
376,56,89826,2,0,B|432:152|384:248,1,160,0|8
480,216,90326,2,0,B|448:304|336:328,1,160
328,336,90743,2,0,B|336:376,4,40
304,304,91160,6,0,B|232:256|136:296,1,160,0|8
216,344,91660,2,0,B|160:296|176:184,1,160
208,128,92160,1,8
272,80,92326,1,0
328,136,92493,2,0,B|344:184|328:232,1,80
272,272,92826,2,0,B|240:232|264:176,1,80,8|0
256,196,93160,5,0
256,196,93326,1,0
256,196,93493,1,8
256,196,93660,1,8
192,152,93826,6,0,B|136:144|104:176,1,80
328,152,94160,2,8,B|384:160|416:128,1,80,8|0
192,248,94493,5,0
192,248,94660,1,0
192,248,94826,1,0
320,64,94993,2,0,B|176:24|88:128,1,240,0|8
248,168,95826,5,0
256,176,95910,1,0
264,184,95993,1,0
272,192,96076,1,0
280,200,96160,1,0
288,208,96243,1,0
296,216,96326,1,0
304,224,96410,1,0
312,232,96493,6,0,B|368:248,1,40,2|0
432,256,96826,2,0,B|480:224,1,40,2|0
472,152,97160,2,2,B|488:104,1,40
424,64,97493,2,2,B|376:32,1,40
224,40,97826,6,0,B|165:45,1,40,2|0
160,120,98159,2,0,B|126:167,1,40,2|0
144,232,98493,2,2,B|144:288,1,40
184,344,98826,2,2,B|231:374,1,40
304,232,99159,6,0,B|362:234,1,40,2|0
360,160,99492,2,0,B|399:118,1,40,2|0
344,72,99826,2,2,B|348:21,1,40
272,32,100159,2,2,B|218:11,1,40
160,152,100493,6,0,B|128:200,1,40,2|0
184,240,100826,2,0,B|188:297,1,40,2|0
256,272,101160,2,2,B|304:280,1,40
296,208,101493,2,2,B|288:152,1,40
224,112,101826,5,0
160,160,101993,1,0
160,240,102160,1,0
224,288,102326,1,0
392,200,102660,6,0,B|224:200,2,160
392,280,103493,1,0
456,240,103660,1,0
456,160,103826,1,0
392,104,103993,1,0
328,144,104160,1,0
328,224,104326,1,0
304,304,104493,5,0
256,368,104660,1,0
176,368,104826,1,0
136,296,104993,1,0
216,136,105326,6,0,B|216:304,1,160
152,88,107160,5,0
224,80,107326,2,0,B|232:120|224:168,1,80
176,216,107826,1,0
144,280,107993,1,0
200,328,108160,1,0
272,320,108326,1,0
384,256,108493,5,0
320,224,108660,2,0,B|272:200|224:200,1,80,0|0
168,200,109160,1,0
96,224,109326,1,0
24,216,109493,1,0
24,144,109660,1,0
104,72,109826,5,0
176,56,109993,2,0,B|232:40|256:64,1,80
312,104,110493,2,0,B|344:136|384:136,1,80
456,144,110993,2,0,B|464:112,2,20
376,264,111493,1,0
240,296,111826,1,0
112,232,112160,1,0
168,96,112493,6,0,B|216:144|208:208,1,120
208,204,113160,1,0
208,204,113493,1,0
344,288,113826,6,0,B|296:240|304:176,1,120
303,179,114493,1,0
303,179,114826,1,0
168,232,115160,6,0,B|96:240|48:296,2,120
256,240,116326,1,0
256,240,116410,1,0
256,240,116493,1,0
352,240,116660,1,0
400,144,116826,1,0
368,48,116993,1,0
280,32,117160,2,0,B|256:88|240:120,1,80
240,136,117576,2,0,B|280:168,2,40
208,160,117826,6,0,B|152:224|64:224,1,160,0|8
80,144,118326,2,0,B|136:176|160:288,1,160
224,328,118826,1,8
288,280,118993,1,0
336,216,119160,6,0,B|352:128|440:80,1,160,0|8
464,160,119660,2,0,B|376:168|288:120,1,160
308,130,120160,1,8
160,72,120493,2,0,B|72:112|72:208,1,160,0|8
152,192,120993,2,0,B|152:280|232:344,1,160
144,312,121493,2,0,B|216:256|312:280,1,160,8|0
416,264,121993,5,0
344,168,122160,1,0
264,80,122326,1,0
184,168,122493,1,0
264,256,122660,1,0
344,168,122826,1,0
408,72,122993,1,0
448,144,123160,6,0,B|449:223|385:287,1,160,0|8
368,168,123660,2,0,B|368:80|288:32,1,160
264,112,124160,2,0,B|176:176|104:112,2,160,8|0|8
120,232,125160,5,0
200,240,125326,1,0
264,288,125493,1,0
344,288,125660,1,0
344,208,125826,2,0,B|224:192|184:304|112:304,1,240
56,280,126993,1,0
56,200,127160,2,0,B|24:168,3,40
64,152,127493,2,0,B|96:88,3,40
112,136,127826,2,0,B|176:144,7,40
120,168,128493,6,0,B|176:320|328:320,1,240,4|0
352,272,129160,2,0,B|400:336|328:400,2,120
280,240,129826,2,0,B|328:128|496:136,1,240
464,216,130493,6,0,B|392:200|344:296,2,120
440,296,131160,2,0,B|400:352|336:336,1,80,4|0
232,232,131493,2,0,B|272:176|336:192,1,80
288,280,131826,2,0,B|304:328|264:360,1,80
200,144,132160,2,0,B|184:96|224:64,1,80
256,192,132493,12,4,133826
112,88,134326,5,0
112,88,134493,2,0,B|112:224,2,120,4|0|0
40,120,135160,2,0,B|128:200|288:192,1,240,4|0
336,232,135826,2,0,B|336:152|384:104,2,120
336,320,136493,5,0
96,312,136826,1,0
104,72,137160,1,0
344,72,137493,1,0
224,272,137826,5,0
224,152,138076,1,0
224,32,138326,1,0
224,32,138493,2,0,B|224:232,1,160
224,232,138910,2,0,B|224:280,3,40,0|0|0|4
248,152,144493,6,0,L|328:152|384:112,2,120,0|4|0
264,232,145160,2,0,L|184:232|128:272,1,120,0|4
168,136,145660,1,0
248,160,145826,6,0,L|248:96|192:48,2,120,0|4|0
184,208,146493,2,0,L|128:256|72:256,1,120,0|4
192,304,146993,1,0
256,256,147160,6,0,L|320:256|368:288,2,120,0|4|0
272,336,147826,2,0,L|200:336|160:296,2,120,0|4|0
256,192,148493,12,0,149493
160,96,149826,5,8
160,96,150048,1,8
160,96,150285,1,8
368,160,150493,5,8
368,160,150715,1,8
368,160,150937,1,8
184,272,151160,5,8
184,272,151382,1,8
184,272,151604,1,8
256,80,151826,5,8
256,80,152048,1,8
256,80,152271,1,8
256,80,152493,5,8
344,136,152715,1,8
344,240,152937,1,8
256,296,153159,1,8
168,232,153382,1,8
168,128,153604,1,8
256,184,153826,1,8
400,40,155160,5,8
296,40,155382,1,8
192,40,155604,1,8
32,136,155826,5,8
136,136,156048,1,8
240,136,156271,1,8
408,232,156493,5,8
304,232,156715,1,8
200,232,156937,1,8
24,328,157160,5,8
128,328,157382,1,8
232,328,157604,1,8
248,192,157826,5,8
160,136,158048,1,8
160,240,158271,1,8
248,304,158493,1,8
336,240,158715,1,8
336,136,158937,1,8
248,72,159159,1,8
200,192,160826,5,4
64,104,161159,2,0,B|64:216,2,106.666666666667
312,192,162159,5,4
448,104,162493,2,0,B|448:216,2,106.666666666667
256,192,163493,5,4
256,192,163826,2,0,B|256:320,2,106.666666666667
256,192,165159,12,4,167159
256,184,167659,5,4
256,184,168159,1,4
256,184,168243,1,0
256,184,168326,1,0
256,184,168409,1,0
256,184,168493,1,4
