osu file format v6

[General]
AudioFilename: Playing with Dolls.mp3
AudioLeadIn: 0
PreviewTime: 64540
Countdown: 1
SampleSet: Soft
StackLeniency: 0.7
Mode: 0
LetterboxInBreaks: 1

[Editor]
DistanceSpacing: 0.790000021457672
BeatDivisor: 4
GridSize: 8

[Metadata]
Title:Playing with Dolls
Artist:IOSYS
Creator:pieguy1372
Version:Normal
Source:
Tags:touhou iosys innocent key playing with dolls play oningyou asobi

[Difficulty]
HPDrainRate:4
CircleSize:4
OverallDifficulty:4
SliderMultiplier:1.2
SliderTickRate:1

[Events]
//Background and Video events
Video,-100,"nengaranenju_tr03pv.avi"
0,0,"bg.png"
//Break Periods
//Storyboard Layer 0 (Background)
//Storyboard Layer 1 (Fail)
//Storyboard Layer 2 (Pass)
//Storyboard Layer 3 (Foreground)
//Storyboard Sound Samples
//Background Colour Transformations
3,100,163,162,255

[TimingPoints]
517,363.636363636364,4,2,0,100,1,0
64517,-100,4,2,0,100,0,1
87789,-100,4,2,0,100,0,0

[Colours]
Combo1 : 80,120,192
Combo2 : 255,255,255
Combo3 : 250,245,198
Combo4 : 50,50,50

[HitObjects]
256,192,3426,1,0
224,48,4698,6,0,C|288:48,1,60
288,336,6153,6,0,C|224:336,1,60
256,120,7062,5,0
256,264,7607,5,0
304,264,7789,2,0,C|328:280|360:264,3,60
400,264,8517,2,0,C|424:280|456:264,3,60
456,216,9244,5,4
456,168,9426,2,2,C|456:40,2,120,2|2|2
360,168,10516,1,2
360,168,10698,1,0
360,168,10880,2,2,C|360:304,2,120
264,168,11971,5,2
264,168,12153,1,0
264,168,12335,2,2,C|264:48,2,120
168,168,13426,1,2
168,168,13607,1,0
168,168,13789,2,2,C|168:288,2,120
72,168,14880,6,0,C|0:168,2,60,2|4|2
152,120,15607,1,2
152,120,15971,1,2
152,216,16335,2,0,C|152:280,2,60,2|0|2
248,216,17062,1,2
248,216,17426,1,2
344,216,17789,6,0,C|376:232|400:208,2,60,2|0|2
296,136,18516,1,2
296,136,18880,1,2
200,136,19244,2,0,C|168:120|144:144,2,60,2|0|2
152,216,19971,1,2
152,216,20335,1,2
152,312,20698,6,2,B|184:312|216:296|232:272|232:232,1,120
232,144,21426,1,2
232,144,21789,1,2
328,144,22153,2,2,L|376:176|328:216,1,120
232,216,22880,1,2
232,216,23244,1,2
136,216,23607,6,2,C|104:168|136:112,1,120
216,168,24335,1,2
216,168,24698,1,2
312,168,25062,2,2,L|344:120|384:168,1,120
384,264,25789,1,2
384,264,26153,1,2
288,264,26517,1,2
240,264,26698,6,0,C|176:264,3,60,4|0|0|0
88,264,27607,1,0
88,168,27971,2,0,C|120:112,1,60
162,98,28335,1,0
208,112,28517,2,0,C|240:168,1,60
376,168,29244,6,0,C|440:168,1,60
480,168,29607,2,0,B|480:200|464:232|440:248|400:248,1,120
407,247,30153,1,0
407,247,30335,1,0
216,224,31062,2,2,C|216:160,2,60
216,224,31607,2,2,B|176:224|144:200|128:168|128:128|168:88,1,180
304,96,32698,5,0
352,96,32880,2,0,B|416:96,5,60
456,96,33971,1,0
496,120,34153,1,0
496,168,34335,1,0
472,208,34517,1,0
336,256,35062,5,0
336,256,35244,1,0
288,256,35426,2,0,B|224:256,3,60
184,240,36153,1,0
144,208,36335,2,0,B|120:184|112:152|128:120|160:112|184:112,1,120
352,80,37426,1,0
400,72,37607,1,2
240,248,38516,5,0
192,248,38698,2,0,B|192:312,2,60
144,248,39244,2,0,B|144:184,2,60
96,248,39789,1,0
56,280,39971,1,0
72,328,40153,1,0
120,336,40335,1,0
256,336,40880,6,0,B|320:336,1,60
360,312,41244,2,0,B|408:272|408:200,1,120
408,112,41971,2,0,B|368:64|280:64,1,120
208,64,42698,2,2,B|136:104,3,60
168,192,44335,5,0
192,232,44516,2,0,B|224:288,1,60
312,288,45062,2,0,B|344:232,1,60
344,184,45426,2,0,B|312:128,1,60
264,128,45789,1,0
232,168,45971,1,0
256,208,46153,1,0
112,192,46698,6,0,B|40:192,1,60
52,192,47062,2,2,B|52:57,1,120
144,72,47789,2,2,B|208:72,1,60
296,72,48335,2,2,C|344:128|296:184|344:240|296:296,1,300
136,192,49971,5,4
256,120,50516,1,0
336,168,50880,1,0
376,192,51062,1,0
304,256,51426,2,2,C|230:211,4,60
160,256,52698,5,0
160,256,52880,2,0,B|120:216|104:184|104:152|136:120|176:120,1,180
170,120,53607,2,0,B|168:88|184:56|216:40|248:40,1,120
336,40,54335,2,2,B|464:40,3,120
456,136,55789,6,0,B|456:224|368:288,1,180,4|0
272,288,56698,1,0
224,288,56880,2,0,B|160:256,1,60
168,216,57244,2,0,B|232:184,1,60
224,144,57607,2,0,B|160:112,1,60
170,117,57971,1,0
296,192,58516,5,0
344,192,58698,2,4,B|344:96,2,90
296,192,59426,2,4,B|296:288,2,90
248,192,60153,2,4,B|248:88,2,90
200,192,60880,1,0
104,192,61244,1,0
256,192,61607,12,4,63062
64,192,64516,6,0,B|64:96,2,90,4|0|0
112,192,65244,2,0,B|112:288,2,90
160,192,65971,2,0,B|160:96,2,90
208,192,66698,2,0,B|208:296,2,90
256,192,67426,6,0,B|320:192,3,60
360,192,68153,2,0,B|464:192,2,90
360,144,68880,1,0
360,48,69244,1,0
264,48,69607,2,2,L|227:95|264:144,1,120
264,240,70335,6,0,L|224:321|184:240,1,180,4|0
136,240,71062,2,0,L|96:321|56:240,1,180
56,192,71789,1,0
56,192,72153,1,0
56,96,72516,1,0
56,96,72880,1,0
192,224,73607,5,0
256,296,73971,2,0,L|160:296,2,90
256,248,74698,2,2,L|352:248,2,90
256,200,75426,2,2,L|256:80,1,120
352,80,76153,5,4
432,136,76516,1,0
352,192,76880,1,0
432,248,77244,1,0
352,304,77607,1,0
272,248,77971,1,0
192,192,78335,1,0
112,248,78698,1,0
192,304,79062,6,0,L|256:304,3,60
296,304,79789,2,0,C|368:356|440:304,1,180
464,264,80516,1,2
488,224,80698,1,2
488,176,80880,1,2
472,128,81062,1,2
432,104,81244,1,2
344,144,81607,1,0
256,104,81971,6,0,C|168:144,1,90
184,72,82516,1,0
128,96,82698,2,0,C|40:136,1,90
48,200,83244,1,0
48,248,83426,2,0,C|96:328,1,90
168,328,83971,1,0
192,288,84153,2,0,C|240:208,1,90,0|0
272,272,84698,1,0
312,296,84880,5,0
384,296,85153,1,0
456,296,85426,1,0
456,248,85607,1,4
456,176,85880,1,0
456,104,86153,1,0
456,56,86335,5,4
384,56,86607,1,0
312,56,86880,1,0
272,80,87062,1,4
208,120,87335,1,0
144,160,87607,1,0
256,192,87789,12,4,89062
256,192,89244,5,6
224,192,90516,6,4,C|288:192,1,60
96,192,91426,1,4
96,336,91971,1,0
144,336,92153,2,0,C|200:304,1,60,4|0
240,304,92516,2,0,C|304:344,1,60,4|0
336,336,92880,2,0,C|368:264,1,60,4|0
360,232,93244,2,0,C|336:168,1,60,4|0
224,192,95062,6,4,C|288:192,3,60
